  0
SECTION
  2
HEADER
  9
$ACADVER
  1
AC1024
  9
$DWGCODEPAGE
  3
ANSI_1252
  9
$EXTMAX
 10
210.0
 20
297.0
 30
0.0
  9
$EXTMIN
 10
0.0
 20
0.0
 30
0.0
  9
$LIMMIN
 10
0.0
 20
0.0
  9
$LIMMAX
 10
210.0
 20
297.0
  9
$VIEWCTR
 10
105.0
 20
148.5
  9
$VIEWSIZE
 40
297.0
  9
$CLAYER
  8
0
  9
$LTSCALE
 40
19.36
  9
$CELTYPE
  6
BYLAYER
  9
$DIMSCALE
 40
1.0
  9
$DIMASZ
 40
3.0
  9
$DIMEXO
 40
0.5
  9
$DIMDLI
 40
13.376
  9
$DIMEXE
 40
1.5
  9
$DIMCEN
 40
3.168
  9
$DIMLFAC
 40
1.0
  9
$DIMBLK
  1
_FILLED
  9
$DIMALT
 70
0
  9
$DIMALTF
 40
0.0393700787
  9
$DIMTXT
 40
3.0
  9
$DIMTOL
 70
1
  9
$DIMLIM
 70
0
  9
$DIMTFAC
 40
1.0
  9
$DIMTP
 40
0.01
  9
$DIMTM
 40
0.01
  9
$DIMGAP
 40
0.625
  9
$DIMDSEP
 70
44
  9
$AUNITS
 70
0
  9
$PDMODE
 70
3
  9
$PDSIZE
 40
3.0
  9
$HANDSEED
  5
757
  9
$TILEMODE
 70
1
  9
$MEASUREMENT
 70
1
  9
$INSUNITS
 70
4
  0
ENDSEC
  0
SECTION
  2
CLASSES
  0
CLASS
  1
ACDBDICTIONARYWDFLT
  2
AcDbDictionaryWithDefault
  3
AutoCAD 2000
 90
0
 91
1
280
0
281
0
  0
CLASS
  1
ACDBPLACEHOLDER
  2
AcDbPlaceHolder
  3
AutoCAD 2000
 90
0
 91
1
280
0
281
0
  0
CLASS
  1
LAYOUT
  2
AcDbLayout
  3
AutoCAD 2000
 90
0
 91
0
280
0
281
0
  0
ENDSEC
  0
SECTION
  2
TABLES
  0
TABLE
  2
VPORT
  5
8
100
AcDbSymbolTable
 70
2
  0
VPORT
  5
1F4
100
AcDbSymbolTableRecord
100
AcDbViewportTableRecord
  2
*ACTIVE
 70
0
 10
0.0
 20
0.0
 11
1.0
 21
1.0
 12
105.0
 22
148.5
 13
0.0
 23
0.0
 14
1.0
 24
1.0
 15
0.0
 25
0.0
 16
0.0
 26
0.0
 36
1.0
 17
0.0
 27
0.0
 37
0.0
 40
297.0
 41
0.7070707071
 42
50.0
 43
0.0
 44
0.0
 50
0.0
 51
0.0
 71
0
 72
100
 73
1
 74
1
 75
0
 76
0
 77
0
 78
0
  0
ENDTAB
  0
TABLE
  2
LTYPE
  5
5
100
AcDbSymbolTable
 70
6
  0
LTYPE
  5
14
100
AcDbSymbolTableRecord
100
AcDbLinetypeTableRecord
  2
BYBLOCK
 70
0
  3

 72
65
 73
0
 40
0.0
  0
LTYPE
  5
15
100
AcDbSymbolTableRecord
100
AcDbLinetypeTableRecord
  2
BYLAYER
 70
0
  3

 72
65
 73
0
 40
0.0
  0
LTYPE
  5
16
100
AcDbSymbolTableRecord
100
AcDbLinetypeTableRecord
  2
CONTINUOUS
 70
64
  3
Solid line
 72
65
 73
0
 40
0.0
  0
LTYPE
  5
1F5
100
AcDbSymbolTableRecord
100
AcDbLinetypeTableRecord
  2
CENTER
 70
64
  3
____ _ ____ _ ____ _ ____ _ ____ _ ____ _ ____
 72
65
 73
4
 40
0.6
 49
0.375
 74
0
 49
-0.075
 74
0
 49
0.075
 74
0
 49
-0.075
 74
0
  0
LTYPE
  5
1F6
100
AcDbSymbolTableRecord
100
AcDbLinetypeTableRecord
  2
HIDDEN
 70
64
  3
- - - - - - - - - - - - - - - - - - - -
 72
65
 73
2
 40
0.2
 49
0.1
 74
0
 49
-0.1
 74
0
  0
LTYPE
  5
1F7
100
AcDbSymbolTableRecord
100
AcDbLinetypeTableRecord
  2
PHANTOM
 70
64
  3
_____ _ _ _____ _ _ _____ _ _ _____
 72
65
 73
6
 40
0.8
 49
0.45
 74
0
 49
-0.05
 74
0
 49
0.1
 74
0
 49
-0.05
 74
0
 49
0.1
 74
0
 49
-0.05
 74
0
  0
LTYPE
  5
1F8
100
AcDbSymbolTableRecord
100
AcDbLinetypeTableRecord
  2
DOT
 70
64
  3
. . . . . . . . . . . . . . . . . . . .
 72
65
 73
2
 40
0.2
 49
0.1
 74
0
 49
-0.1
 74
0
  0
LTYPE
  5
1F9
100
AcDbSymbolTableRecord
100
AcDbLinetypeTableRecord
  2
DASHED
 70
64
  3
- - - - - - - - - - - - - - - - - - - -
 72
65
 73
2
 40
0.2
 49
0.1
 74
0
 49
-0.1
 74
0
  0
ENDTAB
  0
TABLE
  2
LAYER
  5
2
100
AcDbSymbolTable
 70
36
  0
LAYER
  5
10
100
AcDbSymbolTableRecord
100
AcDbLayerTableRecord
  2
0
 70
0
 62
7
  6
CONTINUOUS
370
-3
390
F
  0
LAYER
  5
1FA
100
AcDbSymbolTableRecord
100
AcDbLayerTableRecord
  2
DEFAULT_1
 70
0
 62
7
  6
CENTER
370
-3
390
F
  0
LAYER
  5
1FB
100
AcDbSymbolTableRecord
100
AcDbLayerTableRecord
  2
DEFAULT_2
 70
0
 62
7
  6
HIDDEN
370
-3
390
F
  0
LAYER
  5
1FC
100
AcDbSymbolTableRecord
100
AcDbLayerTableRecord
  2
DEFAULT_3
 70
0
 62
7
  6
PHANTOM
370
-3
390
F
  0
LAYER
  5
1FD
100
AcDbSymbolTableRecord
100
AcDbLayerTableRecord
  2
0603_C_REF_90000
 70
0
 62
7
  6
CONTINUOUS
370
-3
390
F
  0
LAYER
  5
1FE
100
AcDbSymbolTableRecord
100
AcDbLayerTableRecord
  2
0603_C_REF_90000_1
 70
0
 62
7
  6
CONTINUOUS
370
-3
390
F
  0
LAYER
  5
1FF
100
AcDbSymbolTableRecord
100
AcDbLayerTableRecord
  2
0603_C_REF_90000_1_1
 70
0
 62
7
  6
CONTINUOUS
370
-3
390
F
  0
LAYER
  5
200
100
AcDbSymbolTableRecord
100
AcDbLayerTableRecord
  2
0603_C_REF_90000_1_2
 70
0
 62
7
  6
CONTINUOUS
370
-3
390
F
  0
LAYER
  5
201
100
AcDbSymbolTableRecord
100
AcDbLayerTableRecord
  2
0603_C_REF_90000_2
 70
0
 62
7
  6
CONTINUOUS
370
-3
390
F
  0
LAYER
  5
202
100
AcDbSymbolTableRecord
100
AcDbLayerTableRecord
  2
0603_C_REF_90000_2_1
 70
0
 62
7
  6
CONTINUOUS
370
-3
390
F
  0
LAYER
  5
203
100
AcDbSymbolTableRecord
100
AcDbLayerTableRecord
  2
0603_C_REF_90000_3
 70
0
 62
7
  6
CONTINUOUS
370
-3
390
F
  0
LAYER
  5
204
100
AcDbSymbolTableRecord
100
AcDbLayerTableRecord
  2
0603_C_REF_90000_3_1
 70
0
 62
7
  6
CONTINUOUS
370
-3
390
F
  0
LAYER
  5
205
100
AcDbSymbolTableRecord
100
AcDbLayerTableRecord
  2
0603_C_REF_90000_4
 70
0
 62
7
  6
CONTINUOUS
370
-3
390
F
  0
LAYER
  5
206
100
AcDbSymbolTableRecord
100
AcDbLayerTableRecord
  2
0603_C_REF_90000_4_1
 70
0
 62
7
  6
CONTINUOUS
370
-3
390
F
  0
LAYER
  5
207
100
AcDbSymbolTableRecord
100
AcDbLayerTableRecord
  2
0603_C_REF_90000_5
 70
0
 62
7
  6
CONTINUOUS
370
-3
390
F
  0
LAYER
  5
208
100
AcDbSymbolTableRecord
100
AcDbLayerTableRecord
  2
0603_C_REF_90000_5_1
 70
0
 62
7
  6
CONTINUOUS
370
-3
390
F
  0
LAYER
  5
209
100
AcDbSymbolTableRecord
100
AcDbLayerTableRecord
  2
0603_R_REF_55000
 70
0
 62
7
  6
CONTINUOUS
370
-3
390
F
  0
LAYER
  5
20A
100
AcDbSymbolTableRecord
100
AcDbLayerTableRecord
  2
0603_R_REF_55000_1
 70
0
 62
7
  6
CONTINUOUS
370
-3
390
F
  0
LAYER
  5
20B
100
AcDbSymbolTableRecord
100
AcDbLayerTableRecord
  2
0603_R_REF_55000_1_1
 70
0
 62
7
  6
CONTINUOUS
370
-3
390
F
  0
LAYER
  5
20C
100
AcDbSymbolTableRecord
100
AcDbLayerTableRecord
  2
0603_R_REF_55000_1_2
 70
0
 62
7
  6
CONTINUOUS
370
-3
390
F
  0
LAYER
  5
20D
100
AcDbSymbolTableRecord
100
AcDbLayerTableRecord
  2
0603_R_REF_55000_2
 70
0
 62
7
  6
CONTINUOUS
370
-3
390
F
  0
LAYER
  5
20E
100
AcDbSymbolTableRecord
100
AcDbLayerTableRecord
  2
0603_R_REF_55000_2_1
 70
0
 62
7
  6
CONTINUOUS
370
-3
390
F
  0
LAYER
  5
20F
100
AcDbSymbolTableRecord
100
AcDbLayerTableRecord
  2
0603_R_REF_55000_3
 70
0
 62
7
  6
CONTINUOUS
370
-3
390
F
  0
LAYER
  5
210
100
AcDbSymbolTableRecord
100
AcDbLayerTableRecord
  2
0603_R_REF_55000_3_1
 70
0
 62
7
  6
CONTINUOUS
370
-3
390
F
  0
LAYER
  5
211
100
AcDbSymbolTableRecord
100
AcDbLayerTableRecord
  2
0603_R_REF_55000_4
 70
0
 62
7
  6
CONTINUOUS
370
-3
390
F
  0
LAYER
  5
212
100
AcDbSymbolTableRecord
100
AcDbLayerTableRecord
  2
0603_R_REF_55000_4_1
 70
0
 62
7
  6
CONTINUOUS
370
-3
390
F
  0
LAYER
  5
213
100
AcDbSymbolTableRecord
100
AcDbLayerTableRecord
  2
0603_R_REF_55000_5
 70
0
 62
7
  6
CONTINUOUS
370
-3
390
F
  0
LAYER
  5
214
100
AcDbSymbolTableRecord
100
AcDbLayerTableRecord
  2
0603_R_REF_55000_5_1
 70
0
 62
7
  6
CONTINUOUS
370
-3
390
F
  0
LAYER
  5
215
100
AcDbSymbolTableRecord
100
AcDbLayerTableRecord
  2
06___PRT_ALL_SURFS
 70
0
 62
7
  6
CONTINUOUS
370
-3
390
F
  0
LAYER
  5
216
100
AcDbSymbolTableRecord
100
AcDbLayerTableRecord
  2
06___PRT_ALL_SURFS_1
 70
0
 62
7
  6
CONTINUOUS
370
-3
390
F
  0
LAYER
  5
217
100
AcDbSymbolTableRecord
100
AcDbLayerTableRecord
  2
06___PRT_ALL_SURFS_10
 70
0
 62
7
  6
CONTINUOUS
370
-3
390
F
  0
LAYER
  5
218
100
AcDbSymbolTableRecord
100
AcDbLayerTableRecord
  2
06___PRT_ALL_SURFS_11
 70
0
 62
7
  6
CONTINUOUS
370
-3
390
F
  0
LAYER
  5
219
100
AcDbSymbolTableRecord
100
AcDbLayerTableRecord
  2
06___PRT_ALL_SURFS_12
 70
0
 62
7
  6
CONTINUOUS
370
-3
390
F
  0
LAYER
  5
21A
100
AcDbSymbolTableRecord
100
AcDbLayerTableRecord
  2
06___PRT_ALL_SURFS_13
 70
0
 62
7
  6
CONTINUOUS
370
-3
390
F
  0
LAYER
  5
21B
100
AcDbSymbolTableRecord
100
AcDbLayerTableRecord
  2
06___PRT_ALL_SURFS_14
 70
0
 62
7
  6
CONTINUOUS
370
-3
390
F
  0
LAYER
  5
21C
100
AcDbSymbolTableRecord
100
AcDbLayerTableRecord
  2
06___PRT_ALL_SURFS_15
 70
0
 62
7
  6
CONTINUOUS
370
-3
390
F
  0
LAYER
  5
21D
100
AcDbSymbolTableRecord
100
AcDbLayerTableRecord
  2
06___PRT_ALL_SURFS_17
 70
0
 62
7
  6
CONTINUOUS
370
-3
390
F
  0
LAYER
  5
21E
100
AcDbSymbolTableRecord
100
AcDbLayerTableRecord
  2
06___PRT_ALL_SURFS_19
 70
0
 62
7
  6
CONTINUOUS
370
-3
390
F
  0
LAYER
  5
21F
100
AcDbSymbolTableRecord
100
AcDbLayerTableRecord
  2
06___PRT_ALL_SURFS_2
 70
0
 62
7
  6
CONTINUOUS
370
-3
390
F
  0
LAYER
  5
220
100
AcDbSymbolTableRecord
100
AcDbLayerTableRecord
  2
06___PRT_ALL_SURFS_20
 70
0
 62
7
  6
CONTINUOUS
370
-3
390
F
  0
LAYER
  5
221
100
AcDbSymbolTableRecord
100
AcDbLayerTableRecord
  2
06___PRT_ALL_SURFS_21
 70
0
 62
7
  6
CONTINUOUS
370
-3
390
F
  0
LAYER
  5
222
100
AcDbSymbolTableRecord
100
AcDbLayerTableRecord
  2
06___PRT_ALL_SURFS_22
 70
0
 62
7
  6
CONTINUOUS
370
-3
390
F
  0
LAYER
  5
223
100
AcDbSymbolTableRecord
100
AcDbLayerTableRecord
  2
06___PRT_ALL_SURFS_23
 70
0
 62
7
  6
CONTINUOUS
370
-3
390
F
  0
LAYER
  5
224
100
AcDbSymbolTableRecord
100
AcDbLayerTableRecord
  2
06___PRT_ALL_SURFS_24
 70
0
 62
7
  6
CONTINUOUS
370
-3
390
F
  0
LAYER
  5
225
100
AcDbSymbolTableRecord
100
AcDbLayerTableRecord
  2
06___PRT_ALL_SURFS_25
 70
0
 62
7
  6
CONTINUOUS
370
-3
390
F
  0
LAYER
  5
226
100
AcDbSymbolTableRecord
100
AcDbLayerTableRecord
  2
06___PRT_ALL_SURFS_26
 70
0
 62
7
  6
CONTINUOUS
370
-3
390
F
  0
LAYER
  5
227
100
AcDbSymbolTableRecord
100
AcDbLayerTableRecord
  2
06___PRT_ALL_SURFS_28
 70
0
 62
7
  6
CONTINUOUS
370
-3
390
F
  0
LAYER
  5
228
100
AcDbSymbolTableRecord
100
AcDbLayerTableRecord
  2
06___PRT_ALL_SURFS_3
 70
0
 62
7
  6
CONTINUOUS
370
-3
390
F
  0
LAYER
  5
229
100
AcDbSymbolTableRecord
100
AcDbLayerTableRecord
  2
06___PRT_ALL_SURFS_4
 70
0
 62
7
  6
CONTINUOUS
370
-3
390
F
  0
LAYER
  5
22A
100
AcDbSymbolTableRecord
100
AcDbLayerTableRecord
  2
06___PRT_ALL_SURFS_5
 70
0
 62
7
  6
CONTINUOUS
370
-3
390
F
  0
LAYER
  5
22B
100
AcDbSymbolTableRecord
100
AcDbLayerTableRecord
  2
06___PRT_ALL_SURFS_6
 70
0
 62
7
  6
CONTINUOUS
370
-3
390
F
  0
LAYER
  5
22C
100
AcDbSymbolTableRecord
100
AcDbLayerTableRecord
  2
06___PRT_ALL_SURFS_7
 70
0
 62
7
  6
CONTINUOUS
370
-3
390
F
  0
LAYER
  5
22D
100
AcDbSymbolTableRecord
100
AcDbLayerTableRecord
  2
06___PRT_ALL_SURFS_8
 70
0
 62
7
  6
CONTINUOUS
370
-3
390
F
  0
LAYER
  5
22E
100
AcDbSymbolTableRecord
100
AcDbLayerTableRecord
  2
0805_C_REF_145000
 70
0
 62
7
  6
CONTINUOUS
370
-3
390
F
  0
LAYER
  5
22F
100
AcDbSymbolTableRecord
100
AcDbLayerTableRecord
  2
0805_C_REF_145000_1
 70
0
 62
7
  6
CONTINUOUS
370
-3
390
F
  0
LAYER
  5
230
100
AcDbSymbolTableRecord
100
AcDbLayerTableRecord
  2
0805_C_REF_145000_1_1
 70
0
 62
7
  6
CONTINUOUS
370
-3
390
F
  0
LAYER
  5
231
100
AcDbSymbolTableRecord
100
AcDbLayerTableRecord
  2
0805_C_REF_145000_1_2
 70
0
 62
7
  6
CONTINUOUS
370
-3
390
F
  0
LAYER
  5
232
100
AcDbSymbolTableRecord
100
AcDbLayerTableRecord
  2
0805_R_REF_60000
 70
0
 62
7
  6
CONTINUOUS
370
-3
390
F
  0
LAYER
  5
233
100
AcDbSymbolTableRecord
100
AcDbLayerTableRecord
  2
0805_R_REF_60000_1
 70
0
 62
7
  6
CONTINUOUS
370
-3
390
F
  0
LAYER
  5
234
100
AcDbSymbolTableRecord
100
AcDbLayerTableRecord
  2
0805_R_REF_60000_2
 70
0
 62
7
  6
CONTINUOUS
370
-3
390
F
  0
LAYER
  5
235
100
AcDbSymbolTableRecord
100
AcDbLayerTableRecord
  2
0805_R_REF_60000_3
 70
0
 62
7
  6
CONTINUOUS
370
-3
390
F
  0
LAYER
  5
236
100
AcDbSymbolTableRecord
100
AcDbLayerTableRecord
  2
1206_C_REF_180000
 70
0
 62
7
  6
CONTINUOUS
370
-3
390
F
  0
LAYER
  5
237
100
AcDbSymbolTableRecord
100
AcDbLayerTableRecord
  2
1206_C_REF_180000_1
 70
0
 62
7
  6
CONTINUOUS
370
-3
390
F
  0
LAYER
  5
238
100
AcDbSymbolTableRecord
100
AcDbLayerTableRecord
  2
1206_R_REF_65000
 70
0
 62
7
  6
CONTINUOUS
370
-3
390
F
  0
LAYER
  5
239
100
AcDbSymbolTableRecord
100
AcDbLayerTableRecord
  2
1206_R_REF_65000_1
 70
0
 62
7
  6
CONTINUOUS
370
-3
390
F
  0
LAYER
  5
23A
100
AcDbSymbolTableRecord
100
AcDbLayerTableRecord
  2
3216-CF-RF-VIMAR_100000
 70
0
 62
7
  6
CONTINUOUS
370
-3
390
F
  0
LAYER
  5
23B
100
AcDbSymbolTableRecord
100
AcDbLayerTableRecord
  2
3216-CF-RF-VIMAR_100000_1
 70
0
 62
7
  6
CONTINUOUS
370
-3
390
F
  0
LAYER
  5
23C
100
AcDbSymbolTableRecord
100
AcDbLayerTableRecord
  2
3216-CF-RF-VIMAR_100000_1_1
 70
0
 62
7
  6
CONTINUOUS
370
-3
390
F
  0
LAYER
  5
23D
100
AcDbSymbolTableRecord
100
AcDbLayerTableRecord
  2
3216-CF-RF-VIMAR_100000_1_2
 70
0
 62
7
  6
CONTINUOUS
370
-3
390
F
  0
LAYER
  5
23E
100
AcDbSymbolTableRecord
100
AcDbLayerTableRecord
  2
3216-R1-RF-VIMAR_60000
 70
0
 62
7
  6
CONTINUOUS
370
-3
390
F
  0
LAYER
  5
23F
100
AcDbSymbolTableRecord
100
AcDbLayerTableRecord
  2
43000913A0
 70
0
 62
7
  6
CONTINUOUS
370
-3
390
F
  0
LAYER
  5
240
100
AcDbSymbolTableRecord
100
AcDbLayerTableRecord
  2
43000943A0
 70
0
 62
7
  6
CONTINUOUS
370
-3
390
F
  0
LAYER
  5
241
100
AcDbSymbolTableRecord
100
AcDbLayerTableRecord
  2
43000943B0
 70
0
 62
7
  6
CONTINUOUS
370
-3
390
F
  0
LAYER
  5
242
100
AcDbSymbolTableRecord
100
AcDbLayerTableRecord
  2
43000953A0
 70
0
 62
7
  6
CONTINUOUS
370
-3
390
F
  0
LAYER
  5
243
100
AcDbSymbolTableRecord
100
AcDbLayerTableRecord
  2
43000953B0
 70
0
 62
7
  6
CONTINUOUS
370
-3
390
F
  0
LAYER
  5
244
100
AcDbSymbolTableRecord
100
AcDbLayerTableRecord
  2
ASSI
 70
0
 62
7
  6
CONTINUOUS
370
-3
390
F
  0
LAYER
  5
245
100
AcDbSymbolTableRecord
100
AcDbLayerTableRecord
  2
CAP-E-6_3-11-2_5_1120000
 70
0
 62
7
  6
CONTINUOUS
370
-3
390
F
  0
LAYER
  5
246
100
AcDbSymbolTableRecord
100
AcDbLayerTableRecord
  2
CAP-E-6_3-11-2_5_1120000_1
 70
0
 62
7
  6
CONTINUOUS
370
-3
390
F
  0
LAYER
  5
247
100
AcDbSymbolTableRecord
100
AcDbLayerTableRecord
  2
CN_STH_USB_TYPE-C_24P_90_SHORT
 70
0
 62
7
  6
CONTINUOUS
370
-3
390
F
  0
LAYER
  5
248
100
AcDbSymbolTableRecord
100
AcDbLayerTableRecord
  2
COLOR16
 70
0
 62
7
  6
CONTINUOUS
370
-3
390
F
  0
LAYER
  5
249
100
AcDbSymbolTableRecord
100
AcDbLayerTableRecord
  2
COLOR21
 70
0
 62
7
  6
CONTINUOUS
370
-3
390
F
  0
LAYER
  5
24A
100
AcDbSymbolTableRecord
100
AcDbLayerTableRecord
  2
COLOR23
 70
0
 62
7
  6
CONTINUOUS
370
-3
390
F
  0
LAYER
  5
24B
100
AcDbSymbolTableRecord
100
AcDbLayerTableRecord
  2
COLOR24
 70
0
 62
7
  6
CONTINUOUS
370
-3
390
F
  0
LAYER
  5
24C
100
AcDbSymbolTableRecord
100
AcDbLayerTableRecord
  2
COLOR25
 70
0
 62
7
  6
CONTINUOUS
370
-3
390
F
  0
LAYER
  5
24D
100
AcDbSymbolTableRecord
100
AcDbLayerTableRecord
  2
COLOR29
 70
0
 62
7
  6
CONTINUOUS
370
-3
390
F
  0
LAYER
  5
24E
100
AcDbSymbolTableRecord
100
AcDbLayerTableRecord
  2
COLOR30
 70
0
 62
7
  6
CONTINUOUS
370
-3
390
F
  0
LAYER
  5
24F
100
AcDbSymbolTableRecord
100
AcDbLayerTableRecord
  2
COLOR31
 70
0
 62
7
  6
CONTINUOUS
370
-3
390
F
  0
LAYER
  5
250
100
AcDbSymbolTableRecord
100
AcDbLayerTableRecord
  2
COLOR32
 70
0
 62
7
  6
CONTINUOUS
370
-3
390
F
  0
LAYER
  5
251
100
AcDbSymbolTableRecord
100
AcDbLayerTableRecord
  2
COLOR33
 70
0
 62
7
  6
CONTINUOUS
370
-3
390
F
  0
LAYER
  5
252
100
AcDbSymbolTableRecord
100
AcDbLayerTableRecord
  2
COLOR34
 70
0
 62
7
  6
CONTINUOUS
370
-3
390
F
  0
LAYER
  5
253
100
AcDbSymbolTableRecord
100
AcDbLayerTableRecord
  2
COLOR35
 70
0
 62
7
  6
CONTINUOUS
370
-3
390
F
  0
LAYER
  5
254
100
AcDbSymbolTableRecord
100
AcDbLayerTableRecord
  2
COLOR36
 70
0
 62
7
  6
CONTINUOUS
370
-3
390
F
  0
LAYER
  5
255
100
AcDbSymbolTableRecord
100
AcDbLayerTableRecord
  2
COLOR37
 70
0
 62
7
  6
CONTINUOUS
370
-3
390
F
  0
LAYER
  5
256
100
AcDbSymbolTableRecord
100
AcDbLayerTableRecord
  2
COLOR38
 70
0
 62
7
  6
CONTINUOUS
370
-3
390
F
  0
LAYER
  5
257
100
AcDbSymbolTableRecord
100
AcDbLayerTableRecord
  2
COLOR39
 70
0
 62
7
  6
CONTINUOUS
370
-3
390
F
  0
LAYER
  5
258
100
AcDbSymbolTableRecord
100
AcDbLayerTableRecord
  2
COLOR40
 70
0
 62
7
  6
CONTINUOUS
370
-3
390
F
  0
LAYER
  5
259
100
AcDbSymbolTableRecord
100
AcDbLayerTableRecord
  2
COLOR41
 70
0
 62
7
  6
CONTINUOUS
370
-3
390
F
  0
LAYER
  5
25A
100
AcDbSymbolTableRecord
100
AcDbLayerTableRecord
  2
COLOR42
 70
0
 62
7
  6
CONTINUOUS
370
-3
390
F
  0
LAYER
  5
25B
100
AcDbSymbolTableRecord
100
AcDbLayerTableRecord
  2
COLOR43
 70
0
 62
7
  6
CONTINUOUS
370
-3
390
F
  0
LAYER
  5
25C
100
AcDbSymbolTableRecord
100
AcDbLayerTableRecord
  2
COLOR44
 70
0
 62
7
  6
CONTINUOUS
370
-3
390
F
  0
LAYER
  5
25D
100
AcDbSymbolTableRecord
100
AcDbLayerTableRecord
  2
COLOR46
 70
0
 62
7
  6
CONTINUOUS
370
-3
390
F
  0
LAYER
  5
25E
100
AcDbSymbolTableRecord
100
AcDbLayerTableRecord
  2
COLOR47
 70
0
 62
7
  6
CONTINUOUS
370
-3
390
F
  0
LAYER
  5
25F
100
AcDbSymbolTableRecord
100
AcDbLayerTableRecord
  2
COLOR5
 70
0
 62
7
  6
CONTINUOUS
370
-3
390
F
  0
LAYER
  5
260
100
AcDbSymbolTableRecord
100
AcDbLayerTableRecord
  2
COLOR6
 70
0
 62
7
  6
CONTINUOUS
370
-3
390
F
  0
LAYER
  5
261
100
AcDbSymbolTableRecord
100
AcDbLayerTableRecord
  2
COLORE_MATERIALE
 70
0
 62
7
  6
CONTINUOUS
370
-3
390
F
  0
LAYER
  5
262
100
AcDbSymbolTableRecord
100
AcDbLayerTableRecord
  2
COORDINATE
 70
0
 62
7
  6
CONTINUOUS
370
-3
390
F
  0
LAYER
  5
263
100
AcDbSymbolTableRecord
100
AcDbLayerTableRecord
  2
COORD_ORIGINE
 70
0
 62
7
  6
CONTINUOUS
370
-3
390
F
  0
LAYER
  5
264
100
AcDbSymbolTableRecord
100
AcDbLayerTableRecord
  2
COPY_PUBLISH
 70
0
 62
7
  6
CONTINUOUS
370
-3
390
F
  0
LAYER
  5
265
100
AcDbSymbolTableRecord
100
AcDbLayerTableRecord
  2
COSMETICI
 70
0
 62
7
  6
CONTINUOUS
370
-3
390
F
  0
LAYER
  5
266
100
AcDbSymbolTableRecord
100
AcDbLayerTableRecord
  2
CR_MR2P5_MSB_SW_PTH_1000000
 70
0
 62
7
  6
CONTINUOUS
370
-3
390
F
  0
LAYER
  5
267
100
AcDbSymbolTableRecord
100
AcDbLayerTableRecord
  2
CURVE
 70
0
 62
7
  6
CONTINUOUS
370
-3
390
F
  0
LAYER
  5
268
100
AcDbSymbolTableRecord
100
AcDbLayerTableRecord
  2
DB-SMD-ABS_145000
 70
0
 62
7
  6
CONTINUOUS
370
-3
390
F
  0
LAYER
  5
269
100
AcDbSymbolTableRecord
100
AcDbLayerTableRecord
  2
DRAFT
 70
0
 62
7
  6
CONTINUOUS
370
-3
390
F
  0
LAYER
  5
26A
100
AcDbSymbolTableRecord
100
AcDbLayerTableRecord
  2
E2_MARK_10000
 70
0
 62
7
  6
CONTINUOUS
370
-3
390
F
  0
LAYER
  5
26B
100
AcDbSymbolTableRecord
100
AcDbLayerTableRecord
  2
FIDUCIAL_1_2_MM_RUOTATO_45_1000
 70
0
 62
7
  6
CONTINUOUS
370
-3
390
F
  0
LAYER
  5
26C
100
AcDbSymbolTableRecord
100
AcDbLayerTableRecord
  2
FIDUCIAL_1_2_MM_RUOTATO_45_100_
 70
0
 62
7
  6
CONTINUOUS
370
-3
390
F
  0
LAYER
  5
26D
100
AcDbSymbolTableRecord
100
AcDbLayerTableRecord
  2
FIDUCIAL_1_2_MM_RUOTATO_45_10_1
 70
0
 62
7
  6
CONTINUOUS
370
-3
390
F
  0
LAYER
  5
26E
100
AcDbSymbolTableRecord
100
AcDbLayerTableRecord
  2
FIDUCIAL_1_2_MM_RUOTATO_45_10_2
 70
0
 62
7
  6
CONTINUOUS
370
-3
390
F
  0
LAYER
  5
26F
100
AcDbSymbolTableRecord
100
AcDbLayerTableRecord
  2
FIDUCIAL_1_2_MM_RUOTATO_45_10_3
 70
0
 62
7
  6
CONTINUOUS
370
-3
390
F
  0
LAYER
  5
270
100
AcDbSymbolTableRecord
100
AcDbLayerTableRecord
  2
FIDUCIAL_1_2_MM_RUOTATO_45_10__
 70
0
 62
7
  6
CONTINUOUS
370
-3
390
F
  0
LAYER
  5
271
100
AcDbSymbolTableRecord
100
AcDbLayerTableRecord
  2
GEOMETRIA_SOLIDA
 70
0
 62
7
  6
CONTINUOUS
370
-3
390
F
  0
LAYER
  5
272
100
AcDbSymbolTableRecord
100
AcDbLayerTableRecord
  2
GEOMETRIA_SOLIDA_1
 70
0
 62
7
  6
CONTINUOUS
370
-3
390
F
  0
LAYER
  5
273
100
AcDbSymbolTableRecord
100
AcDbLayerTableRecord
  2
GEOMETRIA_SOLIDA_1_1
 70
0
 62
7
  6
CONTINUOUS
370
-3
390
F
  0
LAYER
  5
274
100
AcDbSymbolTableRecord
100
AcDbLayerTableRecord
  2
GEOMETRIA_SOLIDA_2
 70
0
 62
7
  6
CONTINUOUS
370
-3
390
F
  0
LAYER
  5
275
100
AcDbSymbolTableRecord
100
AcDbLayerTableRecord
  2
GEOMETRIA_SOLIDA_3
 70
0
 62
7
  6
CONTINUOUS
370
-3
390
F
  0
LAYER
  5
276
100
AcDbSymbolTableRecord
100
AcDbLayerTableRecord
  2
IMPORT_IGES
 70
0
 62
7
  6
CONTINUOUS
370
-3
390
F
  0
LAYER
  5
277
100
AcDbSymbolTableRecord
100
AcDbLayerTableRecord
  2
IND-RAD-7_8-9_5-5_0-0_7_950000
 70
0
 62
7
  6
CONTINUOUS
370
-3
390
F
  0
LAYER
  5
278
100
AcDbSymbolTableRecord
100
AcDbLayerTableRecord
  2
INTFCLR_10207
 70
0
 62
7
  6
CONTINUOUS
370
-3
390
F
  0
LAYER
  5
279
100
AcDbSymbolTableRecord
100
AcDbLayerTableRecord
  2
INTFCLR_10389
 70
0
 62
7
  6
CONTINUOUS
370
-3
390
F
  0
LAYER
  5
27A
100
AcDbSymbolTableRecord
100
AcDbLayerTableRecord
  2
INTFCLR_10571
 70
0
 62
7
  6
CONTINUOUS
370
-3
390
F
  0
LAYER
  5
27B
100
AcDbSymbolTableRecord
100
AcDbLayerTableRecord
  2
INTFCLR_10821
 70
0
 62
7
  6
CONTINUOUS
370
-3
390
F
  0
LAYER
  5
27C
100
AcDbSymbolTableRecord
100
AcDbLayerTableRecord
  2
INTFCLR_11003
 70
0
 62
7
  6
CONTINUOUS
370
-3
390
F
  0
LAYER
  5
27D
100
AcDbSymbolTableRecord
100
AcDbLayerTableRecord
  2
INTFCLR_11325
 70
0
 62
7
  6
CONTINUOUS
370
-3
390
F
  0
LAYER
  5
27E
100
AcDbSymbolTableRecord
100
AcDbLayerTableRecord
  2
INTFCLR_11507
 70
0
 62
7
  6
CONTINUOUS
370
-3
390
F
  0
LAYER
  5
27F
100
AcDbSymbolTableRecord
100
AcDbLayerTableRecord
  2
INTFCLR_11689
 70
0
 62
7
  6
CONTINUOUS
370
-3
390
F
  0
LAYER
  5
280
100
AcDbSymbolTableRecord
100
AcDbLayerTableRecord
  2
INTFCLR_11871
 70
0
 62
7
  6
CONTINUOUS
370
-3
390
F
  0
LAYER
  5
281
100
AcDbSymbolTableRecord
100
AcDbLayerTableRecord
  2
INTFCLR_12053
 70
0
 62
7
  6
CONTINUOUS
370
-3
390
F
  0
LAYER
  5
282
100
AcDbSymbolTableRecord
100
AcDbLayerTableRecord
  2
INTFCLR_14087
 70
0
 62
7
  6
CONTINUOUS
370
-3
390
F
  0
LAYER
  5
283
100
AcDbSymbolTableRecord
100
AcDbLayerTableRecord
  2
INTFCLR_14455
 70
0
 62
7
  6
CONTINUOUS
370
-3
390
F
  0
LAYER
  5
284
100
AcDbSymbolTableRecord
100
AcDbLayerTableRecord
  2
INTFCLR_14637
 70
0
 62
7
  6
CONTINUOUS
370
-3
390
F
  0
LAYER
  5
285
100
AcDbSymbolTableRecord
100
AcDbLayerTableRecord
  2
INTFCLR_31
 70
0
 62
7
  6
CONTINUOUS
370
-3
390
F
  0
LAYER
  5
286
100
AcDbSymbolTableRecord
100
AcDbLayerTableRecord
  2
INTFCLR_39199
 70
0
 62
7
  6
CONTINUOUS
370
-3
390
F
  0
LAYER
  5
287
100
AcDbSymbolTableRecord
100
AcDbLayerTableRecord
  2
INTFCLR_5113
 70
0
 62
7
  6
CONTINUOUS
370
-3
390
F
  0
LAYER
  5
288
100
AcDbSymbolTableRecord
100
AcDbLayerTableRecord
  2
INTFCLR_5481
 70
0
 62
7
  6
CONTINUOUS
370
-3
390
F
  0
LAYER
  5
289
100
AcDbSymbolTableRecord
100
AcDbLayerTableRecord
  2
INTFCLR_5663
 70
0
 62
7
  6
CONTINUOUS
370
-3
390
F
  0
LAYER
  5
28A
100
AcDbSymbolTableRecord
100
AcDbLayerTableRecord
  2
INTFCLR_5845
 70
0
 62
7
  6
CONTINUOUS
370
-3
390
F
  0
LAYER
  5
28B
100
AcDbSymbolTableRecord
100
AcDbLayerTableRecord
  2
INTFCLR_9533
 70
0
 62
7
  6
CONTINUOUS
370
-3
390
F
  0
LAYER
  5
28C
100
AcDbSymbolTableRecord
100
AcDbLayerTableRecord
  2
INTF_1
 70
0
 62
7
  6
CONTINUOUS
370
-3
390
F
  0
LAYER
  5
28D
100
AcDbSymbolTableRecord
100
AcDbLayerTableRecord
  2
INTF_11
 70
0
 62
7
  6
CONTINUOUS
370
-3
390
F
  0
LAYER
  5
28E
100
AcDbSymbolTableRecord
100
AcDbLayerTableRecord
  2
INTF_2
 70
0
 62
7
  6
CONTINUOUS
370
-3
390
F
  0
LAYER
  5
28F
100
AcDbSymbolTableRecord
100
AcDbLayerTableRecord
  2
INTF_3
 70
0
 62
7
  6
CONTINUOUS
370
-3
390
F
  0
LAYER
  5
290
100
AcDbSymbolTableRecord
100
AcDbLayerTableRecord
  2
INTF_6
 70
0
 62
7
  6
CONTINUOUS
370
-3
390
F
  0
LAYER
  5
291
100
AcDbSymbolTableRecord
100
AcDbLayerTableRecord
  2
INTF_8
 70
0
 62
7
  6
CONTINUOUS
370
-3
390
F
  0
LAYER
  5
292
100
AcDbSymbolTableRecord
100
AcDbLayerTableRecord
  2
INTF_BLANK
 70
0
 62
7
  6
CONTINUOUS
370
-3
390
F
  0
LAYER
  5
293
100
AcDbSymbolTableRecord
100
AcDbLayerTableRecord
  2
INTF_GREEN
 70
0
 62
7
  6
CONTINUOUS
370
-3
390
F
  0
LAYER
  5
294
100
AcDbSymbolTableRecord
100
AcDbLayerTableRecord
  2
LAY0001
 70
0
 62
7
  6
CONTINUOUS
370
-3
390
F
  0
LAYER
  5
295
100
AcDbSymbolTableRecord
100
AcDbLayerTableRecord
  2
LOGO_RESIST-RESTYLING_10000
 70
0
 62
7
  6
CONTINUOUS
370
-3
390
F
  0
LAYER
  5
296
100
AcDbSymbolTableRecord
100
AcDbLayerTableRecord
  2
MINIMELF_R_REF_140000
 70
0
 62
7
  6
CONTINUOUS
370
-3
390
F
  0
LAYER
  5
297
100
AcDbSymbolTableRecord
100
AcDbLayerTableRecord
  2
NO-PB_MARK_10000
 70
0
 62
7
  6
CONTINUOUS
370
-3
390
F
  0
LAYER
  5
298
100
AcDbSymbolTableRecord
100
AcDbLayerTableRecord
  2
NONE
 70
0
 62
7
  6
CONTINUOUS
370
-3
390
F
  0
LAYER
  5
299
100
AcDbSymbolTableRecord
100
AcDbLayerTableRecord
  2
NOTE
 70
0
 62
7
  6
CONTINUOUS
370
-3
390
F
  0
LAYER
  5
29A
100
AcDbSymbolTableRecord
100
AcDbLayerTableRecord
  2
PIANI
 70
0
 62
7
  6
CONTINUOUS
370
-3
390
F
  0
LAYER
  5
29B
100
AcDbSymbolTableRecord
100
AcDbLayerTableRecord
  2
PIANI_DI_RIFERIMENTO
 70
0
 62
7
  6
CONTINUOUS
370
-3
390
F
  0
LAYER
  5
29C
100
AcDbSymbolTableRecord
100
AcDbLayerTableRecord
  2
PIANI_ORIGINE
 70
0
 62
7
  6
CONTINUOUS
370
-3
390
F
  0
LAYER
  5
29D
100
AcDbSymbolTableRecord
100
AcDbLayerTableRecord
  2
PIANI_RIFERIMENTO
 70
0
 62
7
  6
CONTINUOUS
370
-3
390
F
  0
LAYER
  5
29E
100
AcDbSymbolTableRecord
100
AcDbLayerTableRecord
  2
PTC_EPCOS_B57153S0100M051_13000
 70
0
 62
7
  6
CONTINUOUS
370
-3
390
F
  0
LAYER
  5
29F
100
AcDbSymbolTableRecord
100
AcDbLayerTableRecord
  2
PUNTI
 70
0
 62
7
  6
CONTINUOUS
370
-3
390
F
  0
LAYER
  5
2A0
100
AcDbSymbolTableRecord
100
AcDbLayerTableRecord
  2
RACCORDO
 70
0
 62
7
  6
CONTINUOUS
370
-3
390
F
  0
LAYER
  5
2A1
100
AcDbSymbolTableRecord
100
AcDbLayerTableRecord
  2
RESC1608N_45000
 70
0
 62
7
  6
CONTINUOUS
370
-3
390
F
  0
LAYER
  5
2A2
100
AcDbSymbolTableRecord
100
AcDbLayerTableRecord
  2
RESC1608N_45000_1
 70
0
 62
7
  6
CONTINUOUS
370
-3
390
F
  0
LAYER
  5
2A3
100
AcDbSymbolTableRecord
100
AcDbLayerTableRecord
  2
RESC1608N_45000_1_1
 70
0
 62
7
  6
CONTINUOUS
370
-3
390
F
  0
LAYER
  5
2A4
100
AcDbSymbolTableRecord
100
AcDbLayerTableRecord
  2
RESC1608N_45000_1_2
 70
0
 62
7
  6
CONTINUOUS
370
-3
390
F
  0
LAYER
  5
2A5
100
AcDbSymbolTableRecord
100
AcDbLayerTableRecord
  2
RESC1608N_45000_2
 70
0
 62
7
  6
CONTINUOUS
370
-3
390
F
  0
LAYER
  5
2A6
100
AcDbSymbolTableRecord
100
AcDbLayerTableRecord
  2
RESC1608N_45000_2_1
 70
0
 62
7
  6
CONTINUOUS
370
-3
390
F
  0
LAYER
  5
2A7
100
AcDbSymbolTableRecord
100
AcDbLayerTableRecord
  2
RESC1608N_45000_3
 70
0
 62
7
  6
CONTINUOUS
370
-3
390
F
  0
LAYER
  5
2A8
100
AcDbSymbolTableRecord
100
AcDbLayerTableRecord
  2
RESC1608N_45000_3_1
 70
0
 62
7
  6
CONTINUOUS
370
-3
390
F
  0
LAYER
  5
2A9
100
AcDbSymbolTableRecord
100
AcDbLayerTableRecord
  2
SIMBOLI
 70
0
 62
7
  6
CONTINUOUS
370
-3
390
F
  0
LAYER
  5
2AA
100
AcDbSymbolTableRecord
100
AcDbLayerTableRecord
  2
SMUSSO
 70
0
 62
7
  6
CONTINUOUS
370
-3
390
F
  0
LAYER
  5
2AB
100
AcDbSymbolTableRecord
100
AcDbLayerTableRecord
  2
SNAPLINE
 70
0
 62
7
  6
CONTINUOUS
370
-3
390
F
  0
LAYER
  5
2AC
100
AcDbSymbolTableRecord
100
AcDbLayerTableRecord
  2
SOD123_REF_140000
 70
0
 62
7
  6
CONTINUOUS
370
-3
390
F
  0
LAYER
  5
2AD
100
AcDbSymbolTableRecord
100
AcDbLayerTableRecord
  2
SOT323_H1_1_REF_110000
 70
0
 62
7
  6
CONTINUOUS
370
-3
390
F
  0
LAYER
  5
2AE
100
AcDbSymbolTableRecord
100
AcDbLayerTableRecord
  2
SUB_SMA_143000
 70
0
 62
7
  6
CONTINUOUS
370
-3
390
F
  0
LAYER
  5
2AF
100
AcDbSymbolTableRecord
100
AcDbLayerTableRecord
  2
SUB_SMA_143000_1
 70
0
 62
7
  6
CONTINUOUS
370
-3
390
F
  0
LAYER
  5
2B0
100
AcDbSymbolTableRecord
100
AcDbLayerTableRecord
  2
SUPERFICI
 70
0
 62
7
  6
CONTINUOUS
370
-3
390
F
  0
LAYER
  5
2B1
100
AcDbSymbolTableRecord
100
AcDbLayerTableRecord
  2
TRASH
 70
0
 62
7
  6
CONTINUOUS
370
-3
390
F
  0
LAYER
  5
2B2
100
AcDbSymbolTableRecord
100
AcDbLayerTableRecord
  2
UMT-250_REF_300000
 70
0
 62
7
  6
CONTINUOUS
370
-3
390
F
  0
LAYER
  5
2B3
100
AcDbSymbolTableRecord
100
AcDbLayerTableRecord
  2
VG_CAP-E-8_0-12_0-3_5-0_6_14000
 70
0
 62
7
  6
CONTINUOUS
370
-3
390
F
  0
LAYER
  5
2B4
100
AcDbSymbolTableRecord
100
AcDbLayerTableRecord
  2
VG_CAP-E-8_0-12_0-3_5-0_6_140_1
 70
0
 62
7
  6
CONTINUOUS
370
-3
390
F
  0
LAYER
  5
2B5
100
AcDbSymbolTableRecord
100
AcDbLayerTableRecord
  2
VG_CAP-RND-10_0-7_0-5_0-10_0-0_
 70
0
 62
7
  6
CONTINUOUS
370
-3
390
F
  0
LAYER
  5
2B6
100
AcDbSymbolTableRecord
100
AcDbLayerTableRecord
  2
VG_CAP-RND-10_0-7_0-5_0-10_0-_1
 70
0
 62
7
  6
CONTINUOUS
370
-3
390
F
  0
LAYER
  5
2B7
100
AcDbSymbolTableRecord
100
AcDbLayerTableRecord
  2
VG_CN_STH_USB_TYPE-C_24P_RIGHT_
 70
0
 62
7
  6
CONTINUOUS
370
-3
390
F
  0
LAYER
  5
2B8
100
AcDbSymbolTableRecord
100
AcDbLayerTableRecord
  2
VG_CN_STH_USB_TYPE-C_24P_RIGH_1
 70
0
 62
7
  6
CONTINUOUS
370
-3
390
F
  0
LAYER
  5
2B9
100
AcDbSymbolTableRecord
100
AcDbLayerTableRecord
  2
VG_CN_THT_USB_TYPE-A_4P_VERTICA
 70
0
 62
7
  6
CONTINUOUS
370
-3
390
F
  0
LAYER
  5
2BA
100
AcDbSymbolTableRecord
100
AcDbLayerTableRecord
  2
VG_CN_THT_USB_TYPE-A_4P_VERTI_1
 70
0
 62
7
  6
CONTINUOUS
370
-3
390
F
  0
LAYER
  5
2BB
100
AcDbSymbolTableRecord
100
AcDbLayerTableRecord
  2
VG_FUSE-6_1X2_69H2_69-F_269000
 70
0
 62
7
  6
CONTINUOUS
370
-3
390
F
  0
LAYER
  5
2BC
100
AcDbSymbolTableRecord
100
AcDbLayerTableRecord
  2
VG_INSOP24D-9_4-13_43-1_6-0_75-
 70
0
 62
7
  6
CONTINUOUS
370
-3
390
F
  0
LAYER
  5
2BD
100
AcDbSymbolTableRecord
100
AcDbLayerTableRecord
  2
VG_PAD_SMD_REC_P1_0X1_4_1_14X1_
 70
0
 62
7
  6
CONTINUOUS
370
-3
390
F
  0
LAYER
  5
2BE
100
AcDbSymbolTableRecord
100
AcDbLayerTableRecord
  2
VG_PAD_SMD_REC_P1_0X1_4_1_14X_1
 70
0
 62
7
  6
CONTINUOUS
370
-3
390
F
  0
LAYER
  5
2BF
100
AcDbSymbolTableRecord
100
AcDbLayerTableRecord
  2
VG_PAD_SMD_REC_P1_0X1_4_1_14X_2
 70
0
 62
7
  6
CONTINUOUS
370
-3
390
F
  0
LAYER
  5
2C0
100
AcDbSymbolTableRecord
100
AcDbLayerTableRecord
  2
VG_PAD_SMD_REC_P1_0X1_4_1_14X_3
 70
0
 62
7
  6
CONTINUOUS
370
-3
390
F
  0
LAYER
  5
2C1
100
AcDbSymbolTableRecord
100
AcDbLayerTableRecord
  2
VG_PAD_SMD_REC_P1_0X1_4_1_14X_4
 70
0
 62
7
  6
CONTINUOUS
370
-3
390
F
  0
LAYER
  5
2C2
100
AcDbSymbolTableRecord
100
AcDbLayerTableRecord
  2
VG_PAD_SMD_REC_P1_0X1_4_1_14X_5
 70
0
 62
7
  6
CONTINUOUS
370
-3
390
F
  0
LAYER
  5
2C3
100
AcDbSymbolTableRecord
100
AcDbLayerTableRecord
  2
VG_PAD_SMD_REC_P1_0X1_4_1_14X_6
 70
0
 62
7
  6
CONTINUOUS
370
-3
390
F
  0
LAYER
  5
2C4
100
AcDbSymbolTableRecord
100
AcDbLayerTableRecord
  2
VG_PAD_SMD_REC_P1_0X1_4_1_14X_7
 70
0
 62
7
  6
CONTINUOUS
370
-3
390
F
  0
LAYER
  5
2C5
100
AcDbSymbolTableRecord
100
AcDbLayerTableRecord
  2
VG_PAD_SMD_REC_P1_0X1_4_1_14X_8
 70
0
 62
7
  6
CONTINUOUS
370
-3
390
F
  0
LAYER
  5
2C6
100
AcDbSymbolTableRecord
100
AcDbLayerTableRecord
  2
VG_PAD_SMD_REC_P1_0X1_4_1_14X_9
 70
0
 62
7
  6
CONTINUOUS
370
-3
390
F
  0
LAYER
  5
2C7
100
AcDbSymbolTableRecord
100
AcDbLayerTableRecord
  2
VG_PAD_SMD_REC_P1_0X1_4_1_14_10
 70
0
 62
7
  6
CONTINUOUS
370
-3
390
F
  0
LAYER
  5
2C8
100
AcDbSymbolTableRecord
100
AcDbLayerTableRecord
  2
VG_PAD_SMD_REC_P1_0X1_4_1_14_11
 70
0
 62
7
  6
CONTINUOUS
370
-3
390
F
  0
LAYER
  5
2C9
100
AcDbSymbolTableRecord
100
AcDbLayerTableRecord
  2
VG_POWER56_110000
 70
0
 62
7
  6
CONTINUOUS
370
-3
390
F
  0
LAYER
  5
2CA
100
AcDbSymbolTableRecord
100
AcDbLayerTableRecord
  2
VG_TRA_RM6S_1250000
 70
0
 62
7
  6
CONTINUOUS
370
-3
390
F
  0
LAYER
  5
2CB
100
AcDbSymbolTableRecord
100
AcDbLayerTableRecord
  2
XSEC_DATUMS
 70
0
 62
7
  6
CONTINUOUS
370
-3
390
F
  0
LAYER
  5
2CC
100
AcDbSymbolTableRecord
100
AcDbLayerTableRecord
  2
___SHELL
 70
0
 62
7
  6
CONTINUOUS
370
-3
390
F
  0
LAYER
  5
2CD
100
AcDbSymbolTableRecord
100
AcDbLayerTableRecord
  2
___SHELL_1
 70
0
 62
7
  6
CONTINUOUS
370
-3
390
F
  0
LAYER
  5
2CE
100
AcDbSymbolTableRecord
100
AcDbLayerTableRecord
  2
___SHELL_10
 70
0
 62
7
  6
CONTINUOUS
370
-3
390
F
  0
LAYER
  5
2CF
100
AcDbSymbolTableRecord
100
AcDbLayerTableRecord
  2
___SHELL_11
 70
0
 62
7
  6
CONTINUOUS
370
-3
390
F
  0
LAYER
  5
2D0
100
AcDbSymbolTableRecord
100
AcDbLayerTableRecord
  2
___SHELL_12
 70
0
 62
7
  6
CONTINUOUS
370
-3
390
F
  0
LAYER
  5
2D1
100
AcDbSymbolTableRecord
100
AcDbLayerTableRecord
  2
___SHELL_13
 70
0
 62
7
  6
CONTINUOUS
370
-3
390
F
  0
LAYER
  5
2D2
100
AcDbSymbolTableRecord
100
AcDbLayerTableRecord
  2
___SHELL_14
 70
0
 62
7
  6
CONTINUOUS
370
-3
390
F
  0
LAYER
  5
2D3
100
AcDbSymbolTableRecord
100
AcDbLayerTableRecord
  2
___SHELL_15
 70
0
 62
7
  6
CONTINUOUS
370
-3
390
F
  0
LAYER
  5
2D4
100
AcDbSymbolTableRecord
100
AcDbLayerTableRecord
  2
___SHELL_16
 70
0
 62
7
  6
CONTINUOUS
370
-3
390
F
  0
LAYER
  5
2D5
100
AcDbSymbolTableRecord
100
AcDbLayerTableRecord
  2
___SHELL_17
 70
0
 62
7
  6
CONTINUOUS
370
-3
390
F
  0
LAYER
  5
2D6
100
AcDbSymbolTableRecord
100
AcDbLayerTableRecord
  2
___SHELL_18
 70
0
 62
7
  6
CONTINUOUS
370
-3
390
F
  0
LAYER
  5
2D7
100
AcDbSymbolTableRecord
100
AcDbLayerTableRecord
  2
___SHELL_19
 70
0
 62
7
  6
CONTINUOUS
370
-3
390
F
  0
LAYER
  5
2D8
100
AcDbSymbolTableRecord
100
AcDbLayerTableRecord
  2
___SHELL_2
 70
0
 62
7
  6
CONTINUOUS
370
-3
390
F
  0
LAYER
  5
2D9
100
AcDbSymbolTableRecord
100
AcDbLayerTableRecord
  2
___SHELL_20
 70
0
 62
7
  6
CONTINUOUS
370
-3
390
F
  0
LAYER
  5
2DA
100
AcDbSymbolTableRecord
100
AcDbLayerTableRecord
  2
___SHELL_21
 70
0
 62
7
  6
CONTINUOUS
370
-3
390
F
  0
LAYER
  5
2DB
100
AcDbSymbolTableRecord
100
AcDbLayerTableRecord
  2
___SHELL_22
 70
0
 62
7
  6
CONTINUOUS
370
-3
390
F
  0
LAYER
  5
2DC
100
AcDbSymbolTableRecord
100
AcDbLayerTableRecord
  2
___SHELL_23
 70
0
 62
7
  6
CONTINUOUS
370
-3
390
F
  0
LAYER
  5
2DD
100
AcDbSymbolTableRecord
100
AcDbLayerTableRecord
  2
___SHELL_24
 70
0
 62
7
  6
CONTINUOUS
370
-3
390
F
  0
LAYER
  5
2DE
100
AcDbSymbolTableRecord
100
AcDbLayerTableRecord
  2
___SHELL_25
 70
0
 62
7
  6
CONTINUOUS
370
-3
390
F
  0
LAYER
  5
2DF
100
AcDbSymbolTableRecord
100
AcDbLayerTableRecord
  2
___SHELL_26
 70
0
 62
7
  6
CONTINUOUS
370
-3
390
F
  0
LAYER
  5
2E0
100
AcDbSymbolTableRecord
100
AcDbLayerTableRecord
  2
___SHELL_27
 70
0
 62
7
  6
CONTINUOUS
370
-3
390
F
  0
LAYER
  5
2E1
100
AcDbSymbolTableRecord
100
AcDbLayerTableRecord
  2
___SHELL_28
 70
0
 62
7
  6
CONTINUOUS
370
-3
390
F
  0
LAYER
  5
2E2
100
AcDbSymbolTableRecord
100
AcDbLayerTableRecord
  2
___SHELL_29
 70
0
 62
7
  6
CONTINUOUS
370
-3
390
F
  0
LAYER
  5
2E3
100
AcDbSymbolTableRecord
100
AcDbLayerTableRecord
  2
___SHELL_3
 70
0
 62
7
  6
CONTINUOUS
370
-3
390
F
  0
LAYER
  5
2E4
100
AcDbSymbolTableRecord
100
AcDbLayerTableRecord
  2
___SHELL_30
 70
0
 62
7
  6
CONTINUOUS
370
-3
390
F
  0
LAYER
  5
2E5
100
AcDbSymbolTableRecord
100
AcDbLayerTableRecord
  2
___SHELL_31
 70
0
 62
7
  6
CONTINUOUS
370
-3
390
F
  0
LAYER
  5
2E6
100
AcDbSymbolTableRecord
100
AcDbLayerTableRecord
  2
___SHELL_32
 70
0
 62
7
  6
CONTINUOUS
370
-3
390
F
  0
LAYER
  5
2E7
100
AcDbSymbolTableRecord
100
AcDbLayerTableRecord
  2
___SHELL_33
 70
0
 62
7
  6
CONTINUOUS
370
-3
390
F
  0
LAYER
  5
2E8
100
AcDbSymbolTableRecord
100
AcDbLayerTableRecord
  2
___SHELL_34
 70
0
 62
7
  6
CONTINUOUS
370
-3
390
F
  0
LAYER
  5
2E9
100
AcDbSymbolTableRecord
100
AcDbLayerTableRecord
  2
___SHELL_35
 70
0
 62
7
  6
CONTINUOUS
370
-3
390
F
  0
LAYER
  5
2EA
100
AcDbSymbolTableRecord
100
AcDbLayerTableRecord
  2
___SHELL_36
 70
0
 62
7
  6
CONTINUOUS
370
-3
390
F
  0
LAYER
  5
2EB
100
AcDbSymbolTableRecord
100
AcDbLayerTableRecord
  2
___SHELL_37
 70
0
 62
7
  6
CONTINUOUS
370
-3
390
F
  0
LAYER
  5
2EC
100
AcDbSymbolTableRecord
100
AcDbLayerTableRecord
  2
___SHELL_38
 70
0
 62
7
  6
CONTINUOUS
370
-3
390
F
  0
LAYER
  5
2ED
100
AcDbSymbolTableRecord
100
AcDbLayerTableRecord
  2
___SHELL_39
 70
0
 62
7
  6
CONTINUOUS
370
-3
390
F
  0
LAYER
  5
2EE
100
AcDbSymbolTableRecord
100
AcDbLayerTableRecord
  2
___SHELL_4
 70
0
 62
7
  6
CONTINUOUS
370
-3
390
F
  0
LAYER
  5
2EF
100
AcDbSymbolTableRecord
100
AcDbLayerTableRecord
  2
___SHELL_40
 70
0
 62
7
  6
CONTINUOUS
370
-3
390
F
  0
LAYER
  5
2F0
100
AcDbSymbolTableRecord
100
AcDbLayerTableRecord
  2
___SHELL_41
 70
0
 62
7
  6
CONTINUOUS
370
-3
390
F
  0
LAYER
  5
2F1
100
AcDbSymbolTableRecord
100
AcDbLayerTableRecord
  2
___SHELL_42
 70
0
 62
7
  6
CONTINUOUS
370
-3
390
F
  0
LAYER
  5
2F2
100
AcDbSymbolTableRecord
100
AcDbLayerTableRecord
  2
___SHELL_43
 70
0
 62
7
  6
CONTINUOUS
370
-3
390
F
  0
LAYER
  5
2F3
100
AcDbSymbolTableRecord
100
AcDbLayerTableRecord
  2
___SHELL_44
 70
0
 62
7
  6
CONTINUOUS
370
-3
390
F
  0
LAYER
  5
2F4
100
AcDbSymbolTableRecord
100
AcDbLayerTableRecord
  2
___SHELL_45
 70
0
 62
7
  6
CONTINUOUS
370
-3
390
F
  0
LAYER
  5
2F5
100
AcDbSymbolTableRecord
100
AcDbLayerTableRecord
  2
___SHELL_46
 70
0
 62
7
  6
CONTINUOUS
370
-3
390
F
  0
LAYER
  5
2F6
100
AcDbSymbolTableRecord
100
AcDbLayerTableRecord
  2
___SHELL_47
 70
0
 62
7
  6
CONTINUOUS
370
-3
390
F
  0
LAYER
  5
2F7
100
AcDbSymbolTableRecord
100
AcDbLayerTableRecord
  2
___SHELL_48
 70
0
 62
7
  6
CONTINUOUS
370
-3
390
F
  0
LAYER
  5
2F8
100
AcDbSymbolTableRecord
100
AcDbLayerTableRecord
  2
___SHELL_49
 70
0
 62
7
  6
CONTINUOUS
370
-3
390
F
  0
LAYER
  5
2F9
100
AcDbSymbolTableRecord
100
AcDbLayerTableRecord
  2
___SHELL_5
 70
0
 62
7
  6
CONTINUOUS
370
-3
390
F
  0
LAYER
  5
2FA
100
AcDbSymbolTableRecord
100
AcDbLayerTableRecord
  2
___SHELL_50
 70
0
 62
7
  6
CONTINUOUS
370
-3
390
F
  0
LAYER
  5
2FB
100
AcDbSymbolTableRecord
100
AcDbLayerTableRecord
  2
___SHELL_51
 70
0
 62
7
  6
CONTINUOUS
370
-3
390
F
  0
LAYER
  5
2FC
100
AcDbSymbolTableRecord
100
AcDbLayerTableRecord
  2
___SHELL_52
 70
0
 62
7
  6
CONTINUOUS
370
-3
390
F
  0
LAYER
  5
2FD
100
AcDbSymbolTableRecord
100
AcDbLayerTableRecord
  2
___SHELL_53
 70
0
 62
7
  6
CONTINUOUS
370
-3
390
F
  0
LAYER
  5
2FE
100
AcDbSymbolTableRecord
100
AcDbLayerTableRecord
  2
___SHELL_54
 70
0
 62
7
  6
CONTINUOUS
370
-3
390
F
  0
LAYER
  5
2FF
100
AcDbSymbolTableRecord
100
AcDbLayerTableRecord
  2
___SHELL_6
 70
0
 62
7
  6
CONTINUOUS
370
-3
390
F
  0
LAYER
  5
300
100
AcDbSymbolTableRecord
100
AcDbLayerTableRecord
  2
___SHELL_7
 70
0
 62
7
  6
CONTINUOUS
370
-3
390
F
  0
LAYER
  5
301
100
AcDbSymbolTableRecord
100
AcDbLayerTableRecord
  2
___SHELL_8
 70
0
 62
7
  6
CONTINUOUS
370
-3
390
F
  0
LAYER
  5
302
100
AcDbSymbolTableRecord
100
AcDbLayerTableRecord
  2
___SHELL_9
 70
0
 62
7
  6
CONTINUOUS
370
-3
390
F
  0
ENDTAB
  0
TABLE
  2
STYLE
  5
3
100
AcDbSymbolTable
 70
1
  0
STYLE
  5
11
100
AcDbSymbolTableRecord
100
AcDbTextStyleTableRecord
  2
STANDARD
 70
0
 40
0.0
 41
0.8
 50
0.0
 71
0
 42
0.2
  3
txt
  4

  0
STYLE
  5
303
100
AcDbSymbolTableRecord
100
AcDbTextStyleTableRecord
  2
TEXTSTYLE_1
 70
0
 40
0.0
 41
0.8
 50
0.0
 71
0
 42
0.2
  3
gdt
  4

  0
ENDTAB
  0
TABLE
  2
VIEW
  5
6
100
AcDbSymbolTable
 70
0
  0
ENDTAB
  0
TABLE
  2
UCS
  5
7
100
AcDbSymbolTable
 70
0
  0
ENDTAB
  0
TABLE
  2
APPID
  5
9
100
AcDbSymbolTable
 70
1
  0
APPID
  5
304
100
AcDbSymbolTableRecord
100
AcDbRegAppTableRecord
  2
ACAD
 70
0
  0
ENDTAB
  0
TABLE
  2
BLOCK_RECORD
  5
1
100
AcDbSymbolTable
 70
0
  0
BLOCK_RECORD
  5
305
100
AcDbSymbolTableRecord
100
AcDbBlockTableRecord
  2
*Model_Space
  0
BLOCK_RECORD
  5
306
100
AcDbSymbolTableRecord
100
AcDbBlockTableRecord
  2
*Paper_Space
  0
BLOCK_RECORD
  5
307
100
AcDbSymbolTableRecord
100
AcDbBlockTableRecord
  2
_FILLED
  0
BLOCK_RECORD
  5
308
100
AcDbSymbolTableRecord
100
AcDbBlockTableRecord
  2
*D0
  0
BLOCK_RECORD
  5
309
100
AcDbSymbolTableRecord
100
AcDbBlockTableRecord
  2
*D1
  0
BLOCK_RECORD
  5
30A
100
AcDbSymbolTableRecord
100
AcDbBlockTableRecord
  2
*D2
  0
BLOCK_RECORD
  5
30B
100
AcDbSymbolTableRecord
100
AcDbBlockTableRecord
  2
*D3
  0
ENDTAB
  0
TABLE
  2
DIMSTYLE
  5
A
100
AcDbSymbolTable
 70
1
100
AcDbDimStyleTable
 71
0
  0
DIMSTYLE
105
30C
100
AcDbSymbolTableRecord
100
AcDbDimStyleTableRecord
  2
STANDARD
 70
0
  3

  4

 40
1.0
 41
3.0
 42
0.5
 43
0.38
 44
1.5
 45
0.0
 46
0.0
 47
0.01
 48
0.01
140
3.0
141
0.09
142
0.0
143
25.4
144
1.0
145
0.0
146
1.0
147
0.625
 71
1.0
 72
0.0
 73
0
 74
0
 75
0
 76
0
 77
1
 78
8
 79
2
170
0
171
1
172
0
173
0
174
0
175
0
176
0
177
0
178
0
270
2
179
2
271
2
272
2
273
2
274
2
275
0
280
0
281
0
282
0
283
1
284
8
285
0
286
0
287
3
288
0
340
11
278
44
341
307
342
307
343
307
344
307
  0
DIMSTYLE
105
30D
100
AcDbSymbolTableRecord
100
AcDbDimStyleTableRecord
  2
DIMSTYLE_1
 70
0
  3

  4

 40
1.0
 41
3.0
 42
0.5
 43
0.38
 44
1.5
 45
0.0
 46
0.0
 47
0.0
 48
0.0
140
3.0
141
0.09
142
0.0
143
25.4
144
1.0
145
0.0
146
1.0
147
0.75
 71
0.0
 72
0.0
 73
0
 74
0
 75
0
 76
0
 77
1
 78
8
 79
2
170
0
171
1
172
0
173
0
174
0
175
0
176
0
177
0
178
0
270
2
179
2
271
2
272
2
273
2
274
2
275
0
280
0
281
0
282
0
283
1
284
8
285
0
286
0
287
3
288
0
340
11
278
44
341
307
342
307
343
307
344
307
  0
DIMSTYLE
105
30E
100
AcDbSymbolTableRecord
100
AcDbDimStyleTableRecord
  2
DIMSTYLE_2
 70
0
  3

  4

 40
1.0
 41
3.0
 42
0.5
 43
0.38
 44
1.5
 45
0.0
 46
0.0
 47
0.0
 48
0.0
140
3.0
141
0.09
142
0.0
143
25.4
144
1.0
145
0.0
146
1.0
147
0.75
 71
0.0
 72
0.0
 73
0
 74
0
 75
0
 76
0
 77
1
 78
8
 79
2
170
0
171
1
172
0
173
0
174
0
175
0
176
0
177
0
178
0
270
2
179
2
271
1
272
1
273
2
274
2
275
0
280
0
281
0
282
0
283
1
284
8
285
0
286
0
287
3
288
0
340
11
278
44
341
307
342
307
343
307
344
307
  0
ENDTAB
  0
ENDSEC
  0
SECTION
  2
BLOCKS
  0
BLOCK
  5
20
100
AcDbEntity
  8
0
100
AcDbBlockBegin
  2
*Model_Space
 70
0
 10
0.0
 20
0.0
 30
0.0
  3
*Model_Space
  1

  0
ENDBLK
  5
21
100
AcDbEntity
  8
0
100
AcDbBlockEnd
  0
BLOCK
  5
1C
100
AcDbEntity
  8
0
100
AcDbBlockBegin
  2
*Paper_Space
 70
0
 10
0.0
 20
0.0
 30
0.0
  3
*Paper_Space
  1

  0
ENDBLK
  5
1D
100
AcDbEntity
  8
0
100
AcDbBlockEnd
  0
BLOCK
  5
30F
100
AcDbEntity
  8
0
100
AcDbBlockBegin
  2
_FILLED
 70
64
 10
0.0
 20
0.0
  3
_FILLED
  1

  0
SOLID
  5
310
100
AcDbEntity
  8
0
  6
BYBLOCK
 62
0
100
AcDbTrace
 10
0.0
 20
0.0
 11
-1.0
 21
0.3166666667
 12
-1.0
 22
-0.3166666667
 13
-1.0
 23
-0.3166666667
  0
ENDBLK
  5
311
100
AcDbEntity
  8
0
  6
BYBLOCK
 62
0
100
AcDbBlockEnd
  0
BLOCK
  5
312
100
AcDbEntity
  8
0
100
AcDbBlockBegin
 62
7
  6
CONTINUOUS
  2
*D0
 70
65
 10
0.0
 20
0.0
  3
*D0
  1

  0
LINE
  5
313
100
AcDbEntity
  8
0
100
AcDbLine
 62
7
  6
CONTINUOUS
 10
10.4000042308
 20
24.5
 11
20.6840373766
 21
24.5
  0
LINE
  5
314
100
AcDbEntity
  8
0
100
AcDbLine
 62
7
  6
CONTINUOUS
 10
10.4000042308
 20
-24.5
 11
20.6840373766
 21
-24.5
  0
LINE
  5
315
100
AcDbEntity
  8
0
100
AcDbLine
 62
7
  6
CONTINUOUS
 10
19.1840373766
 20
24.5
 11
19.1840373766
 21
0.0
  0
LINE
  5
316
100
AcDbEntity
  8
0
100
AcDbLine
 62
7
  6
CONTINUOUS
 10
19.1840373766
 20
-24.5
 11
19.1840373766
 21
0.0
  0
INSERT
  5
317
100
AcDbEntity
  8
0
100
AcDbBlockReference
 62
7
  6
CONTINUOUS
  2
_FILLED
 10
19.1840373766
 20
24.5
 41
3.0
 42
3.0
 43
3.0
 50
90.0
  0
INSERT
  5
318
100
AcDbEntity
  8
0
100
AcDbBlockReference
 62
7
  6
CONTINUOUS
  2
_FILLED
 10
19.1840373766
 20
-24.5
 41
3.0
 42
3.0
 43
3.0
 50
270.0
  0
ENDBLK
  5
319
100
AcDbEntity
  8
0
  6
BYBLOCK
 62
0
100
AcDbBlockEnd
  0
BLOCK
  5
31A
100
AcDbEntity
  8
0
100
AcDbBlockBegin
 62
7
  6
CONTINUOUS
  2
*D1
 70
65
 10
0.0
 20
0.0
  3
*D1
  1

  0
LINE
  5
31B
100
AcDbEntity
  8
0
100
AcDbLine
 62
7
  6
CONTINUOUS
 10
-11.1840373766
 20
18.6473460386
 11
-11.1840373766
 21
34.0
  0
LINE
  5
31C
100
AcDbEntity
  8
0
100
AcDbLine
 62
7
  6
CONTINUOUS
 10
11.1840373766
 20
18.6473460386
 11
11.1840373766
 21
34.0
  0
LINE
  5
31D
100
AcDbEntity
  8
0
100
AcDbLine
 62
7
  6
CONTINUOUS
 10
-11.1840373766
 20
32.5
 11
0.0
 21
32.5
  0
LINE
  5
31E
100
AcDbEntity
  8
0
100
AcDbLine
 62
7
  6
CONTINUOUS
 10
11.1840373766
 20
32.5
 11
0.0
 21
32.5
  0
INSERT
  5
31F
100
AcDbEntity
  8
0
100
AcDbBlockReference
 62
7
  6
CONTINUOUS
  2
_FILLED
 10
-11.1840373766
 20
32.5
 41
3.0
 42
3.0
 43
3.0
 50
180.0
  0
INSERT
  5
320
100
AcDbEntity
  8
0
100
AcDbBlockReference
 62
7
  6
CONTINUOUS
  2
_FILLED
 10
11.1840373766
 20
32.5
 41
3.0
 42
3.0
 43
3.0
  0
ENDBLK
  5
321
100
AcDbEntity
  8
0
  6
BYBLOCK
 62
0
100
AcDbBlockEnd
  0
BLOCK
  5
322
100
AcDbEntity
  8
0
100
AcDbBlockBegin
 62
7
  6
CONTINUOUS
  2
*D2
 70
65
 10
0.0
 20
0.0
  3
*D2
  1

  0
LINE
  5
323
100
AcDbEntity
  8
0
100
AcDbLine
 62
7
  6
CONTINUOUS
 10
-82.2763028
 20
18.6473460386
 11
-82.2763028
 21
34.0
  0
LINE
  5
324
100
AcDbEntity
  8
0
100
AcDbLine
 62
7
  6
CONTINUOUS
 10
-46.2763028
 20
17.9114145622
 11
-46.2763028
 21
34.0
  0
LINE
  5
325
100
AcDbEntity
  8
0
100
AcDbLine
 62
7
  6
CONTINUOUS
 10
-82.2763028
 20
32.5
 11
-64.2763028
 21
32.5
  0
LINE
  5
326
100
AcDbEntity
  8
0
100
AcDbLine
 62
7
  6
CONTINUOUS
 10
-46.2763028
 20
32.5
 11
-64.2763028
 21
32.5
  0
INSERT
  5
327
100
AcDbEntity
  8
0
100
AcDbBlockReference
 62
7
  6
CONTINUOUS
  2
_FILLED
 10
-82.2763028
 20
32.5
 41
3.0
 42
3.0
 43
3.0
 50
180.0
  0
INSERT
  5
328
100
AcDbEntity
  8
0
100
AcDbBlockReference
 62
7
  6
CONTINUOUS
  2
_FILLED
 10
-46.2763028
 20
32.5
 41
3.0
 42
3.0
 43
3.0
  0
ENDBLK
  5
329
100
AcDbEntity
  8
0
  6
BYBLOCK
 62
0
100
AcDbBlockEnd
  0
BLOCK
  5
32A
100
AcDbEntity
  8
0
100
AcDbBlockBegin
 62
7
  6
CONTINUOUS
  2
*D3
 70
65
 10
0.0
 20
0.0
  3
*D3
  1

  0
LINE
  5
32B
100
AcDbEntity
  8
0
100
AcDbLine
 62
7
  6
CONTINUOUS
 10
-46.2763028
 20
5.9
 11
-46.2763028
 21
44.0
  0
LINE
  5
32C
100
AcDbEntity
  8
0
100
AcDbLine
 62
7
  6
CONTINUOUS
 10
-92.7763028
 20
0.5
 11
-92.7763028
 21
44.0
  0
LINE
  5
32D
100
AcDbEntity
  8
0
100
AcDbLine
 62
7
  6
CONTINUOUS
 10
-46.2763028
 20
42.5
 11
-69.5263028
 21
42.5
  0
LINE
  5
32E
100
AcDbEntity
  8
0
100
AcDbLine
 62
7
  6
CONTINUOUS
 10
-92.7763028
 20
42.5
 11
-69.5263028
 21
42.5
  0
INSERT
  5
32F
100
AcDbEntity
  8
0
100
AcDbBlockReference
 62
7
  6
CONTINUOUS
  2
_FILLED
 10
-46.2763028
 20
42.5
 41
3.0
 42
3.0
 43
3.0
  0
INSERT
  5
330
100
AcDbEntity
  8
0
100
AcDbBlockReference
 62
7
  6
CONTINUOUS
  2
_FILLED
 10
-92.7763028
 20
42.5
 41
3.0
 42
3.0
 43
3.0
 50
180.0
  0
ENDBLK
  5
331
100
AcDbEntity
  8
0
  6
BYBLOCK
 62
0
100
AcDbBlockEnd
  0
ENDSEC
  0
SECTION
  2
ENTITIES
  0
DIMENSION
  5
332
100
AcDbEntity
  8
0
100
AcDbDimension
 62
7
  6
CONTINUOUS
  2
*D0
 10
19.1840373766
 20
-24.5
 11
19.1840373766
 21
-2.3571428571
 70
160
 71
2
 72
2
 41
0.9
 42
49.0
  3
DIMSTYLE_1
100
AcDbAlignedDimension
 13
9.9000042308
 23
24.5
 14
9.9000042308
 24
-24.5
 50
270.0
100
AcDbRotatedDimension
  0
DIMENSION
  5
333
100
AcDbEntity
  8
0
100
AcDbDimension
 62
7
  6
CONTINUOUS
  2
*D1
 10
11.1840373766
 20
32.5
 11
-4.3928571429
 21
32.5
 70
160
 71
2
 72
2
 41
0.9
 42
22.3680747532
  3
DIMSTYLE_2
100
AcDbAlignedDimension
 13
-11.1840373766
 23
18.1473460386
 14
11.1840373766
 24
18.1473460386
100
AcDbRotatedDimension
  0
DIMENSION
  5
334
100
AcDbEntity
  8
0
100
AcDbDimension
 62
7
  6
CONTINUOUS
  2
*D2
 10
-46.2763028
 20
32.5
 11
-66.5263028
 21
32.5
 70
160
 71
2
 72
2
 41
0.9
 42
36.0
  3
DIMSTYLE_1
100
AcDbAlignedDimension
 13
-82.2763028
 23
18.1473460386
 14
-46.2763028
 24
17.4114145622
100
AcDbRotatedDimension
  0
DIMENSION
  5
335
100
AcDbEntity
  8
0
100
AcDbDimension
 62
7
  6
CONTINUOUS
  2
*D3
 10
-92.7763028
 20
42.5
 11
-73.8120170857
 21
42.5
 70
160
 71
2
 72
2
 41
0.9
 42
46.5
  3
DIMSTYLE_1
100
AcDbAlignedDimension
 13
-46.2763028
 23
5.4
 14
-92.7763028
 24
0.0
 50
180.0
100
AcDbRotatedDimension
  0
LINE
  5
336
100
AcDbEntity
  8
ASSI
100
AcDbLine
 62
250
  6
CONTINUOUS
 10
-9.8869056521
 20
-24.4869014213
 11
-9.9137857299
 21
-24.4854512088
  0
LINE
  5
337
100
AcDbEntity
  8
ASSI
100
AcDbLine
 62
7
  6
CONTINUOUS
 10
-9.9000042308
 20
-24.5
 11
-7.4999957692
 21
-24.5
  0
LINE
  5
338
100
AcDbEntity
  8
ASSI
100
AcDbLine
 62
7
  6
CONTINUOUS
 10
7.4999957692
 20
-24.5
 11
9.9000042308
 21
-24.5
  0
LINE
  5
339
100
AcDbEntity
  8
ASSI
100
AcDbLine
 62
7
  6
CONTINUOUS
 10
-9.8869056521
 20
-24.4869014213
 11
-7.5130943479
 21
-24.4869014213
  0
LINE
  5
33A
100
AcDbEntity
  8
ASSI
100
AcDbLine
 62
7
  6
CONTINUOUS
 10
7.5130943479
 20
-24.4869014213
 11
9.8869056521
 21
-24.4869014213
  0
LINE
  5
33B
100
AcDbEntity
  8
ASSI
100
AcDbLine
 62
250
  6
CONTINUOUS
 10
-10.1369014213
 20
-24.2369056521
 11
-7.2630985787
 21
-24.2369056521
  0
LINE
  5
33C
100
AcDbEntity
  8
ASSI
100
AcDbLine
 62
250
  6
CONTINUOUS
 10
7.2630985787
 20
-24.2369056521
 11
10.1369014213
 21
-24.2369056521
  0
LINE
  5
33D
100
AcDbEntity
  8
ASSI
100
AcDbLine
 62
7
  6
CONTINUOUS
 10
4.45
 20
-24.0
 11
3.5
 21
-24.0
  0
LINE
  5
33E
100
AcDbEntity
  8
ASSI
100
AcDbLine
 62
7
  6
CONTINUOUS
 10
-3.5
 20
-24.0
 11
-4.45
 21
-24.0
  0
LINE
  5
33F
100
AcDbEntity
  8
ASSI
100
AcDbLine
 62
7
  6
CONTINUOUS
 10
-3.5
 20
-23.9982478817
 11
-1.2
 21
-23.9982478817
  0
LINE
  5
340
100
AcDbEntity
  8
ASSI
100
AcDbLine
 62
7
  6
CONTINUOUS
 10
1.2
 20
-23.9982478817
 11
3.5
 21
-23.9982478817
  0
LINE
  5
341
100
AcDbEntity
  8
ASSI
100
AcDbLine
 62
7
  6
CONTINUOUS
 10
4.4412732553
 20
-23.9912732553
 11
3.5
 21
-23.9912732553
  0
LINE
  5
342
100
AcDbEntity
  8
ASSI
100
AcDbLine
 62
7
  6
CONTINUOUS
 10
-3.5
 20
-23.9912732553
 11
-4.4412732553
 21
-23.9912732553
  0
LINE
  5
343
100
AcDbEntity
  8
ASSI
100
AcDbLine
 62
250
  6
CONTINUOUS
 10
-10.1369014213
 20
-23.8443375673
 11
-7.2630985787
 21
-23.8443375673
  0
LINE
  5
344
100
AcDbEntity
  8
ASSI
100
AcDbLine
 62
250
  6
CONTINUOUS
 10
7.2630985787
 20
-23.8443375673
 11
10.1369014213
 21
-23.8443375673
  0
LINE
  5
345
100
AcDbEntity
  8
ASSI
100
AcDbLine
 62
250
  6
CONTINUOUS
 10
-3.5
 20
-23.7982512664
 11
-1.0
 21
-23.7982512664
  0
LINE
  5
346
100
AcDbEntity
  8
ASSI
100
AcDbLine
 62
250
  6
CONTINUOUS
 10
1.0
 20
-23.7982512664
 11
3.5
 21
-23.7982512664
  0
LINE
  5
347
100
AcDbEntity
  8
ASSI
100
AcDbLine
 62
250
  6
CONTINUOUS
 10
9.8869056521
 20
-23.6278312164
 11
7.5130943479
 21
-23.6278312164
  0
LINE
  5
348
100
AcDbEntity
  8
ASSI
100
AcDbLine
 62
250
  6
CONTINUOUS
 10
-7.5130943479
 20
-23.6278312164
 11
-9.8869056521
 21
-23.6278312164
  0
LINE
  5
349
100
AcDbEntity
  8
ASSI
100
AcDbLine
 62
7
  6
CONTINUOUS
 10
9.8927234819
 20
-23.1226497308
 11
7.5072765181
 21
-23.1226497308
  0
LINE
  5
34A
100
AcDbEntity
  8
ASSI
100
AcDbLine
 62
7
  6
CONTINUOUS
 10
-9.8927234819
 20
-23.1226497308
 11
-7.5072765181
 21
-23.1226497308
  0
LINE
  5
34B
100
AcDbEntity
  8
ASSI
100
AcDbLine
 62
250
  6
CONTINUOUS
 10
-7.5130943479
 20
24.4869014213
 11
-7.5003794152
 21
24.499616354
  0
LINE
  5
34C
100
AcDbEntity
  8
ASSI
100
AcDbLine
 62
250
  6
CONTINUOUS
 10
-7.2630985787
 20
24.2369056521
 11
-7.25
 21
24.2500042308
  0
LINE
  5
34D
100
AcDbEntity
  8
ASSI
100
AcDbLine
 62
250
  6
CONTINUOUS
 10
9.8927234819
 20
-22.5111812444
 11
7.5072765181
 21
-22.5111812444
  0
LINE
  5
34E
100
AcDbEntity
  8
ASSI
100
AcDbLine
 62
250
  6
CONTINUOUS
 10
-7.5072765181
 20
-22.5111812444
 11
-9.8927234819
 21
-22.5111812444
  0
LINE
  5
34F
100
AcDbEntity
  8
ASSI
100
AcDbLine
 62
7
  6
CONTINUOUS
 10
1.0
 20
-22.4
 11
-1.0
 21
-22.4
  0
LINE
  5
350
100
AcDbEntity
  8
ASSI
100
AcDbLine
 62
7
  6
CONTINUOUS
 10
-10.6504426895
 20
-22.4
 11
-10.3499424881
 21
-22.4
  0
LINE
  5
351
100
AcDbEntity
  8
ASSI
100
AcDbLine
 62
7
  6
CONTINUOUS
 10
-7.0500575119
 20
-22.4
 11
-4.45
 21
-22.4
  0
LINE
  5
352
100
AcDbEntity
  8
ASSI
100
AcDbLine
 62
7
  6
CONTINUOUS
 10
4.45
 20
-22.4
 11
7.0500575119
 21
-22.4
  0
LINE
  5
353
100
AcDbEntity
  8
ASSI
100
AcDbLine
 62
7
  6
CONTINUOUS
 10
10.3499424881
 20
-22.4
 11
10.6504426895
 21
-22.4
  0
LINE
  5
354
100
AcDbEntity
  8
ASSI
100
AcDbLine
 62
7
  6
CONTINUOUS
 10
-3.5
 20
-22.3737961104
 11
-1.2
 21
-22.3737961104
  0
LINE
  5
355
100
AcDbEntity
  8
ASSI
100
AcDbLine
 62
7
  6
CONTINUOUS
 10
1.2
 20
-22.3737961104
 11
3.5
 21
-22.3737961104
  0
LINE
  5
356
100
AcDbEntity
  8
ASSI
100
AcDbLine
 62
7
  6
CONTINUOUS
 10
4.4412732553
 20
-22.3213883311
 11
3.5
 21
-22.3213883311
  0
LINE
  5
357
100
AcDbEntity
  8
ASSI
100
AcDbLine
 62
7
  6
CONTINUOUS
 10
-3.5
 20
-22.3213883311
 11
-4.4412732553
 21
-22.3213883311
  0
LINE
  5
358
100
AcDbEntity
  8
ASSI
100
AcDbLine
 62
250
  6
CONTINUOUS
 10
9.8927234819
 20
-22.3114553375
 11
7.5072765181
 21
-22.3114553375
  0
LINE
  5
359
100
AcDbEntity
  8
ASSI
100
AcDbLine
 62
250
  6
CONTINUOUS
 10
-7.5072765181
 20
-22.3114553375
 11
-9.8927234819
 21
-22.3114553375
  0
LINE
  5
35A
100
AcDbEntity
  8
ASSI
100
AcDbLine
 62
250
  6
CONTINUOUS
 10
10.5363425225
 20
-22.0602279426
 11
-10.5363425225
 21
-22.0602279426
  0
LINE
  5
35B
100
AcDbEntity
  8
ASSI
100
AcDbLine
 62
250
  6
CONTINUOUS
 10
-7.5130943479
 20
-24.4869014213
 11
-7.4999957692
 21
-24.5
  0
LINE
  5
35C
100
AcDbEntity
  8
ASSI
100
AcDbLine
 62
250
  6
CONTINUOUS
 10
-7.2630985787
 20
-24.2369056521
 11
-7.25
 21
-24.2500042308
  0
LINE
  5
35D
100
AcDbEntity
  8
ASSI
100
AcDbLine
 62
250
  6
CONTINUOUS
 10
10.5281693342
 20
-21.2107174911
 11
-10.5281693342
 21
-21.2107174911
  0
LINE
  5
35E
100
AcDbEntity
  8
0
100
AcDbLine
 62
250
  6
CONTINUOUS
 10
8.4639516241
 20
-18.4000180777
 11
6.4101262703
 21
-18.400288
  0
LINE
  5
35F
100
AcDbEntity
  8
0
100
AcDbLine
 62
250
  6
CONTINUOUS
 10
6.3084204779
 20
-18.1159119999
 11
8.316275
 21
-18.115639
  0
LINE
  5
360
100
AcDbEntity
  8
0
100
AcDbLine
 62
250
  6
CONTINUOUS
 10
6.093762
 20
-17.755868
 11
7.967978
 21
-17.755609
  0
LINE
  5
361
100
AcDbEntity
  8
0
100
AcDbLine
 62
250
  6
CONTINUOUS
 10
-1.1102015341
 20
-18.607086
 11
-1.2940244659
 21
-18.607084
  0
LINE
  5
362
100
AcDbEntity
  8
0
100
AcDbLine
 62
250
  6
CONTINUOUS
 10
2.067731
 20
-18.4
 11
1.820568
 21
-18.4
  0
LINE
  5
363
100
AcDbEntity
  8
0
100
AcDbLine
 62
250
  6
CONTINUOUS
 10
0.772492
 20
-18.4
 11
0.54694
 21
-18.4
  0
LINE
  5
364
100
AcDbEntity
  8
0
100
AcDbLine
 62
250
  6
CONTINUOUS
 10
0.21739
 20
-18.4
 11
0.017499
 21
-18.4
  0
LINE
  5
365
100
AcDbEntity
  8
0
100
AcDbLine
 62
250
  6
CONTINUOUS
 10
-1.462774
 20
-18.4
 11
-2.5365118966
 21
-18.4
  0
LINE
  5
366
100
AcDbEntity
  8
0
100
AcDbLine
 62
250
  6
CONTINUOUS
 10
-1.073437
 20
-18.194068
 11
-0.8896135341
 21
-18.194069
  0
LINE
  5
367
100
AcDbEntity
  8
0
100
AcDbLine
 62
250
  6
CONTINUOUS
 10
-2.2596361415
 20
-18.187585
 11
-1.462774
 21
-18.187585
  0
LINE
  5
368
100
AcDbEntity
  8
0
100
AcDbLine
 62
250
  6
CONTINUOUS
 10
0.43754
 20
-17.969031
 11
0.21739
 21
-17.969031
  0
LINE
  5
369
100
AcDbEntity
  8
0
100
AcDbLine
 62
250
  6
CONTINUOUS
 10
0.017499
 20
-17.969031
 11
-0.686171
 21
-17.969031
  0
LINE
  5
36A
100
AcDbEntity
  8
0
100
AcDbLine
 62
250
  6
CONTINUOUS
 10
1.632833
 20
-17.854843
 11
0.949423
 21
-17.854843
  0
LINE
  5
36B
100
AcDbEntity
  8
0
100
AcDbLine
 62
250
  6
CONTINUOUS
 10
-0.490332
 20
-17.766439
 11
0.017499
 21
-17.766439
  0
LINE
  5
36C
100
AcDbEntity
  8
0
100
AcDbLine
 62
250
  6
CONTINUOUS
 10
0.21739
 20
-17.766439
 11
0.43754
 21
-17.766439
  0
LINE
  5
36D
100
AcDbEntity
  8
0
100
AcDbLine
 62
250
  6
CONTINUOUS
 10
-5.2660856453
 20
-18.4013809997
 11
-5.476432958
 21
-18.4013609997
  0
LINE
  5
36E
100
AcDbEntity
  8
0
100
AcDbLine
 62
250
  6
CONTINUOUS
 10
-7.2521588295
 20
-17.940371
 11
-6.9967736573
 21
-17.940408
  0
LINE
  5
36F
100
AcDbEntity
  8
0
100
AcDbLine
 62
250
  6
CONTINUOUS
 10
-4.278368
 20
-17.927142
 11
-3.994499
 21
-17.927164
  0
LINE
  5
370
100
AcDbEntity
  8
0
100
AcDbLine
 62
250
  6
CONTINUOUS
 10
-3.75221
 20
-17.927143
 11
-3.468341
 21
-17.927162
  0
LINE
  5
371
100
AcDbEntity
  8
0
100
AcDbLine
 62
250
  6
CONTINUOUS
 10
-3.226053
 20
-17.927145
 11
-2.942184
 21
-17.92716
  0
LINE
  5
372
100
AcDbEntity
  8
0
100
AcDbLine
 62
250
  6
CONTINUOUS
 10
7.967978
 20
-16.903631
 11
6.093762
 21
-16.903919
  0
LINE
  5
373
100
AcDbEntity
  8
0
100
AcDbLine
 62
250
  6
CONTINUOUS
 10
1.011551
 20
-17.660845
 11
1.565302
 21
-17.660845
  0
LINE
  5
374
100
AcDbEntity
  8
0
100
AcDbLine
 62
250
  6
CONTINUOUS
 10
0.052615
 20
-16.6
 11
0.21739
 21
-16.6
  0
LINE
  5
375
100
AcDbEntity
  8
0
100
AcDbLine
 62
250
  6
CONTINUOUS
 10
1.172274
 20
-16.6
 11
1.401878
 21
-16.6
  0
LINE
  5
376
100
AcDbEntity
  8
0
100
AcDbLine
 62
250
  6
CONTINUOUS
 10
-3.994499
 20
-17.704442
 11
-4.278368
 21
-17.704419
  0
LINE
  5
377
100
AcDbEntity
  8
0
100
AcDbLine
 62
250
  6
CONTINUOUS
 10
-3.468341
 20
-17.70444
 11
-3.75221
 21
-17.704421
  0
LINE
  5
378
100
AcDbEntity
  8
0
100
AcDbLine
 62
250
  6
CONTINUOUS
 10
-2.942184
 20
-17.704438
 11
-3.226053
 21
-17.704423
  0
LINE
  5
379
100
AcDbEntity
  8
0
100
AcDbLine
 62
250
  6
CONTINUOUS
 10
-6.9792286838
 20
-17.592225
 11
-7.21216
 21
-17.59219
  0
LINE
  5
37A
100
AcDbEntity
  8
0
100
AcDbLine
 62
250
  6
CONTINUOUS
 10
-2.942184
 20
-17.481752
 11
-4.278368
 21
-17.481659
  0
LINE
  5
37B
100
AcDbEntity
  8
0
100
AcDbLine
 62
250
  6
CONTINUOUS
 10
-4.278368
 20
-17.258936
 11
-2.942184
 21
-17.259031
  0
LINE
  5
37C
100
AcDbEntity
  8
0
100
AcDbLine
 62
250
  6
CONTINUOUS
 10
-6.250343
 20
-16.845829
 11
-6.981669
 21
-16.845717
  0
LINE
  5
37D
100
AcDbEntity
  8
0
100
AcDbLine
 62
250
  6
CONTINUOUS
 10
-7.21216
 20
-16.617794
 11
-6.250343
 21
-16.617947
  0
LINE
  5
37E
100
AcDbEntity
  8
0
100
AcDbLine
 62
250
  6
CONTINUOUS
 10
-6.0625905734
 20
-16.6178529991
 11
-5.7820179832
 21
-16.6178920008
  0
LINE
  5
37F
100
AcDbEntity
  8
0
100
AcDbLine
 62
250
  6
CONTINUOUS
 10
-4.9604832503
 20
-16.6178580005
 11
-4.6750413022
 21
-16.6178889994
  0
LINE
  5
380
100
AcDbEntity
  8
0
100
AcDbLine
 62
250
  6
CONTINUOUS
 10
-2.2934013969
 20
-17.1365619549
 11
-2.498694727
 21
-17.113233031
  0
LINE
  5
381
100
AcDbEntity
  8
0
100
AcDbLine
 62
250
  6
CONTINUOUS
 10
6.663169
 20
-14.986353
 11
6.94135
 21
-14.986305
  0
LINE
  5
382
100
AcDbEntity
  8
0
100
AcDbLine
 62
250
  6
CONTINUOUS
 10
6.144637
 20
-14.986351
 11
6.423144
 21
-14.986307
  0
LINE
  5
383
100
AcDbEntity
  8
0
100
AcDbLine
 62
250
  6
CONTINUOUS
 10
6.94135
 20
-14.189873
 11
6.144637
 21
-14.190008
  0
LINE
  5
384
100
AcDbEntity
  8
ASSI
100
AcDbLine
 62
7
  6
CONTINUOUS
 10
-11.1840373766
 20
-18.1473460386
 11
-11.15
 21
-18.491183651
  0
LINE
  5
385
100
AcDbEntity
  8
ASSI
100
AcDbLine
 62
7
  6
CONTINUOUS
 10
-11.1840373766
 20
18.1473460386
 11
-11.15
 21
18.491183651
  0
LINE
  5
386
100
AcDbEntity
  8
ASSI
100
AcDbLine
 62
7
  6
CONTINUOUS
 10
4.4412732553
 20
23.9912732553
 11
4.45
 21
24.0
  0
LINE
  5
387
100
AcDbEntity
  8
0
100
AcDbLine
 62
250
  6
CONTINUOUS
 10
8.316275
 20
-13.272669
 11
6.127105
 21
-13.273085
  0
LINE
  5
388
100
AcDbEntity
  8
0
100
AcDbLine
 62
250
  6
CONTINUOUS
 10
7.544673
 20
-12.988379
 11
8.4584367829
 21
-12.9881860057
  0
LINE
  5
389
100
AcDbEntity
  8
0
100
AcDbLine
 62
250
  6
CONTINUOUS
 10
5.986795
 20
-12.988221
 11
6.400968
 21
-12.988153
  0
LINE
  5
38A
100
AcDbEntity
  8
0
100
AcDbLine
 62
250
  6
CONTINUOUS
 10
6.5386545939
 20
-12.5010399977
 11
7.4024611694
 21
-12.5008820044
  0
LINE
  5
38B
100
AcDbEntity
  8
0
100
AcDbLine
 62
250
  6
CONTINUOUS
 10
5.604581
 20
-13.734679
 11
5.952213
 21
-13.734652
  0
LINE
  5
38C
100
AcDbEntity
  8
0
100
AcDbLine
 62
250
  6
CONTINUOUS
 10
4.996029
 20
-13.7347
 11
5.364556
 21
-13.734676
  0
LINE
  5
38D
100
AcDbEntity
  8
ASSI
100
AcDbLine
 62
7
  6
CONTINUOUS
 10
4.45
 20
-24.0
 11
4.4412732553
 21
-23.9912732553
  0
LINE
  5
38E
100
AcDbEntity
  8
ASSI
100
AcDbLine
 62
7
  6
CONTINUOUS
 10
-11.1840373766
 20
-18.1473460386
 11
-11.1840373766
 21
18.1473460386
  0
LINE
  5
38F
100
AcDbEntity
  8
ASSI
100
AcDbLine
 62
7
  6
CONTINUOUS
 10
-11.1504363434
 20
21.900016923
 11
-11.1504363434
 21
18.5
  0
LINE
  5
390
100
AcDbEntity
  8
ASSI
100
AcDbLine
 62
7
  6
CONTINUOUS
 10
-11.1504363434
 20
-21.900016923
 11
-11.1504363434
 21
-18.5
  0
LINE
  5
391
100
AcDbEntity
  8
0
100
AcDbLine
 62
250
  6
CONTINUOUS
 10
-5.476432958
 20
-18.4013609997
 11
-6.0625905734
 21
-16.6178529991
  0
LINE
  5
392
100
AcDbEntity
  8
ASSI
100
AcDbLine
 62
250
  6
CONTINUOUS
 10
-10.1369014213
 20
-23.8443375673
 11
-10.1427192511
 21
-23.2669872981
  0
LINE
  5
393
100
AcDbEntity
  8
ASSI
100
AcDbLine
 62
250
  6
CONTINUOUS
 10
-9.8869056521
 20
-23.6278312164
 11
-9.8919962532
 21
-23.1226497308
  0
LINE
  5
394
100
AcDbEntity
  8
ASSI
100
AcDbLine
 62
250
  6
CONTINUOUS
 10
-10.1368971412
 20
-24.2383600852
 11
-10.1369014213
 21
-24.2369056521
  0
LINE
  5
395
100
AcDbEntity
  8
ASSI
100
AcDbLine
 62
250
  6
CONTINUOUS
 10
-10.5109844497
 20
-9.5
 11
-10.5109844497
 21
9.5
  0
LINE
  5
396
100
AcDbEntity
  8
ASSI
100
AcDbLine
 62
7
  6
CONTINUOUS
 10
-10.15
 20
-22.6002134903
 11
-10.15
 21
-24.2500042308
  0
LINE
  5
397
100
AcDbEntity
  8
ASSI
100
AcDbLine
 62
7
  6
CONTINUOUS
 10
-10.15
 20
22.6002134903
 11
-10.15
 21
24.2500042308
  0
LINE
  5
398
100
AcDbEntity
  8
ASSI
100
AcDbLine
 62
7
  6
CONTINUOUS
 10
-10.1427192511
 20
23.2669872981
 11
-10.1427192511
 21
22.5346275426
  0
LINE
  5
399
100
AcDbEntity
  8
ASSI
100
AcDbLine
 62
7
  6
CONTINUOUS
 10
-10.1427192511
 20
-22.5346275426
 11
-10.1427192511
 21
-23.2669872981
  0
LINE
  5
39A
100
AcDbEntity
  8
ASSI
100
AcDbLine
 62
7
  6
CONTINUOUS
 10
-10.1369014213
 20
24.2369056521
 11
-10.1369014213
 21
23.8443375673
  0
LINE
  5
39B
100
AcDbEntity
  8
ASSI
100
AcDbLine
 62
7
  6
CONTINUOUS
 10
-10.1369014213
 20
-23.8443375673
 11
-10.1369014213
 21
-24.2369056521
  0
LINE
  5
39C
100
AcDbEntity
  8
ASSI
100
AcDbLine
 62
250
  6
CONTINUOUS
 10
-9.8927234819
 20
-22.3114553375
 11
-9.8927234819
 21
-23.1226497308
  0
LINE
  5
39D
100
AcDbEntity
  8
ASSI
100
AcDbLine
 62
250
  6
CONTINUOUS
 10
-9.8927234819
 20
22.3114553375
 11
-9.8927234819
 21
23.1226497308
  0
LINE
  5
39E
100
AcDbEntity
  8
ASSI
100
AcDbLine
 62
250
  6
CONTINUOUS
 10
-9.8869056521
 20
23.6278312164
 11
-9.8869056521
 21
24.4869014213
  0
LINE
  5
39F
100
AcDbEntity
  8
ASSI
100
AcDbLine
 62
250
  6
CONTINUOUS
 10
-9.8869056521
 20
-23.6278312164
 11
-9.8869056521
 21
-24.4869014213
  0
LINE
  5
3A0
100
AcDbEntity
  8
ASSI
100
AcDbLine
 62
250
  6
CONTINUOUS
 10
-10.1427192511
 20
23.2669872981
 11
-10.1369014213
 21
23.8443375673
  0
LINE
  5
3A1
100
AcDbEntity
  8
ASSI
100
AcDbLine
 62
250
  6
CONTINUOUS
 10
-9.8919962532
 20
23.1226497308
 11
-9.8869056521
 21
23.6278312164
  0
LINE
  5
3A2
100
AcDbEntity
  8
ASSI
100
AcDbLine
 62
250
  6
CONTINUOUS
 10
-7.0572841335
 20
22.3349016357
 11
-7.0500575117
 21
22.4
  0
LWPOLYLINE
  5
3A3
100
AcDbEntity
  8
0
100
AcDbPolyline
 62
7
  6
CONTINUOUS
 90
3
 70
0
 43
0.3500000019
 10
1.0357128906
 20
33.5357155762
 10
0.9642880859
 20
33.3214277344
 10
0.8214277344
 20
33.0357150879
  0
LINE
  5
3A4
100
AcDbEntity
  8
ASSI
100
AcDbLine
 62
250
  6
CONTINUOUS
 10
9.8869056521
 20
24.4869014213
 11
9.9000042308
 21
24.5
  0
LINE
  5
3A5
100
AcDbEntity
  8
ASSI
100
AcDbLine
 62
250
  6
CONTINUOUS
 10
10.1369014213
 20
24.2369056521
 11
10.15
 21
24.2500042308
  0
LINE
  5
3A6
100
AcDbEntity
  8
ASSI
100
AcDbLine
 62
250
  6
CONTINUOUS
 10
10.5109844497
 20
-9.5
 11
-10.5109844497
 21
-9.5
  0
LINE
  5
3A7
100
AcDbEntity
  8
ASSI
100
AcDbLine
 62
250
  6
CONTINUOUS
 10
9.8869056521
 20
-24.4869014213
 11
9.9000042308
 21
-24.5
  0
LINE
  5
3A8
100
AcDbEntity
  8
ASSI
100
AcDbLine
 62
250
  6
CONTINUOUS
 10
10.1369014213
 20
-24.2369056521
 11
10.15
 21
-24.2500042308
  0
LINE
  5
3A9
100
AcDbEntity
  8
0
100
AcDbLine
 62
250
  6
CONTINUOUS
 10
-5.7820179832
 20
-16.6178920008
 11
-5.371256
 21
-17.915067
  0
LINE
  5
3AA
100
AcDbEntity
  8
ASSI
100
AcDbLine
 62
250
  6
CONTINUOUS
 10
-7.0500575117
 20
-22.4
 11
-7.0572841335
 21
-22.3349016357
  0
LINE
  5
3AB
100
AcDbEntity
  8
ASSI
100
AcDbLine
 62
250
  6
CONTINUOUS
 10
-7.5130943479
 20
23.6278312164
 11
-7.5080037468
 21
23.1226497308
  0
LINE
  5
3AC
100
AcDbEntity
  8
ASSI
100
AcDbLine
 62
250
  6
CONTINUOUS
 10
-7.2630985787
 20
23.8443375673
 11
-7.2572807489
 21
23.2669872981
  0
LINE
  5
3AD
100
AcDbEntity
  8
ASSI
100
AcDbLine
 62
250
  6
CONTINUOUS
 10
-7.2631028588
 20
24.2383600852
 11
-7.2630985787
 21
24.2369056521
  0
LINE
  5
3AE
100
AcDbEntity
  8
ASSI
100
AcDbLine
 62
250
  6
CONTINUOUS
 10
-7.5130943479
 20
-23.6278312164
 11
-7.5130943479
 21
-24.4869014213
  0
LINE
  5
3AF
100
AcDbEntity
  8
ASSI
100
AcDbLine
 62
250
  6
CONTINUOUS
 10
-7.5130943479
 20
23.6278312164
 11
-7.5130943479
 21
24.4869014213
  0
LINE
  5
3B0
100
AcDbEntity
  8
ASSI
100
AcDbLine
 62
250
  6
CONTINUOUS
 10
-7.5072765181
 20
-22.3114553375
 11
-7.5072765181
 21
-23.1226497308
  0
LINE
  5
3B1
100
AcDbEntity
  8
ASSI
100
AcDbLine
 62
250
  6
CONTINUOUS
 10
-7.5072765181
 20
22.3114553375
 11
-7.5072765181
 21
23.1226497308
  0
LINE
  5
3B2
100
AcDbEntity
  8
ASSI
100
AcDbLine
 62
7
  6
CONTINUOUS
 10
-7.2630985787
 20
-24.2369056521
 11
-7.2630985787
 21
-23.8443375673
  0
LINE
  5
3B3
100
AcDbEntity
  8
ASSI
100
AcDbLine
 62
7
  6
CONTINUOUS
 10
-7.2630985787
 20
23.8443375673
 11
-7.2630985787
 21
24.2369056521
  0
LINE
  5
3B4
100
AcDbEntity
  8
ASSI
100
AcDbLine
 62
7
  6
CONTINUOUS
 10
-7.2572807489
 20
-23.2669872981
 11
-7.2572807489
 21
-22.5346275426
  0
LINE
  5
3B5
100
AcDbEntity
  8
ASSI
100
AcDbLine
 62
7
  6
CONTINUOUS
 10
-7.2572807489
 20
22.5346275426
 11
-7.2572807489
 21
23.2669872981
  0
LINE
  5
3B6
100
AcDbEntity
  8
ASSI
100
AcDbLine
 62
7
  6
CONTINUOUS
 10
-7.25
 20
22.6002134903
 11
-7.25
 21
24.2500042308
  0
LINE
  5
3B7
100
AcDbEntity
  8
ASSI
100
AcDbLine
 62
7
  6
CONTINUOUS
 10
-7.25
 20
-22.6002134903
 11
-7.25
 21
-24.2500042308
  0
LINE
  5
3B8
100
AcDbEntity
  8
0
100
AcDbLine
 62
250
  6
CONTINUOUS
 10
-7.21216
 20
-17.59219
 11
-7.21216
 21
-16.6177940212
  0
LINE
  5
3B9
100
AcDbEntity
  8
0
100
AcDbLine
 62
250
  6
CONTINUOUS
 10
-6.981669
 20
-16.845717
 11
-6.981669
 21
-17.3165390095
  0
LINE
  5
3BA
100
AcDbEntity
  8
ASSI
100
AcDbLine
 62
250
  6
CONTINUOUS
 10
-7.5080037468
 20
-23.1226497308
 11
-7.5130943479
 21
-23.6278312164
  0
LINE
  5
3BB
100
AcDbEntity
  8
ASSI
100
AcDbLine
 62
250
  6
CONTINUOUS
 10
-7.2572807489
 20
-23.2669872981
 11
-7.2630985787
 21
-23.8443375673
  0
LINE
  5
3BC
100
AcDbEntity
  8
ASSI
100
AcDbLine
 62
250
  6
CONTINUOUS
 10
-10.3427158665
 20
-22.3349016357
 11
-10.3499424883
 21
-22.4
  0
LINE
  5
3BD
100
AcDbEntity
  8
ASSI
100
AcDbLine
 62
250
  6
CONTINUOUS
 10
5.5
 20
-6.9882968356
 11
-1.2
 21
-6.9882968356
  0
LINE
  5
3BE
100
AcDbEntity
  8
0
100
AcDbLine
 62
250
  6
CONTINUOUS
 10
4.4709726205
 20
-16.6690986478
 11
5.254363467
 21
-17.4511864413
  0
LINE
  5
3BF
100
AcDbEntity
  8
0
100
AcDbLine
 62
250
  6
CONTINUOUS
 10
5.364556
 20
-17.221561
 11
4.6333571876
 21
-16.4916831819
  0
LINE
  5
3C0
100
AcDbEntity
  8
ASSI
100
AcDbLine
 62
250
  6
CONTINUOUS
 10
-10.3499424883
 20
22.4
 11
-10.3427158665
 21
22.3349016357
  0
LINE
  5
3C1
100
AcDbEntity
  8
0
100
AcDbLine
 62
250
  6
CONTINUOUS
 10
-6.250343
 20
-16.617947
 11
-6.250343
 21
-16.8458289959
  0
LINE
  5
3C2
100
AcDbEntity
  8
ASSI
100
AcDbLine
 62
250
  6
CONTINUOUS
 10
5.5
 20
-6.6841495489
 11
-1.2
 21
-6.6841495489
  0
LINE
  5
3C3
100
AcDbEntity
  8
ASSI
100
AcDbLine
 62
7
  6
CONTINUOUS
 10
5.5
 20
-6.65
 11
-1.2
 21
-6.65
  0
LINE
  5
3C4
100
AcDbEntity
  8
ASSI
100
AcDbLine
 62
250
  6
CONTINUOUS
 10
7.0345382775
 20
-5.15
 11
7.0
 21
-5.15
  0
LINE
  5
3C5
100
AcDbEntity
  8
ASSI
100
AcDbLine
 62
250
  6
CONTINUOUS
 10
-2.7345382775
 20
-5.15
 11
-2.7
 21
-5.15
  0
LINE
  5
3C6
100
AcDbEntity
  8
ASSI
100
AcDbLine
 62
7
  6
CONTINUOUS
 10
-4.61
 20
7.5000456915
 11
-4.61
 21
1.8999543085
  0
LINE
  5
3C7
100
AcDbEntity
  8
ASSI
100
AcDbLine
 62
7
  6
CONTINUOUS
 10
-4.45
 20
-22.4
 11
-4.45
 21
-24.0
  0
LINE
  5
3C8
100
AcDbEntity
  8
ASSI
100
AcDbLine
 62
7
  6
CONTINUOUS
 10
-4.45
 20
22.4
 11
-4.45
 21
24.0
  0
LINE
  5
3C9
100
AcDbEntity
  8
ASSI
100
AcDbLine
 62
7
  6
CONTINUOUS
 10
-4.4412732553
 20
23.9912732553
 11
-4.4412732553
 21
22.3213883311
  0
LINE
  5
3CA
100
AcDbEntity
  8
ASSI
100
AcDbLine
 62
7
  6
CONTINUOUS
 10
-4.4412732553
 20
-22.3213883311
 11
-4.4412732553
 21
-23.9912732553
  0
LINE
  5
3CB
100
AcDbEntity
  8
ASSI
100
AcDbLine
 62
250
  6
CONTINUOUS
 10
-4.353747176
 20
1.257098466
 11
-4.353747176
 21
1.5562985155
  0
LINE
  5
3CC
100
AcDbEntity
  8
ASSI
100
AcDbLine
 62
250
  6
CONTINUOUS
 10
-4.3526166886
 20
8.147413754
 11
-4.3526166886
 21
7.8425709972
  0
LINE
  5
3CD
100
AcDbEntity
  8
0
100
AcDbLine
 62
250
  6
CONTINUOUS
 10
-4.278368
 20
-17.481659
 11
-4.278368
 21
-17.2589359984
  0
LINE
  5
3CE
100
AcDbEntity
  8
0
100
AcDbLine
 62
250
  6
CONTINUOUS
 10
-4.278368
 20
-17.704419
 11
-4.278368
 21
-17.9271420007
  0
LINE
  5
3CF
100
AcDbEntity
  8
0
100
AcDbLine
 62
250
  6
CONTINUOUS
 10
-3.994499
 20
-17.927164
 11
-3.994499
 21
-17.7044420051
  0
LINE
  5
3D0
100
AcDbEntity
  8
0
100
AcDbLine
 62
250
  6
CONTINUOUS
 10
-3.75221
 20
-17.704421
 11
-3.75221
 21
-17.9271430007
  0
LINE
  5
3D1
100
AcDbEntity
  8
ASSI
100
AcDbLine
 62
7
  6
CONTINUOUS
 10
-3.5
 20
-23.9912732553
 11
-3.5
 21
-22.3213883311
  0
LINE
  5
3D2
100
AcDbEntity
  8
ASSI
100
AcDbLine
 62
7
  6
CONTINUOUS
 10
-3.5
 20
22.3213883311
 11
-3.5
 21
23.9912732553
  0
LINE
  5
3D3
100
AcDbEntity
  8
0
100
AcDbLine
 62
250
  6
CONTINUOUS
 10
-3.468341
 20
-17.927162
 11
-3.468341
 21
-17.7044400046
  0
LINE
  5
3D4
100
AcDbEntity
  8
ASSI
100
AcDbLine
 62
250
  6
CONTINUOUS
 10
-4.9536231778
 20
1.8574000093
 11
-4.9526896274
 21
7.5473091874
  0
LINE
  5
3D5
100
AcDbEntity
  8
ASSI
100
AcDbLine
 62
250
  6
CONTINUOUS
 10
-11.1491276455
 20
-21.8997723451
 11
-11.036266885
 21
-21.5609147213
  0
LINE
  5
3D6
100
AcDbEntity
  8
ASSI
100
AcDbLine
 62
250
  6
CONTINUOUS
 10
-4.61
 20
1.8999543085
 11
-4.6536688693
 21
1.8562854393
  0
LINE
  5
3D7
100
AcDbEntity
  8
ASSI
100
AcDbLine
 62
250
  6
CONTINUOUS
 10
-4.3100456915
 20
1.6
 11
-4.353747176
 21
1.5562985155
  0
LINE
  5
3D8
100
AcDbEntity
  8
ASSI
100
AcDbLine
 62
250
  6
CONTINUOUS
 10
7.0346860426
 20
-4.25
 11
7.0
 21
-4.25
  0
LINE
  5
3D9
100
AcDbEntity
  8
ASSI
100
AcDbLine
 62
250
  6
CONTINUOUS
 10
-2.7346860426
 20
-4.25
 11
-2.7
 21
-4.25
  0
LINE
  5
3DA
100
AcDbEntity
  8
IMPORT_IGES
100
AcDbLine
 62
7
  6
CONTINUOUS
 10
-2.6419229961
 20
-3.84
 11
-1.996
 21
-3.84
  0
LINE
  5
3DB
100
AcDbEntity
  8
IMPORT_IGES
100
AcDbLine
 62
7
  6
CONTINUOUS
 10
-0.696
 20
-3.84
 11
1.004
 21
-3.84
  0
LINE
  5
3DC
100
AcDbEntity
  8
IMPORT_IGES
100
AcDbLine
 62
7
  6
CONTINUOUS
 10
2.304
 20
-3.84
 11
4.004
 21
-3.84
  0
LINE
  5
3DD
100
AcDbEntity
  8
ASSI
100
AcDbLine
 62
7
  6
CONTINUOUS
 10
6.75
 20
-3.55
 11
4.004
 21
-3.55
  0
LINE
  5
3DE
100
AcDbEntity
  8
ASSI
100
AcDbLine
 62
7
  6
CONTINUOUS
 10
2.304
 20
-3.55
 11
1.004
 21
-3.55
  0
LINE
  5
3DF
100
AcDbEntity
  8
ASSI
100
AcDbLine
 62
7
  6
CONTINUOUS
 10
-0.696
 20
-3.55
 11
-1.996
 21
-3.55
  0
LINE
  5
3E0
100
AcDbEntity
  8
0
100
AcDbLine
 62
250
  6
CONTINUOUS
 10
1.401878
 20
-16.6
 11
2.067731
 21
-18.4
  0
LINE
  5
3E1
100
AcDbEntity
  8
0
100
AcDbLine
 62
250
  6
CONTINUOUS
 10
1.820568
 20
-18.4
 11
1.632833
 21
-17.854843
  0
LINE
  5
3E2
100
AcDbEntity
  8
0
100
AcDbLine
 62
250
  6
CONTINUOUS
 10
1.565302
 20
-17.660845
 11
1.3964731028
 21
-17.1623374452
  0
LINE
  5
3E3
100
AcDbEntity
  8
ASSI
100
AcDbLine
 62
250
  6
CONTINUOUS
 10
-11.0362663701
 20
21.5609131753
 11
-11.1491276455
 21
21.8997723451
  0
LINE
  5
3E4
100
AcDbEntity
  8
ASSI
100
AcDbLine
 62
250
  6
CONTINUOUS
 10
-3.0344925861
 20
-5.1530918551
 11
-3.0346403512
 21
-4.2525515309
  0
LINE
  5
3E5
100
AcDbEntity
  8
0
100
AcDbLine
 62
250
  6
CONTINUOUS
 10
-3.226053
 20
-17.704423
 11
-3.226053
 21
-17.9271450002
  0
LINE
  5
3E6
100
AcDbEntity
  8
0
100
AcDbLine
 62
250
  6
CONTINUOUS
 10
-2.942184
 20
-17.92716
 11
-2.942184
 21
-17.704438004
  0
LINE
  5
3E7
100
AcDbEntity
  8
0
100
AcDbLine
 62
250
  6
CONTINUOUS
 10
-2.942184
 20
-17.259031
 11
-2.942184
 21
-17.4817519971
  0
LINE
  5
3E8
100
AcDbEntity
  8
ASSI
100
AcDbLine
 62
7
  6
CONTINUOUS
 10
-2.7
 20
-5.15
 11
-2.7
 21
-4.25
  0
LINE
  5
3E9
100
AcDbEntity
  8
IMPORT_IGES
100
AcDbLine
 62
7
  6
CONTINUOUS
 10
-1.996
 20
-3.84
 11
-1.996
 21
-2.9799561775
  0
LINE
  5
3EA
100
AcDbEntity
  8
ASSI
100
AcDbLine
 62
7
  6
CONTINUOUS
 10
-4.45
 20
-22.4
 11
-4.4412732553
 21
-22.3213883311
  0
LINE
  5
3EB
100
AcDbEntity
  8
ASSI
100
AcDbLine
 62
250
  6
CONTINUOUS
 10
-10.6495078465
 20
-22.4
 11
-10.5363425225
 21
-22.0602279426
  0
LINE
  5
3EC
100
AcDbEntity
  8
IMPORT_IGES
100
AcDbLine
 62
7
  6
CONTINUOUS
 10
6.2291519742
 20
-2.94
 11
-1.9291519742
 21
-2.94
  0
LINE
  5
3ED
100
AcDbEntity
  8
ASSI
100
AcDbLine
 62
7
  6
CONTINUOUS
 10
-1.2
 20
-2.75
 11
5.5
 21
-2.75
  0
LINE
  5
3EE
100
AcDbEntity
  8
ASSI
100
AcDbLine
 62
250
  6
CONTINUOUS
 10
-1.2
 20
-2.7151003562
 11
5.5
 21
-2.7151003562
  0
LINE
  5
3EF
100
AcDbEntity
  8
ASSI
100
AcDbLine
 62
250
  6
CONTINUOUS
 10
-1.2
 20
-2.4165960052
 11
5.5
 21
-2.4165960052
  0
LINE
  5
3F0
100
AcDbEntity
  8
ASSI
100
AcDbLine
 62
250
  6
CONTINUOUS
 10
-10.5363425225
 20
22.0602279426
 11
-10.6495078465
 21
22.4
  0
LINE
  5
3F1
100
AcDbEntity
  8
ASSI
100
AcDbLine
 62
7
  6
CONTINUOUS
 10
-4.4412732553
 20
22.3213883311
 11
-4.45
 21
22.4
  0
LINE
  5
3F2
100
AcDbEntity
  8
0
100
AcDbLine
 62
250
  6
CONTINUOUS
 10
-1.462774
 20
-18.187585
 11
-1.462774
 21
-18.3999999965
  0
LINE
  5
3F3
100
AcDbEntity
  8
ASSI
100
AcDbLine
 62
250
  6
CONTINUOUS
 10
-1.2
 20
-6.9882968356
 11
-1.2
 21
-6.65
  0
LINE
  5
3F4
100
AcDbEntity
  8
ASSI
100
AcDbLine
 62
250
  6
CONTINUOUS
 10
-1.2
 20
-2.4165960052
 11
-1.2
 21
-2.75
  0
LINE
  5
3F5
100
AcDbEntity
  8
ASSI
100
AcDbLine
 62
250
  6
CONTINUOUS
 10
-1.2
 20
-22.3737961104
 11
-1.2
 21
-23.9982478817
  0
LINE
  5
3F6
100
AcDbEntity
  8
ASSI
100
AcDbLine
 62
250
  6
CONTINUOUS
 10
-1.2
 20
22.3737961104
 11
-1.2
 21
23.9982478817
  0
LINE
  5
3F7
100
AcDbEntity
  8
ASSI
100
AcDbLine
 62
7
  6
CONTINUOUS
 10
-1.0
 20
-23.7982512664
 11
-1.0
 21
-22.3842776662
  0
LINE
  5
3F8
100
AcDbEntity
  8
ASSI
100
AcDbLine
 62
7
  6
CONTINUOUS
 10
-1.0
 20
22.3842776662
 11
-1.0
 21
23.7982512664
  0
LINE
  5
3F9
100
AcDbEntity
  8
IMPORT_IGES
100
AcDbLine
 62
7
  6
CONTINUOUS
 10
-0.696
 20
-3.84
 11
-0.696
 21
-2.94
  0
LINE
  5
3FA
100
AcDbEntity
  8
0
100
AcDbLine
 62
250
  6
CONTINUOUS
 10
-0.686171
 20
-17.969031
 11
-0.686171
 21
-17.7664389968
  0
LINE
  5
3FB
100
AcDbEntity
  8
0
100
AcDbLine
 62
250
  6
CONTINUOUS
 10
0.017499
 20
-18.4
 11
0.017499
 21
-17.9690309925
  0
LINE
  5
3FC
100
AcDbEntity
  8
0
100
AcDbLine
 62
250
  6
CONTINUOUS
 10
0.017499
 20
-17.766439
 11
0.017499
 21
-16.9548430168
  0
LINE
  5
3FD
100
AcDbEntity
  8
0
100
AcDbLine
 62
250
  6
CONTINUOUS
 10
0.21739
 20
-16.6
 11
0.21739
 21
-17.7664389805
  0
LINE
  5
3FE
100
AcDbEntity
  8
0
100
AcDbLine
 62
250
  6
CONTINUOUS
 10
0.21739
 20
-17.969031
 11
0.21739
 21
-18.4000000075
  0
LWPOLYLINE
  5
3FF
100
AcDbEntity
  8
0
100
AcDbPolyline
 62
7
  6
CONTINUOUS
 90
2
 70
0
 43
0.3500000019
 10
18.4340390625
 20
-1.3571428757
 10
16.9340375977
 20
-1.3571428757
  0
LINE
  5
400
100
AcDbEntity
  8
0
100
AcDbLine
 62
250
  6
CONTINUOUS
 10
5.952213
 20
-13.734652
 11
5.476742
 21
-12.770339
  0
LINE
  5
401
100
AcDbEntity
  8
0
100
AcDbLine
 62
250
  6
CONTINUOUS
 10
6.127105
 20
-13.273085
 11
5.986795
 21
-12.988221
  0
LINE
  5
402
100
AcDbEntity
  8
0
100
AcDbLine
 62
250
  6
CONTINUOUS
 10
0.43754
 20
-17.766439
 11
0.43754
 21
-17.9690310032
  0
LINE
  5
403
100
AcDbEntity
  8
ASSI
100
AcDbLine
 62
7
  6
CONTINUOUS
 10
1.0
 20
23.7982512664
 11
1.0
 21
22.3842776662
  0
LINE
  5
404
100
AcDbEntity
  8
ASSI
100
AcDbLine
 62
7
  6
CONTINUOUS
 10
1.0
 20
-22.3842776662
 11
1.0
 21
-23.7982512664
  0
LINE
  5
405
100
AcDbEntity
  8
IMPORT_IGES
100
AcDbLine
 62
7
  6
CONTINUOUS
 10
1.004
 20
-3.84
 11
1.004
 21
-2.94
  0
LINE
  5
406
100
AcDbEntity
  8
ASSI
100
AcDbLine
 62
250
  6
CONTINUOUS
 10
1.2
 20
-22.3737961104
 11
1.2
 21
-23.9982478817
  0
LINE
  5
407
100
AcDbEntity
  8
ASSI
100
AcDbLine
 62
250
  6
CONTINUOUS
 10
1.2
 20
22.3737961104
 11
1.2
 21
23.9982478817
  0
LINE
  5
408
100
AcDbEntity
  8
ASSI
100
AcDbLine
 62
7
  6
CONTINUOUS
 10
4.45
 20
22.4
 11
4.4412732553
 21
22.3213883311
  0
LINE
  5
409
100
AcDbEntity
  8
0
100
AcDbLine
 62
250
  6
CONTINUOUS
 10
-5.371256
 20
-17.915067
 11
-4.9604832503
 21
-16.6178580005
  0
LINE
  5
40A
100
AcDbEntity
  8
0
100
AcDbLine
 62
250
  6
CONTINUOUS
 10
-4.6750413022
 20
-16.6178889994
 11
-5.2660856453
 21
-18.4013809997
  0
LINE
  5
40B
100
AcDbEntity
  8
ASSI
100
AcDbLine
 62
250
  6
CONTINUOUS
 10
8.6326166886
 20
7.8425709972
 11
8.5900456915
 21
7.8
  0
LINE
  5
40C
100
AcDbEntity
  8
ASSI
100
AcDbLine
 62
250
  6
CONTINUOUS
 10
8.9327353188
 20
7.5427810103
 11
8.89
 21
7.5000456915
  0
LINE
  5
40D
100
AcDbEntity
  8
ASSI
100
AcDbLine
 62
250
  6
CONTINUOUS
 10
8.633747176
 20
1.257098466
 11
-4.3537469042
 21
1.257098466
  0
LINE
  5
40E
100
AcDbEntity
  8
ASSI
100
AcDbLine
 62
250
  6
CONTINUOUS
 10
8.633747176
 20
1.5562985155
 11
-4.353747176
 21
1.5562985155
  0
LINE
  5
40F
100
AcDbEntity
  8
ASSI
100
AcDbLine
 62
7
  6
CONTINUOUS
 10
-4.3100456915
 20
1.6
 11
8.5900456915
 21
1.6
  0
LINE
  5
410
100
AcDbEntity
  8
ASSI
100
AcDbLine
 62
7
  6
CONTINUOUS
 10
4.4412732553
 20
-22.3213883311
 11
4.45
 21
-22.4
  0
LINE
  5
411
100
AcDbEntity
  8
IMPORT_IGES
100
AcDbLine
 62
7
  6
CONTINUOUS
 10
2.304
 20
-3.84
 11
2.304
 21
-2.94
  0
LWPOLYLINE
  5
412
100
AcDbEntity
  8
0
100
AcDbPolyline
 62
7
  6
CONTINUOUS
 90
2
 70
0
 43
0.3500000019
 10
3.0357148438
 20
33.2500002441
 10
3.0357148438
 20
34.7499990234
  0
LINE
  5
413
100
AcDbEntity
  8
ASSI
100
AcDbLine
 62
7
  6
CONTINUOUS
 10
3.5
 20
23.9912732553
 11
3.5
 21
22.3213883311
  0
LINE
  5
414
100
AcDbEntity
  8
ASSI
100
AcDbLine
 62
7
  6
CONTINUOUS
 10
3.5
 20
-22.3213883311
 11
3.5
 21
-23.9912732553
  0
LINE
  5
415
100
AcDbEntity
  8
ASSI
100
AcDbLine
 62
250
  6
CONTINUOUS
 10
10.6495078465
 20
22.4
 11
10.5363425225
 21
22.0602279426
  0
LINE
  5
416
100
AcDbEntity
  8
ASSI
100
AcDbLine
 62
250
  6
CONTINUOUS
 10
11.1491276455
 20
21.8997723451
 11
11.0362663701
 21
21.5609131753
  0
LINE
  5
417
100
AcDbEntity
  8
IMPORT_IGES
100
AcDbLine
 62
250
  6
CONTINUOUS
 10
5.504
 20
2.5
 11
7.6039999997
 21
2.5
  0
LINE
  5
418
100
AcDbEntity
  8
IMPORT_IGES
100
AcDbLine
 62
7
  6
CONTINUOUS
 10
6.6028863734
 20
3.5
 11
5.504
 21
3.5
  0
LINE
  5
419
100
AcDbEntity
  8
ASSI
100
AcDbLine
 62
250
  6
CONTINUOUS
 10
-4.6527353188
 20
7.5427810103
 11
-4.61
 21
7.5000456915
  0
LINE
  5
41A
100
AcDbEntity
  8
ASSI
100
AcDbLine
 62
250
  6
CONTINUOUS
 10
-4.3526166886
 20
7.8425709972
 11
-4.3100456915
 21
7.8
  0
LINE
  5
41B
100
AcDbEntity
  8
ASSI
100
AcDbLine
 62
250
  6
CONTINUOUS
 10
10.5363425225
 20
-22.0602279426
 11
10.6495078465
 21
-22.4
  0
LINE
  5
41C
100
AcDbEntity
  8
ASSI
100
AcDbLine
 62
250
  6
CONTINUOUS
 10
11.0362616579
 20
-21.5608990273
 11
11.1491276455
 21
-21.8997723451
  0
LINE
  5
41D
100
AcDbEntity
  8
IMPORT_IGES
100
AcDbLine
 62
7
  6
CONTINUOUS
 10
4.004
 20
-2.94
 11
4.004
 21
-3.84
  0
LINE
  5
41E
100
AcDbEntity
  8
0
100
AcDbLine
 62
250
  6
CONTINUOUS
 10
4.292923
 20
-15.7396673304
 11
4.292923
 21
-16.2295007994
  0
LINE
  5
41F
100
AcDbEntity
  8
ASSI
100
AcDbLine
 62
7
  6
CONTINUOUS
 10
4.4412732553
 20
-23.9912732553
 11
4.4412732553
 21
-22.3213883311
  0
LINE
  5
420
100
AcDbEntity
  8
ASSI
100
AcDbLine
 62
7
  6
CONTINUOUS
 10
4.4412732553
 20
22.3213883311
 11
4.4412732553
 21
23.9912732553
  0
LINE
  5
421
100
AcDbEntity
  8
ASSI
100
AcDbLine
 62
7
  6
CONTINUOUS
 10
4.45
 20
-22.4
 11
4.45
 21
-24.0
  0
LINE
  5
422
100
AcDbEntity
  8
ASSI
100
AcDbLine
 62
7
  6
CONTINUOUS
 10
4.45
 20
22.4
 11
4.45
 21
24.0
  0
LINE
  5
423
100
AcDbEntity
  8
0
100
AcDbLine
 62
250
  6
CONTINUOUS
 10
4.532948
 20
-16.2288485547
 11
4.532948
 21
-15.7393579931
  0
LINE
  5
424
100
AcDbEntity
  8
IMPORT_IGES
100
AcDbLine
 62
250
  6
CONTINUOUS
 10
5.104
 20
1.6
 11
5.104
 21
7.8
  0
LINE
  5
425
100
AcDbEntity
  8
0
100
AcDbLine
 62
250
  6
CONTINUOUS
 10
5.364556
 20
-13.734676
 11
5.364556
 21
-17.221560901
  0
LINE
  5
426
100
AcDbEntity
  8
0
100
AcDbLine
 62
250
  6
CONTINUOUS
 10
5.364556
 20
-17.7244384241
 11
5.364556
 21
-18.0251217931
  0
LINE
  5
427
100
AcDbEntity
  8
ASSI
100
AcDbLine
 62
250
  6
CONTINUOUS
 10
5.5
 20
-6.9882968356
 11
5.5
 21
-6.65
  0
LINE
  5
428
100
AcDbEntity
  8
ASSI
100
AcDbLine
 62
250
  6
CONTINUOUS
 10
5.5
 20
-2.4165960052
 11
5.5
 21
-2.75
  0
LINE
  5
429
100
AcDbEntity
  8
IMPORT_IGES
100
AcDbLine
 62
7
  6
CONTINUOUS
 10
5.504
 20
1.6
 11
5.504
 21
7.8
  0
LINE
  5
42A
100
AcDbEntity
  8
0
100
AcDbLine
 62
250
  6
CONTINUOUS
 10
5.604581
 20
-18.0251217869
 11
5.604581
 21
-16.798255464
  0
LINE
  5
42B
100
AcDbEntity
  8
0
100
AcDbLine
 62
250
  6
CONTINUOUS
 10
5.604581
 20
-16.296682
 11
5.604581
 21
-13.7346789568
  0
LINE
  5
42C
100
AcDbEntity
  8
ASSI
100
AcDbLine
 62
7
  6
CONTINUOUS
 10
8.89
 20
2.0
 11
8.9109460779
 21
2.0209460779
  0
LINE
  5
42D
100
AcDbEntity
  8
ASSI
100
AcDbLine
 62
250
  6
CONTINUOUS
 10
7.2630985787
 20
-23.8443375673
 11
7.2572807489
 21
-23.2669872981
  0
LINE
  5
42E
100
AcDbEntity
  8
ASSI
100
AcDbLine
 62
250
  6
CONTINUOUS
 10
7.5130943479
 20
-23.6278312164
 11
7.5080037468
 21
-23.1226497308
  0
LINE
  5
42F
100
AcDbEntity
  8
0
100
AcDbLine
 62
250
  6
CONTINUOUS
 10
6.093762
 20
-16.903919
 11
6.093762
 21
-17.7558679976
  0
LINE
  5
430
100
AcDbEntity
  8
0
100
AcDbLine
 62
250
  6
CONTINUOUS
 10
6.144637
 20
-14.190008
 11
6.144637
 21
-14.9863509964
  0
LINE
  5
431
100
AcDbEntity
  8
0
100
AcDbLine
 62
250
  6
CONTINUOUS
 10
6.400968
 20
-12.988153
 11
6.400968
 21
-12.6430932939
  0
LINE
  5
432
100
AcDbEntity
  8
0
100
AcDbLine
 62
250
  6
CONTINUOUS
 10
6.423144
 20
-14.986307
 11
6.423144
 21
-15.3157103793
  0
LINE
  5
433
100
AcDbEntity
  8
0
100
AcDbLine
 62
250
  6
CONTINUOUS
 10
6.663169
 20
-15.3157103876
 11
6.663169
 21
-14.9863530029
  0
LINE
  5
434
100
AcDbEntity
  8
0
100
AcDbLine
 62
250
  6
CONTINUOUS
 10
6.94135
 20
-14.986305
 11
6.94135
 21
-14.189873015
  0
LINE
  5
435
100
AcDbEntity
  8
ASSI
100
AcDbLine
 62
7
  6
CONTINUOUS
 10
7.0
 20
-4.25
 11
7.0
 21
-5.15
  0
LINE
  5
436
100
AcDbEntity
  8
ASSI
100
AcDbLine
 62
7
  6
CONTINUOUS
 10
7.25
 20
-22.6002134903
 11
7.25
 21
-24.2500042308
  0
LINE
  5
437
100
AcDbEntity
  8
ASSI
100
AcDbLine
 62
7
  6
CONTINUOUS
 10
7.25
 20
22.6002134903
 11
7.25
 21
24.2500042308
  0
LINE
  5
438
100
AcDbEntity
  8
ASSI
100
AcDbLine
 62
7
  6
CONTINUOUS
 10
7.2572807489
 20
23.2669872981
 11
7.2572807489
 21
22.5346275426
  0
LINE
  5
439
100
AcDbEntity
  8
ASSI
100
AcDbLine
 62
7
  6
CONTINUOUS
 10
7.2572807489
 20
-22.5346275426
 11
7.2572807489
 21
-23.2669872981
  0
LINE
  5
43A
100
AcDbEntity
  8
ASSI
100
AcDbLine
 62
7
  6
CONTINUOUS
 10
7.2630985787
 20
24.2369056521
 11
7.2630985787
 21
23.8443375673
  0
LINE
  5
43B
100
AcDbEntity
  8
ASSI
100
AcDbLine
 62
7
  6
CONTINUOUS
 10
7.2630985787
 20
-23.8443375673
 11
7.2630985787
 21
-24.2369056521
  0
LINE
  5
43C
100
AcDbEntity
  8
ASSI
100
AcDbLine
 62
250
  6
CONTINUOUS
 10
7.3346403512
 20
-4.2525515309
 11
7.3344925861
 21
-5.1530918551
  0
LINE
  5
43D
100
AcDbEntity
  8
ASSI
100
AcDbLine
 62
250
  6
CONTINUOUS
 10
7.2572807489
 20
23.2669872981
 11
7.2630985787
 21
23.8443375673
  0
LINE
  5
43E
100
AcDbEntity
  8
ASSI
100
AcDbLine
 62
250
  6
CONTINUOUS
 10
7.5080037468
 20
23.1226497308
 11
7.5130943479
 21
23.6278312164
  0
LINE
  5
43F
100
AcDbEntity
  8
0
100
AcDbLine
 62
250
  6
CONTINUOUS
 10
0.949423
 20
-17.854843
 11
0.772492
 21
-18.4
  0
LINE
  5
440
100
AcDbEntity
  8
0
100
AcDbLine
 62
250
  6
CONTINUOUS
 10
1.1925218944
 20
-17.1329103976
 11
1.011551
 21
-17.660845
  0
LINE
  5
441
100
AcDbEntity
  8
0
100
AcDbLine
 62
250
  6
CONTINUOUS
 10
0.54694
 20
-18.4
 11
1.172274
 21
-16.6
  0
LINE
  5
442
100
AcDbEntity
  8
ASSI
100
AcDbLine
 62
250
  6
CONTINUOUS
 10
8.633747176
 20
1.5562985155
 11
8.5900456915
 21
1.6
  0
LINE
  5
443
100
AcDbEntity
  8
ASSI
100
AcDbLine
 62
250
  6
CONTINUOUS
 10
7.5072765181
 20
22.3114553375
 11
7.5072765181
 21
23.1226497308
  0
LINE
  5
444
100
AcDbEntity
  8
ASSI
100
AcDbLine
 62
250
  6
CONTINUOUS
 10
7.5072765181
 20
-22.3114553375
 11
7.5072765181
 21
-23.1226497308
  0
LINE
  5
445
100
AcDbEntity
  8
ASSI
100
AcDbLine
 62
250
  6
CONTINUOUS
 10
7.5130943479
 20
-23.6278312164
 11
7.5130943479
 21
-24.4869014213
  0
LINE
  5
446
100
AcDbEntity
  8
ASSI
100
AcDbLine
 62
250
  6
CONTINUOUS
 10
7.5130943479
 20
23.6278312164
 11
7.5130943479
 21
24.4869014213
  0
LINE
  5
447
100
AcDbEntity
  8
0
100
AcDbLine
 62
250
  6
CONTINUOUS
 10
7.544673
 20
-12.6432628716
 11
7.544673
 21
-12.9883790038
  0
LINE
  5
448
100
AcDbEntity
  8
IMPORT_IGES
100
AcDbLine
 62
7
  6
CONTINUOUS
 10
7.604
 20
2.5
 11
7.604
 21
1.6
  0
LINE
  5
449
100
AcDbEntity
  8
0
100
AcDbLine
 62
250
  6
CONTINUOUS
 10
7.967978
 20
-17.755609
 11
7.967978
 21
-16.9036309705
  0
LINE
  5
44A
100
AcDbEntity
  8
0
100
AcDbLine
 62
250
  6
CONTINUOUS
 10
8.316275
 20
-18.115639
 11
8.316275
 21
-13.272669079
  0
LINE
  5
44B
100
AcDbEntity
  8
0
100
AcDbLine
 62
250
  6
CONTINUOUS
 10
8.6
 20
-13.1301123167
 11
8.6
 21
-18.2579620565
  0
LINE
  5
44C
100
AcDbEntity
  8
ASSI
100
AcDbLine
 62
250
  6
CONTINUOUS
 10
8.6326166886
 20
8.147413754
 11
8.6326166886
 21
7.8425709972
  0
LINE
  5
44D
100
AcDbEntity
  8
ASSI
100
AcDbLine
 62
250
  6
CONTINUOUS
 10
8.633747176
 20
1.257098466
 11
8.633747176
 21
1.5562985155
  0
LINE
  5
44E
100
AcDbEntity
  8
ASSI
100
AcDbLine
 62
7
  6
CONTINUOUS
 10
8.89
 20
1.8999543085
 11
8.89
 21
2.0
  0
LINE
  5
44F
100
AcDbEntity
  8
ASSI
100
AcDbLine
 62
7
  6
CONTINUOUS
 10
8.89
 20
7.4
 11
8.89
 21
7.5000456915
  0
LINE
  5
450
100
AcDbEntity
  8
ASSI
100
AcDbLine
 62
7
  6
CONTINUOUS
 10
8.9109460779
 20
2.0209460779
 11
8.9109460779
 21
7.3790539221
  0
LINE
  5
451
100
AcDbEntity
  8
ASSI
100
AcDbLine
 62
250
  6
CONTINUOUS
 10
10.3427158665
 20
22.3349016357
 11
10.3499424883
 21
22.4
  0
LINE
  5
452
100
AcDbEntity
  8
0
100
AcDbLine
 62
250
  6
CONTINUOUS
 10
-1.2940244659
 20
-18.607084
 11
-1.073437
 21
-18.194068
  0
LINE
  5
453
100
AcDbEntity
  8
0
100
AcDbLine
 62
250
  6
CONTINUOUS
 10
-0.8896135341
 20
-18.194069
 11
-1.1102015341
 21
-18.607086
  0
LINE
  5
454
100
AcDbEntity
  8
0
100
AcDbLine
 62
250
  6
CONTINUOUS
 10
0.017499
 20
-16.954843
 11
-0.490332
 21
-17.766439
  0
LINE
  5
455
100
AcDbEntity
  8
0
100
AcDbLine
 62
250
  6
CONTINUOUS
 10
-0.686171
 20
-17.766439
 11
0.052615
 21
-16.6
  0
LINE
  5
456
100
AcDbEntity
  8
ASSI
100
AcDbLine
 62
7
  6
CONTINUOUS
 10
8.5900456915
 20
7.8
 11
-4.3100456915
 21
7.8
  0
LINE
  5
457
100
AcDbEntity
  8
ASSI
100
AcDbLine
 62
250
  6
CONTINUOUS
 10
-4.3526166886
 20
7.8425709972
 11
8.6326166886
 21
7.8425709972
  0
LINE
  5
458
100
AcDbEntity
  8
ASSI
100
AcDbLine
 62
250
  6
CONTINUOUS
 10
-4.3526166886
 20
8.147413754
 11
8.6326164714
 21
8.147413754
  0
LINE
  5
459
100
AcDbEntity
  8
ASSI
100
AcDbLine
 62
250
  6
CONTINUOUS
 10
8.9336688693
 20
1.8562854393
 11
8.89
 21
1.8999543085
  0
LINE
  5
45A
100
AcDbEntity
  8
ASSI
100
AcDbLine
 62
250
  6
CONTINUOUS
 10
10.3499424883
 20
-22.4
 11
10.3427158665
 21
-22.3349016357
  0
LINE
  5
45B
100
AcDbEntity
  8
ASSI
100
AcDbLine
 62
250
  6
CONTINUOUS
 10
9.8869056521
 20
23.6278312164
 11
9.8919962532
 21
23.1226497308
  0
LINE
  5
45C
100
AcDbEntity
  8
ASSI
100
AcDbLine
 62
250
  6
CONTINUOUS
 10
10.1369014213
 20
23.8443375673
 11
10.1427192511
 21
23.2669872981
  0
LINE
  5
45D
100
AcDbEntity
  8
ASSI
100
AcDbLine
 62
250
  6
CONTINUOUS
 10
9.2326896274
 20
7.5473093959
 11
9.2336231778
 21
1.857400105
  0
LINE
  5
45E
100
AcDbEntity
  8
ASSI
100
AcDbLine
 62
250
  6
CONTINUOUS
 10
9.8869056521
 20
-23.6278312164
 11
9.8869056521
 21
-24.4869014213
  0
LINE
  5
45F
100
AcDbEntity
  8
ASSI
100
AcDbLine
 62
250
  6
CONTINUOUS
 10
9.8869056521
 20
23.6278312164
 11
9.8869056521
 21
24.4869014213
  0
LINE
  5
460
100
AcDbEntity
  8
ASSI
100
AcDbLine
 62
250
  6
CONTINUOUS
 10
9.8927234819
 20
-22.3114553375
 11
9.8927234819
 21
-23.1226497308
  0
LINE
  5
461
100
AcDbEntity
  8
ASSI
100
AcDbLine
 62
250
  6
CONTINUOUS
 10
9.8927234819
 20
22.3114553375
 11
9.8927234819
 21
23.1226497308
  0
LINE
  5
462
100
AcDbEntity
  8
ASSI
100
AcDbLine
 62
7
  6
CONTINUOUS
 10
10.1369014213
 20
-24.2369056521
 11
10.1369014213
 21
-23.8443375673
  0
LINE
  5
463
100
AcDbEntity
  8
ASSI
100
AcDbLine
 62
7
  6
CONTINUOUS
 10
10.1369014213
 20
23.8443375673
 11
10.1369014213
 21
24.2369056521
  0
LINE
  5
464
100
AcDbEntity
  8
ASSI
100
AcDbLine
 62
7
  6
CONTINUOUS
 10
10.1427192511
 20
-23.2669872981
 11
10.1427192511
 21
-22.5346275426
  0
LINE
  5
465
100
AcDbEntity
  8
ASSI
100
AcDbLine
 62
7
  6
CONTINUOUS
 10
10.1427192511
 20
22.5346275426
 11
10.1427192511
 21
23.2669872981
  0
LINE
  5
466
100
AcDbEntity
  8
ASSI
100
AcDbLine
 62
7
  6
CONTINUOUS
 10
10.15
 20
22.6002134903
 11
10.15
 21
24.2500042308
  0
LINE
  5
467
100
AcDbEntity
  8
ASSI
100
AcDbLine
 62
7
  6
CONTINUOUS
 10
10.15
 20
-22.6002134903
 11
10.15
 21
-24.2500042308
  0
LINE
  5
468
100
AcDbEntity
  8
ASSI
100
AcDbLine
 62
250
  6
CONTINUOUS
 10
10.5109844497
 20
9.5
 11
10.5109844497
 21
-9.5
  0
LINE
  5
469
100
AcDbEntity
  8
ASSI
100
AcDbLine
 62
250
  6
CONTINUOUS
 10
9.8919962532
 20
-23.1226497308
 11
9.8869056521
 21
-23.6278312164
  0
LINE
  5
46A
100
AcDbEntity
  8
ASSI
100
AcDbLine
 62
250
  6
CONTINUOUS
 10
10.1427192511
 20
-23.2669872981
 11
10.1369014213
 21
-23.8443375673
  0
LINE
  5
46B
100
AcDbEntity
  8
ASSI
100
AcDbLine
 62
250
  6
CONTINUOUS
 10
7.0572841335
 20
-22.3349016357
 11
7.0500575117
 21
-22.4
  0
LINE
  5
46C
100
AcDbEntity
  8
0
100
AcDbLine
 62
250
  6
CONTINUOUS
 10
5.476742
 20
-12.770339
 11
4.996029
 21
-13.7347
  0
LINE
  5
46D
100
AcDbEntity
  8
ASSI
100
AcDbLine
 62
250
  6
CONTINUOUS
 10
-10.1369014213
 20
-24.2369056521
 11
-10.15
 21
-24.2500042308
  0
LINE
  5
46E
100
AcDbEntity
  8
ASSI
100
AcDbLine
 62
250
  6
CONTINUOUS
 10
-9.8869056521
 20
-24.4869014213
 11
-9.8996205848
 21
-24.499616354
  0
LINE
  5
46F
100
AcDbEntity
  8
ASSI
100
AcDbLine
 62
250
  6
CONTINUOUS
 10
10.5109844497
 20
9.5
 11
-10.5109844497
 21
9.5
  0
LINE
  5
470
100
AcDbEntity
  8
ASSI
100
AcDbLine
 62
250
  6
CONTINUOUS
 10
-10.1369014213
 20
24.2369056521
 11
-10.15
 21
24.2500042308
  0
LINE
  5
471
100
AcDbEntity
  8
ASSI
100
AcDbLine
 62
250
  6
CONTINUOUS
 10
-9.8869056521
 20
24.4869014213
 11
-9.8996205848
 21
24.499616354
  0
LINE
  5
472
100
AcDbEntity
  8
ASSI
100
AcDbLine
 62
250
  6
CONTINUOUS
 10
7.0500575117
 20
22.4
 11
7.0572841335
 21
22.3349016357
  0
LINE
  5
473
100
AcDbEntity
  8
ASSI
100
AcDbLine
 62
7
  6
CONTINUOUS
 10
11.1504363434
 20
21.900016923
 11
11.1504363434
 21
18.5
  0
LINE
  5
474
100
AcDbEntity
  8
ASSI
100
AcDbLine
 62
7
  6
CONTINUOUS
 10
11.1504363434
 20
-21.900016923
 11
11.1504363434
 21
-18.5
  0
LINE
  5
475
100
AcDbEntity
  8
ASSI
100
AcDbLine
 62
7
  6
CONTINUOUS
 10
11.1840373766
 20
18.1473460386
 11
11.1840373766
 21
-18.1473460386
  0
LINE
  5
476
100
AcDbEntity
  8
ASSI
100
AcDbLine
 62
7
  6
CONTINUOUS
 10
8.89
 20
7.4
 11
8.9109460779
 21
7.3790539221
  0
LINE
  5
477
100
AcDbEntity
  8
ASSI
100
AcDbLine
 62
7
  6
CONTINUOUS
 10
11.1840373766
 20
18.1473460386
 11
11.15
 21
18.491183651
  0
LINE
  5
478
100
AcDbEntity
  8
ASSI
100
AcDbLine
 62
7
  6
CONTINUOUS
 10
11.1840373766
 20
-18.1473460386
 11
11.15
 21
-18.491183651
  0
LINE
  5
479
100
AcDbEntity
  8
ASSI
100
AcDbLine
 62
7
  6
CONTINUOUS
 10
-4.45
 20
-24.0
 11
-4.4412732553
 21
-23.9912732553
  0
LWPOLYLINE
  5
47A
100
AcDbEntity
  8
0
100
AcDbPolyline
 62
7
  6
CONTINUOUS
 90
10
 70
0
 43
0.3500000019
 10
18.4340390625
 20
0.4285714455
 10
17.5768930664
 20
1.2857142944
 10
16.7197524414
 20
1.4999999542
 10
15.8626064453
 20
1.4999999542
 10
15.4340361328
 20
1.0714285507
 10
15.4340361328
 20
0.4285714455
 10
15.8626064453
 20
0.0
 10
16.7197524414
 20
0.0
 10
17.1483227539
 20
0.4285714455
 10
17.1483227539
 20
1.3571428757
  0
LINE
  5
47B
100
AcDbEntity
  8
ASSI
100
AcDbLine
 62
7
  6
CONTINUOUS
 10
-4.45
 20
24.0
 11
-4.4412732553
 21
23.9912732553
  0
LINE
  5
47C
100
AcDbEntity
  8
0
100
AcDbLine
 62
250
  6
CONTINUOUS
 10
6.3110653287
 20
-15.589544671
 11
5.604581
 21
-16.296682
  0
LINE
  5
47D
100
AcDbEntity
  8
0
100
AcDbLine
 62
250
  6
CONTINUOUS
 10
5.7160736648
 20
-16.5243553162
 11
6.481866195
 21
-15.7592138265
  0
LWPOLYLINE
  5
47E
100
AcDbEntity
  8
0
100
AcDbPolyline
 62
7
  6
CONTINUOUS
 90
10
 70
0
 43
0.3500000019
 10
0.9642880859
 20
33.7500007324
 10
1.0357128906
 20
33.6071430664
 10
1.0357128906
 20
33.5357155762
 10
0.8928579102
 20
33.3928579102
 10
0.8214277344
 20
33.3928579102
 10
0.7499975586
 20
33.4642854004
 10
0.7499975586
 20
33.5357155762
 10
0.8214277344
 20
33.6785705566
 10
0.8928579102
 20
33.7500007324
 10
0.9642880859
 20
33.7500007324
  0
LWPOLYLINE
  5
47F
100
AcDbEntity
  8
0
100
AcDbPolyline
 62
7
  6
CONTINUOUS
 90
3
 70
0
 43
0.3500000019
 10
17.7911782227
 20
-0.8571428909
 10
17.7911782227
 20
-2.3571429291
 10
15.4340361328
 20
-1.7142857819
  0
LINE
  5
480
100
AcDbEntity
  8
ASSI
100
AcDbLine
 62
250
  6
CONTINUOUS
 10
-10.5281693342
 20
21.2107174911
 11
10.5281693342
 21
21.2107174911
  0
LINE
  5
481
100
AcDbEntity
  8
ASSI
100
AcDbLine
 62
250
  6
CONTINUOUS
 10
7.2630985787
 20
-24.2369056521
 11
7.25
 21
-24.2500042308
  0
LINE
  5
482
100
AcDbEntity
  8
ASSI
100
AcDbLine
 62
250
  6
CONTINUOUS
 10
7.5130943479
 20
-24.4869014213
 11
7.4999957692
 21
-24.5
  0
LINE
  5
483
100
AcDbEntity
  8
ASSI
100
AcDbLine
 62
250
  6
CONTINUOUS
 10
-10.5363425225
 20
22.0602279426
 11
10.5363425225
 21
22.0602279426
  0
LINE
  5
484
100
AcDbEntity
  8
ASSI
100
AcDbLine
 62
250
  6
CONTINUOUS
 10
-9.8927234819
 20
22.3114553375
 11
-7.5072765181
 21
22.3114553375
  0
LINE
  5
485
100
AcDbEntity
  8
ASSI
100
AcDbLine
 62
250
  6
CONTINUOUS
 10
7.5072765181
 20
22.3114553375
 11
9.8927234819
 21
22.3114553375
  0
LINE
  5
486
100
AcDbEntity
  8
ASSI
100
AcDbLine
 62
7
  6
CONTINUOUS
 10
4.4412732553
 20
22.3213883311
 11
3.5
 21
22.3213883311
  0
LINE
  5
487
100
AcDbEntity
  8
ASSI
100
AcDbLine
 62
7
  6
CONTINUOUS
 10
-3.5
 20
22.3213883311
 11
-4.4412732553
 21
22.3213883311
  0
LINE
  5
488
100
AcDbEntity
  8
ASSI
100
AcDbLine
 62
7
  6
CONTINUOUS
 10
-3.5
 20
22.3737961104
 11
-1.2
 21
22.3737961104
  0
LINE
  5
489
100
AcDbEntity
  8
ASSI
100
AcDbLine
 62
7
  6
CONTINUOUS
 10
1.2
 20
22.3737961104
 11
3.5
 21
22.3737961104
  0
LINE
  5
48A
100
AcDbEntity
  8
ASSI
100
AcDbLine
 62
7
  6
CONTINUOUS
 10
1.0
 20
22.4
 11
-1.0
 21
22.4
  0
LINE
  5
48B
100
AcDbEntity
  8
ASSI
100
AcDbLine
 62
7
  6
CONTINUOUS
 10
-10.6495078465
 20
22.4
 11
-10.3499424883
 21
22.4
  0
LINE
  5
48C
100
AcDbEntity
  8
ASSI
100
AcDbLine
 62
7
  6
CONTINUOUS
 10
-7.0500575117
 20
22.4
 11
-4.45
 21
22.4
  0
LINE
  5
48D
100
AcDbEntity
  8
ASSI
100
AcDbLine
 62
7
  6
CONTINUOUS
 10
4.45
 20
22.4
 11
7.0500575117
 21
22.4
  0
LINE
  5
48E
100
AcDbEntity
  8
ASSI
100
AcDbLine
 62
7
  6
CONTINUOUS
 10
10.3499424883
 20
22.4
 11
10.6495078465
 21
22.4
  0
LINE
  5
48F
100
AcDbEntity
  8
ASSI
100
AcDbLine
 62
250
  6
CONTINUOUS
 10
-9.8927234819
 20
22.5111812444
 11
-7.5072765181
 21
22.5111812444
  0
LINE
  5
490
100
AcDbEntity
  8
ASSI
100
AcDbLine
 62
250
  6
CONTINUOUS
 10
7.5072765181
 20
22.5111812444
 11
9.8927234819
 21
22.5111812444
  0
LINE
  5
491
100
AcDbEntity
  8
ASSI
100
AcDbLine
 62
7
  6
CONTINUOUS
 10
9.8927234819
 20
23.1226497308
 11
7.5072765181
 21
23.1226497308
  0
LINE
  5
492
100
AcDbEntity
  8
ASSI
100
AcDbLine
 62
7
  6
CONTINUOUS
 10
-9.8927234819
 20
23.1226497308
 11
-7.5072765181
 21
23.1226497308
  0
LINE
  5
493
100
AcDbEntity
  8
ASSI
100
AcDbLine
 62
250
  6
CONTINUOUS
 10
7.2630985787
 20
24.2369056521
 11
7.25
 21
24.2500042308
  0
LINE
  5
494
100
AcDbEntity
  8
ASSI
100
AcDbLine
 62
250
  6
CONTINUOUS
 10
7.5130943479
 20
24.4869014213
 11
7.4999957692
 21
24.5
  0
LINE
  5
495
100
AcDbEntity
  8
ASSI
100
AcDbLine
 62
250
  6
CONTINUOUS
 10
-9.9137857299
 20
24.4854512088
 11
-9.8869056521
 21
24.4869014213
  0
LINE
  5
496
100
AcDbEntity
  8
ASSI
100
AcDbLine
 62
250
  6
CONTINUOUS
 10
-9.8869056521
 20
23.6278312164
 11
-7.5130943479
 21
23.6278312164
  0
LINE
  5
497
100
AcDbEntity
  8
ASSI
100
AcDbLine
 62
250
  6
CONTINUOUS
 10
7.5130943479
 20
23.6278312164
 11
9.8869056521
 21
23.6278312164
  0
LINE
  5
498
100
AcDbEntity
  8
ASSI
100
AcDbLine
 62
250
  6
CONTINUOUS
 10
3.5
 20
23.7982512664
 11
1.0
 21
23.7982512664
  0
LINE
  5
499
100
AcDbEntity
  8
ASSI
100
AcDbLine
 62
250
  6
CONTINUOUS
 10
-3.5
 20
23.7982512664
 11
-1.0
 21
23.7982512664
  0
LINE
  5
49A
100
AcDbEntity
  8
ASSI
100
AcDbLine
 62
250
  6
CONTINUOUS
 10
-10.1369014213
 20
23.8443375673
 11
-7.2630985787
 21
23.8443375673
  0
LINE
  5
49B
100
AcDbEntity
  8
ASSI
100
AcDbLine
 62
250
  6
CONTINUOUS
 10
7.2630985787
 20
23.8443375673
 11
10.1369014213
 21
23.8443375673
  0
LINE
  5
49C
100
AcDbEntity
  8
ASSI
100
AcDbLine
 62
7
  6
CONTINUOUS
 10
-4.4412732553
 20
23.9912732553
 11
-3.5
 21
23.9912732553
  0
LINE
  5
49D
100
AcDbEntity
  8
ASSI
100
AcDbLine
 62
7
  6
CONTINUOUS
 10
3.5
 20
23.9912732553
 11
4.4412732553
 21
23.9912732553
  0
LINE
  5
49E
100
AcDbEntity
  8
ASSI
100
AcDbLine
 62
7
  6
CONTINUOUS
 10
3.5
 20
23.9982478817
 11
1.2
 21
23.9982478817
  0
LINE
  5
49F
100
AcDbEntity
  8
ASSI
100
AcDbLine
 62
7
  6
CONTINUOUS
 10
-1.2
 20
23.9982478817
 11
-3.5
 21
23.9982478817
  0
LINE
  5
4A0
100
AcDbEntity
  8
ASSI
100
AcDbLine
 62
7
  6
CONTINUOUS
 10
-4.45
 20
24.0
 11
-3.5
 21
24.0
  0
LINE
  5
4A1
100
AcDbEntity
  8
ASSI
100
AcDbLine
 62
7
  6
CONTINUOUS
 10
3.5
 20
24.0
 11
4.45
 21
24.0
  0
LINE
  5
4A2
100
AcDbEntity
  8
ASSI
100
AcDbLine
 62
250
  6
CONTINUOUS
 10
-10.1369014213
 20
24.2369056521
 11
-7.2630985787
 21
24.2369056521
  0
LINE
  5
4A3
100
AcDbEntity
  8
ASSI
100
AcDbLine
 62
250
  6
CONTINUOUS
 10
7.2630985787
 20
24.2369056521
 11
10.1369014213
 21
24.2369056521
  0
LINE
  5
4A4
100
AcDbEntity
  8
ASSI
100
AcDbLine
 62
7
  6
CONTINUOUS
 10
9.8869056521
 20
24.4869014213
 11
7.5130943479
 21
24.4869014213
  0
LINE
  5
4A5
100
AcDbEntity
  8
ASSI
100
AcDbLine
 62
7
  6
CONTINUOUS
 10
-7.5130943479
 20
24.4869014213
 11
-9.8869056521
 21
24.4869014213
  0
LINE
  5
4A6
100
AcDbEntity
  8
ASSI
100
AcDbLine
 62
7
  6
CONTINUOUS
 10
9.9000042308
 20
24.5
 11
7.4999957692
 21
24.5
  0
LINE
  5
4A7
100
AcDbEntity
  8
ASSI
100
AcDbLine
 62
7
  6
CONTINUOUS
 10
-7.4999957692
 20
24.5
 11
-9.9000042308
 21
24.5
  0
LWPOLYLINE
  5
4A8
100
AcDbEntity
  8
0
100
AcDbPolyline
 62
7
  6
CONTINUOUS
 90
7
 70
0
 43
0.3500000019
 10
-0.5357133789
 20
33.2500002441
 10
-2.0357148438
 20
33.2500002441
 10
-0.5357133789
 20
35.3928571777
 10
-0.5357133789
 20
35.8214274902
 10
-0.9642836914
 20
36.2500004883
 10
-1.6071445312
 20
36.2500004883
 10
-2.0357148438
 20
35.607142334
  0
LWPOLYLINE
  5
4A9
100
AcDbEntity
  8
0
100
AcDbPolyline
 62
7
  6
CONTINUOUS
 90
7
 70
0
 43
0.3500000019
 10
-2.8928554687
 20
33.2500002441
 10
-4.3928569336
 20
33.2500002441
 10
-2.8928554687
 20
35.3928571777
 10
-2.8928554687
 20
35.8214274902
 10
-3.3214311523
 20
36.2500004883
 10
-3.9642866211
 20
36.2500004883
 10
-4.3928569336
 20
35.607142334
  0
LWPOLYLINE
  5
4AA
100
AcDbEntity
  8
0
100
AcDbPolyline
 62
7
  6
CONTINUOUS
 90
3
 70
0
 43
0.3500000019
 10
3.535715332
 20
33.8928583984
 10
2.0357138672
 20
33.8928583984
 10
2.6785693359
 20
36.2500004883
  0
LINE
  5
4AB
100
AcDbEntity
  8
ASSI
100
AcDbLine
 62
250
  6
CONTINUOUS
 10
-7.5130943479
 20
24.4869014213
 11
-7.4862142701
 21
24.4854512088
  0
LWPOLYLINE
  5
4AC
100
AcDbEntity
  8
0
100
AcDbPolyline
 62
7
  6
CONTINUOUS
 90
10
 70
0
 43
0.3500000019
 10
-70.3834456444
 20
46.2499995117
 10
-71.0263027995
 20
45.607144043
 10
-71.4548742371
 20
44.7500007324
 10
-71.4548742371
 20
43.6785722656
 10
-71.0263027995
 20
43.2499992676
 10
-70.3834456444
 20
43.2499992676
 10
-69.9548741989
 20
43.6785722656
 10
-69.9548741989
 20
44.5357155762
 10
-70.3834456444
 20
44.9642858887
 10
-71.3120170956
 20
44.9642858887
  0
LWPOLYLINE
  5
4AD
100
AcDbEntity
  8
0
100
AcDbPolyline
 62
7
  6
CONTINUOUS
 90
5
 70
0
 43
0.3500000019
 10
-65.6691599121
 20
34.9642868652
 10
-65.3120170898
 20
35.1785720215
 10
-65.3120170898
 20
35.8214274902
 10
-65.6691599121
 20
36.2500004883
 10
-66.526302887
 20
36.2500004883
  0
LINE
  5
4AE
100
AcDbEntity
  8
ASSI
100
AcDbLine
 62
250
  6
CONTINUOUS
 10
-84.2763028
 20
23.4104851482
 11
-83.5248483672
 21
23.8443375673
  0
LINE
  5
4AF
100
AcDbEntity
  8
ASSI
100
AcDbLine
 62
7
  6
CONTINUOUS
 10
-84.2763028
 20
23.1226497308
 11
-83.4013028
 21
23.6278312164
  0
LINE
  5
4B0
100
AcDbEntity
  8
ASSI
100
AcDbLine
 62
250
  6
CONTINUOUS
 10
-83.5248483672
 20
-23.8443375673
 11
-84.2763028
 21
-23.4104851482
  0
LINE
  5
4B1
100
AcDbEntity
  8
ASSI
100
AcDbLine
 62
7
  6
CONTINUOUS
 10
-83.4013028
 20
-23.6278312164
 11
-84.2763028
 21
-23.1226497308
  0
LINE
  5
4B2
100
AcDbEntity
  8
0
100
AcDbLine
 62
250
  6
CONTINUOUS
 10
-92.166900799
 20
-17.592225
 11
-92.1669046338
 21
-17.59219
  0
LINE
  5
4B3
100
AcDbEntity
  8
0
100
AcDbLine
 62
250
  6
CONTINUOUS
 10
-92.3246417934
 20
-16.0261556416
 11
-92.3253772645
 21
-16.0181486319
  0
LINE
  5
4B4
100
AcDbEntity
  8
0
100
AcDbLine
 62
250
  6
CONTINUOUS
 10
-92.4141216233
 20
-14.986351
 11
-92.4141251528
 21
-14.986307
  0
LINE
  5
4B5
100
AcDbEntity
  8
0
100
AcDbLine
 62
250
  6
CONTINUOUS
 10
-92.4744562134
 20
-14.189873
 11
-92.4744465891
 21
-14.190008
  0
LINE
  5
4B6
100
AcDbEntity
  8
0
100
AcDbLine
 62
250
  6
CONTINUOUS
 10
-92.5351377887
 20
-13.272669
 11
-92.5351123985
 21
-13.273085
  0
LINE
  5
4B7
100
AcDbEntity
  8
0
100
AcDbLine
 62
250
  6
CONTINUOUS
 10
-92.5520482585
 20
-12.9881864268
 11
-92.5437247707
 21
-13.1301123167
  0
LINE
  5
4B8
100
AcDbEntity
  8
0
100
AcDbLine
 62
250
  6
CONTINUOUS
 10
-92.5789112005
 20
-12.5009619898
 11
-92.5713333433
 21
-12.6433750983
  0
LINE
  5
4B9
100
AcDbEntity
  8
ASSI
100
AcDbLine
 62
7
  6
CONTINUOUS
 10
-84.2763028
 20
-24.5
 11
-83.5248483672
 21
-24.495628166
  0
LINE
  5
4BA
100
AcDbEntity
  8
ASSI
100
AcDbLine
 62
250
  6
CONTINUOUS
 10
-84.2763028
 20
-24.2500042308
 11
-83.5248483672
 21
-24.2456323968
  0
LINE
  5
4BB
100
AcDbEntity
  8
ASSI
100
AcDbLine
 62
7
  6
CONTINUOUS
 10
-76.7733939343
 20
-23.9563493531
 11
-83.2763028
 21
-23.9941821702
  0
LINE
  5
4BC
100
AcDbEntity
  8
ASSI
100
AcDbLine
 62
250
  6
CONTINUOUS
 10
-83.2763028
 20
-24.2456323968
 11
-83.5248483672
 21
-24.2456323968
  0
LINE
  5
4BD
100
AcDbEntity
  8
ASSI
100
AcDbLine
 62
250
  6
CONTINUOUS
 10
-86.7763028
 20
-24.2369056521
 11
-86.5277572328
 21
-24.2369056521
  0
LINE
  5
4BE
100
AcDbEntity
  8
ASSI
100
AcDbLine
 62
250
  6
CONTINUOUS
 10
-86.7763028
 20
-23.8443375673
 11
-86.5277572328
 21
-23.8443375673
  0
LINE
  5
4BF
100
AcDbEntity
  8
ASSI
100
AcDbLine
 62
250
  6
CONTINUOUS
 10
-83.2763028
 20
-23.8443375673
 11
-83.5248483672
 21
-23.8443375673
  0
LINE
  5
4C0
100
AcDbEntity
  8
ASSI
100
AcDbLine
 62
7
  6
CONTINUOUS
 10
-86.5277572328
 20
-24.4869014213
 11
-84.2763028
 21
-24.5
  0
LINE
  5
4C1
100
AcDbEntity
  8
ASSI
100
AcDbLine
 62
250
  6
CONTINUOUS
 10
-86.5277572328
 20
-24.2369056521
 11
-84.2763028
 21
-24.2500042308
  0
LINE
  5
4C2
100
AcDbEntity
  8
ASSI
100
AcDbLine
 62
250
  6
CONTINUOUS
 10
-84.2763028
 20
-22.6002134903
 11
-85.5277572328
 21
-22.5346275426
  0
LINE
  5
4C3
100
AcDbEntity
  8
ASSI
100
AcDbLine
 62
7
  6
CONTINUOUS
 10
-90.7595398691
 20
-22.0602279426
 11
-84.2763028
 21
-22.4
  0
LINE
  5
4C4
100
AcDbEntity
  8
ASSI
100
AcDbLine
 62
250
  6
CONTINUOUS
 10
-90.7423680536
 20
-21.5608990273
 11
-84.2762799566
 21
-21.8997723451
  0
LINE
  5
4C5
100
AcDbEntity
  8
ASSI
100
AcDbLine
 62
250
  6
CONTINUOUS
 10
-85.5277572328
 20
-22.5346275426
 11
-85.7763028039
 21
-22.511181243
  0
LINE
  5
4C6
100
AcDbEntity
  8
ASSI
100
AcDbLine
 62
250
  6
CONTINUOUS
 10
-85.7749674698
 20
-22.5113160471
 11
-85.7763028
 21
-22.5111812444
  0
LINE
  5
4C7
100
AcDbEntity
  8
0
100
AcDbLine
 62
250
  6
CONTINUOUS
 10
-92.0914502588
 20
-18.257962
 11
-92.0747002649
 21
-18.4000180777
  0
LINE
  5
4C8
100
AcDbEntity
  8
0
100
AcDbLine
 62
250
  6
CONTINUOUS
 10
-92.1280660252
 20
-17.940408
 11
-92.0995651382
 21
-18.1884324824
  0
LINE
  5
4C9
100
AcDbEntity
  8
0
100
AcDbLine
 62
250
  6
CONTINUOUS
 10
-92.1488196998
 20
-17.755868
 11
-92.1488485564
 21
-17.755609
  0
LWPOLYLINE
  5
4CA
100
AcDbEntity
  8
0
100
AcDbPolyline
 62
7
  6
CONTINUOUS
 90
10
 70
0
 43
0.3500000019
 10
-63.3120171509
 20
36.2500004883
 10
-63.9548739624
 20
35.607142334
 10
-64.3834456177
 20
34.7499990234
 10
-64.3834456177
 20
33.6785705566
 10
-63.9548739624
 20
33.2500002441
 10
-63.3120171509
 20
33.2500002441
 10
-62.8834454956
 20
33.6785705566
 10
-62.8834454956
 20
34.5357138672
 10
-63.3120171509
 20
34.9642868652
 10
-64.240588623
 20
34.9642868652
  0
LINE
  5
4CB
100
AcDbEntity
  8
ASSI
100
AcDbLine
 62
7
  6
CONTINUOUS
 10
-73.2704850686
 20
-22.3359700255
 11
-84.2763028
 21
-22.4
  0
LINE
  5
4CC
100
AcDbEntity
  8
ASSI
100
AcDbLine
 62
250
  6
CONTINUOUS
 10
-84.2763028
 20
-21.900016923
 11
-83.2763028
 21
-21.8941990932
  0
LINE
  5
4CD
100
AcDbEntity
  8
ASSI
100
AcDbLine
 62
7
  6
CONTINUOUS
 10
-72.2763028
 20
-20.9
 11
-83.2763028
 21
-20.9
  0
LINE
  5
4CE
100
AcDbEntity
  8
ASSI
100
AcDbLine
 62
7
  6
CONTINUOUS
 10
-82.2763028
 20
-20.85
 11
-72.2763028
 21
-20.85
  0
LINE
  5
4CF
100
AcDbEntity
  8
ASSI
100
AcDbLine
 62
250
  6
CONTINUOUS
 10
-82.2763028
 20
-20.7
 11
-83.2728109228
 21
-20.7
  0
LINE
  5
4D0
100
AcDbEntity
  8
ASSI
100
AcDbLine
 62
7
  6
CONTINUOUS
 10
-72.7675765968
 20
-21.4537354271
 11
-83.2763028
 21
-21.4
  0
LINE
  5
4D1
100
AcDbEntity
  8
CURVE
100
AcDbLine
 62
7
  6
CONTINUOUS
 10
-79.6755991559
 20
15.7529826981
 11
-79.427144854
 21
16.001437
  0
LINE
  5
4D2
100
AcDbEntity
  8
ASSI
100
AcDbLine
 62
7
  6
CONTINUOUS
 10
-46.2763028
 20
-19.1571474807
 11
-72.2763028
 21
-19.6109791689
  0
LINE
  5
4D3
100
AcDbEntity
  8
ASSI
100
AcDbLine
 62
250
  6
CONTINUOUS
 10
-46.2763028
 20
-18.864298871
 11
-72.2763028
 21
-19.3181305591
  0
LINE
  5
4D4
100
AcDbEntity
  8
ASSI
100
AcDbLine
 62
7
  6
CONTINUOUS
 10
-83.2763028
 20
-19.5
 11
-82.2763028
 21
-19.4912731322
  0
LINE
  5
4D5
100
AcDbEntity
  8
ASSI
100
AcDbLine
 62
250
  6
CONTINUOUS
 10
-82.2763028
 20
-19.0856972195
 11
-46.2763028
 21
-18.825412733
  0
LINE
  5
4D6
100
AcDbEntity
  8
ASSI
100
AcDbLine
 62
7
  6
CONTINUOUS
 10
-83.2763028
 20
-18.5082905244
 11
-82.2763028
 21
-18.5046757374
  0
LINE
  5
4D7
100
AcDbEntity
  8
ASSI
100
AcDbLine
 62
7
  6
CONTINUOUS
 10
-86.7763028
 20
-24.2369056521
 11
-86.7763028
 21
-23.8443375673
  0
LINE
  5
4D8
100
AcDbEntity
  8
ASSI
100
AcDbLine
 62
7
  6
CONTINUOUS
 10
-86.7763028
 20
23.8443375673
 11
-86.7763028
 21
24.2369056521
  0
LINE
  5
4D9
100
AcDbEntity
  8
ASSI
100
AcDbLine
 62
250
  6
CONTINUOUS
 10
-86.5277572328
 20
-24.2369056521
 11
-86.5277572328
 21
-23.8443375673
  0
LINE
  5
4DA
100
AcDbEntity
  8
ASSI
100
AcDbLine
 62
250
  6
CONTINUOUS
 10
-86.5277572328
 20
23.8443375673
 11
-86.5277572328
 21
24.2369056521
  0
LINE
  5
4DB
100
AcDbEntity
  8
ASSI
100
AcDbLine
 62
7
  6
CONTINUOUS
 10
-85.7763028
 20
-23.1226497308
 11
-85.7763028
 21
-22.5111812444
  0
LINE
  5
4DC
100
AcDbEntity
  8
ASSI
100
AcDbLine
 62
7
  6
CONTINUOUS
 10
-85.7763028
 20
22.5111812444
 11
-85.7763028
 21
23.1226497308
  0
LINE
  5
4DD
100
AcDbEntity
  8
ASSI
100
AcDbLine
 62
250
  6
CONTINUOUS
 10
-85.5277572328
 20
-23.2669872981
 11
-85.5277572328
 21
-22.5346275426
  0
LINE
  5
4DE
100
AcDbEntity
  8
ASSI
100
AcDbLine
 62
250
  6
CONTINUOUS
 10
-85.5277572328
 20
22.5346275426
 11
-85.5277572328
 21
23.2669872981
  0
LINE
  5
4DF
100
AcDbEntity
  8
CURVE
100
AcDbLine
 62
7
  6
CONTINUOUS
 10
-78.9299701481
 20
15.5030053579
 11
-78.4315385061
 21
16.001437
  0
LINE
  5
4E0
100
AcDbEntity
  8
CURVE
100
AcDbLine
 62
7
  6
CONTINUOUS
 10
-79.6755991559
 20
13.7617700023
 11
-78.510321387
 21
14.9270477712
  0
LINE
  5
4E1
100
AcDbEntity
  8
CURVE
100
AcDbLine
 62
7
  6
CONTINUOUS
 10
-77.9343686633
 20
15.5030004948
 11
-77.4359321582
 21
16.001437
  0
LINE
  5
4E2
100
AcDbEntity
  8
CURVE
100
AcDbLine
 62
7
  6
CONTINUOUS
 10
-78.7815528102
 20
13.66021
 11
-78.2779242445
 21
14.1638385657
  0
LINE
  5
4E3
100
AcDbEntity
  8
CURVE
100
AcDbLine
 62
7
  6
CONTINUOUS
 10
-77.2949680371
 20
15.1467947732
 11
-76.7769467019
 21
15.6648161083
  0
LINE
  5
4E4
100
AcDbEntity
  8
CURVE
100
AcDbLine
 62
250
  6
CONTINUOUS
 10
-79.6755991559
 20
14.166101
 11
-77.6283370113
 21
15.502999
  0
LINE
  5
4E5
100
AcDbEntity
  8
CURVE
100
AcDbLine
 62
250
  6
CONTINUOUS
 10
-76.7769467019
 20
15.484078
 11
-78.8018642502
 21
14.165656
  0
LINE
  5
4E6
100
AcDbEntity
  8
ASSI
100
AcDbLine
 62
7
  6
CONTINUOUS
 10
-82.2763028
 20
-18.1473460386
 11
-84.2263028
 21
-18.491183651
  0
LINE
  5
4E7
100
AcDbEntity
  8
ASSI
100
AcDbLine
 62
250
  6
CONTINUOUS
 10
-82.2763028
 20
-17.6716990487
 11
-46.2763028
 21
-17.4114145622
  0
LINE
  5
4E8
100
AcDbEntity
  8
CURVE
100
AcDbLine
 62
250
  6
CONTINUOUS
 10
-77.6878999382
 20
-14.790021
 11
-79.6835169498
 21
-14.22041
  0
LINE
  5
4E9
100
AcDbEntity
  8
CURVE
100
AcDbLine
 62
250
  6
CONTINUOUS
 10
-79.6835169498
 20
-13.615552
 11
-76.784305581
 21
-14.547617
  0
LINE
  5
4EA
100
AcDbEntity
  8
ASSI
100
AcDbLine
 62
7
  6
CONTINUOUS
 10
-84.2763028
 20
18.5
 11
-84.2763028
 21
24.5
  0
LINE
  5
4EB
100
AcDbEntity
  8
ASSI
100
AcDbLine
 62
7
  6
CONTINUOUS
 10
-84.2763028
 20
-18.5
 11
-84.2763028
 21
-24.5
  0
LINE
  5
4EC
100
AcDbEntity
  8
ASSI
100
AcDbLine
 62
250
  6
CONTINUOUS
 10
-83.5248483672
 20
24.2456323968
 11
-83.5248483672
 21
23.8443375673
  0
LINE
  5
4ED
100
AcDbEntity
  8
ASSI
100
AcDbLine
 62
250
  6
CONTINUOUS
 10
-83.5248483672
 20
-23.8443375673
 11
-83.5248483672
 21
-24.2456323968
  0
LINE
  5
4EE
100
AcDbEntity
  8
ASSI
100
AcDbLine
 62
7
  6
CONTINUOUS
 10
-83.2763028
 20
24.2456323968
 11
-83.2763028
 21
23.8443375673
  0
LINE
  5
4EF
100
AcDbEntity
  8
ASSI
100
AcDbLine
 62
7
  6
CONTINUOUS
 10
-83.2763028
 20
-18.5082905244
 11
-83.2763028
 21
-22.3941821702
  0
LINE
  5
4F0
100
AcDbEntity
  8
ASSI
100
AcDbLine
 62
7
  6
CONTINUOUS
 10
-83.2763028
 20
18.5082905244
 11
-83.2763028
 21
22.3941821702
  0
LINE
  5
4F1
100
AcDbEntity
  8
ASSI
100
AcDbLine
 62
7
  6
CONTINUOUS
 10
-83.2763028
 20
-23.8443375673
 11
-83.2763028
 21
-24.2456323968
  0
LINE
  5
4F2
100
AcDbEntity
  8
ASSI
100
AcDbLine
 62
7
  6
CONTINUOUS
 10
-84.2762657811
 20
21.943385786
 11
-84.2763028
 21
21.8997711479
  0
LINE
  5
4F3
100
AcDbEntity
  8
ASSI
100
AcDbLine
 62
7
  6
CONTINUOUS
 10
-84.2762970832
 20
-22.3980938019
 11
-84.2763028
 21
-22.4
  0
LINE
  5
4F4
100
AcDbEntity
  8
CURVE
100
AcDbLine
 62
7
  6
CONTINUOUS
 10
-79.7390092813
 20
11.7071471811
 11
-78.2975496485
 21
13.1486068138
  0
LINE
  5
4F5
100
AcDbEntity
  8
CURVE
100
AcDbLine
 62
7
  6
CONTINUOUS
 10
-77.7859464623
 20
13.66021
 11
-77.285759501
 21
14.1603969613
  0
LINE
  5
4F6
100
AcDbEntity
  8
CURVE
100
AcDbLine
 62
7
  6
CONTINUOUS
 10
-79.4992433972
 20
10.9513067173
 11
-79.1510641662
 21
11.2994859482
  0
LINE
  5
4F7
100
AcDbEntity
  8
CURVE
100
AcDbLine
 62
7
  6
CONTINUOUS
 10
-77.8653073077
 20
12.5852428067
 11
-77.4664693234
 21
12.984080791
  0
LINE
  5
4F8
100
AcDbEntity
  8
CURVE
100
AcDbLine
 62
7
  6
CONTINUOUS
 10
-76.7903401144
 20
13.66021
 11
-76.7769467019
 21
13.6736034125
  0
LINE
  5
4F9
100
AcDbEntity
  8
CURVE
100
AcDbLine
 62
7
  6
CONTINUOUS
 10
-79.6755991559
 20
9.7793446107
 11
-79.3960809796
 21
10.0588627869
  0
LINE
  5
4FA
100
AcDbEntity
  8
CURVE
100
AcDbLine
 62
7
  6
CONTINUOUS
 10
-78.944690612
 20
10.5102531545
 11
-78.5386869463
 21
10.9162568203
  0
LINE
  5
4FB
100
AcDbEntity
  8
CURVE
100
AcDbLine
 62
7
  6
CONTINUOUS
 10
-77.2791297101
 20
12.1758140564
 11
-76.9295512134
 21
12.5253925531
  0
LINE
  5
4FC
100
AcDbEntity
  8
CURVE
100
AcDbLine
 62
250
  6
CONTINUOUS
 10
-73.183093619
 20
15.95
 11
-73.4544808627
 21
15.678571558
  0
LINE
  5
4FD
100
AcDbEntity
  8
CURVE
100
AcDbLine
 62
250
  6
CONTINUOUS
 10
-73.4997120652
 20
13.371428442
 11
-73.409249646
 21
13.4166663647
  0
LINE
  5
4FE
100
AcDbEntity
  8
CURVE
100
AcDbLine
 62
250
  6
CONTINUOUS
 10
-73.2735560312
 20
13.2809525967
 11
-73.3640184434
 21
13.235714674
  0
LINE
  5
4FF
100
AcDbEntity
  8
CURVE
100
AcDbLine
 62
250
  6
CONTINUOUS
 10
-75.0828042398
 20
14.592856884
 11
-73.183093619
 21
15.135714674
  0
LINE
  5
500
100
AcDbEntity
  8
CURVE
100
AcDbLine
 62
250
  6
CONTINUOUS
 10
-79.6836909233
 20
-13.390935
 11
-76.784305581
 21
-13.390935
  0
LINE
  5
501
100
AcDbEntity
  8
IMPORT_IGES
100
AcDbLine
 62
7
  6
CONTINUOUS
 10
-66.0468702935
 20
-13.3
 11
-64.7158308
 21
-13.3
  0
LINE
  5
502
100
AcDbEntity
  8
ASSI
100
AcDbLine
 62
7
  6
CONTINUOUS
 10
-82.2763028
 20
20.85
 11
-82.2763028
 21
-20.85
  0
LWPOLYLINE
  5
503
100
AcDbEntity
  8
0
100
AcDbPolyline
 62
7
  6
CONTINUOUS
 90
3
 70
0
 43
0.3500000019
 10
-68.3834456635
 20
43.5357145996
 10
-68.4548741608
 20
43.3214294434
 10
-68.5977313232
 20
43.0357141113
  0
LINE
  5
504
100
AcDbEntity
  8
CURVE
100
AcDbLine
 62
7
  6
CONTINUOUS
 10
-79.2427226505
 20
9.2166147681
 11
-78.9093091635
 21
9.5500282552
  0
LINE
  5
505
100
AcDbEntity
  8
CURVE
100
AcDbLine
 62
7
  6
CONTINUOUS
 10
-78.0914434752
 20
10.3678939434
 11
-76.7129686691
 21
11.7463687495
  0
LINE
  5
506
100
AcDbEntity
  8
CURVE
100
AcDbLine
 62
7
  6
CONTINUOUS
 10
-79.6098930707
 20
7.853838
 11
-79.0921506873
 21
8.3715803834
  0
LINE
  5
507
100
AcDbEntity
  8
CURVE
100
AcDbLine
 62
7
  6
CONTINUOUS
 10
-78.749107127
 20
8.7146239437
 11
-78.0176387181
 21
9.4460923526
  0
LINE
  5
508
100
AcDbEntity
  8
CURVE
100
AcDbLine
 62
250
  6
CONTINUOUS
 10
-74.8114170244
 20
12.421428442
 11
-75.0828042398
 21
12.15
  0
LINE
  5
509
100
AcDbEntity
  8
CURVE
100
AcDbLine
 62
7
  6
CONTINUOUS
 10
-79.6755991559
 20
6.7925255669
 11
-79.2300177228
 21
7.238107
  0
LINE
  5
50A
100
AcDbEntity
  8
CURVE
100
AcDbLine
 62
7
  6
CONTINUOUS
 10
-78.6142867228
 20
7.853838
 11
-77.9335344254
 21
8.5345902974
  0
LINE
  5
50B
100
AcDbEntity
  8
CURVE
100
AcDbLine
 62
250
  6
CONTINUOUS
 10
-74.8114170244
 20
10.928571558
 11
-75.0828042398
 21
10.657142663
  0
LINE
  5
50C
100
AcDbEntity
  8
CURVE
100
AcDbLine
 62
7
  6
CONTINUOUS
 10
-79.6755991559
 20
5.796919219
 11
-79.3865053749
 21
6.086013
  0
LINE
  5
50D
100
AcDbEntity
  8
CURVE
100
AcDbLine
 62
7
  6
CONTINUOUS
 10
-78.7521803749
 20
6.720338
 11
-78.2344113749
 21
7.238107
  0
LINE
  5
50E
100
AcDbEntity
  8
CURVE
100
AcDbLine
 62
7
  6
CONTINUOUS
 10
-77.6186803749
 20
7.853838
 11
-77.1009366
 21
8.3715817749
  0
LINE
  5
50F
100
AcDbEntity
  8
CURVE
100
AcDbLine
 62
250
  6
CONTINUOUS
 10
-78.4828308479
 20
9.10422
 11
-76.7769467019
 21
10.357884
  0
LINE
  5
510
100
AcDbEntity
  8
CURVE
100
AcDbLine
 62
250
  6
CONTINUOUS
 10
-76.7769467019
 20
9.706581
 11
-78.126770086
 21
8.741819
  0
LINE
  5
511
100
AcDbEntity
  8
CURVE
100
AcDbLine
 62
250
  6
CONTINUOUS
 10
-79.6835169498
 20
-15.342748
 11
-77.6878999382
 21
-14.790021
  0
LINE
  5
512
100
AcDbEntity
  8
ASSI
100
AcDbLine
 62
7
  6
CONTINUOUS
 10
-46.2763028
 20
-11.5274648713
 11
-71.0263313577
 21
-11.7434550984
  0
LINE
  5
513
100
AcDbEntity
  8
IMPORT_IGES
100
AcDbLine
 62
7
  6
CONTINUOUS
 10
-65.0663028
 20
-12.85
 11
-66.2663028
 21
-12.85
  0
LINE
  5
514
100
AcDbEntity
  8
CURVE
100
AcDbLine
 62
250
  6
CONTINUOUS
 10
-76.784305581
 20
-12.785664
 11
-79.6836909233
 21
-12.785664
  0
LINE
  5
515
100
AcDbEntity
  8
ASSI
100
AcDbLine
 62
7
  6
CONTINUOUS
 10
-46.2763028
 20
-13.4725351287
 11
-71.0263313577
 21
-13.2565449016
  0
LINE
  5
516
100
AcDbEntity
  8
CURVE
100
AcDbLine
 62
250
  6
CONTINUOUS
 10
-78.6774362041
 20
-11.750162
 11
-76.784305581
 21
-11.880779
  0
LINE
  5
517
100
AcDbEntity
  8
CURVE
100
AcDbLine
 62
250
  6
CONTINUOUS
 10
-76.784305581
 20
-12.459827
 11
-79.6835169498
 21
-12.198005
  0
LINE
  5
518
100
AcDbEntity
  8
CURVE
100
AcDbLine
 62
250
  6
CONTINUOUS
 10
-76.784305581
 20
-9.424033
 11
-79.6835169498
 21
-8.514517
  0
LINE
  5
519
100
AcDbEntity
  8
CURVE
100
AcDbLine
 62
250
  6
CONTINUOUS
 10
-78.0738661447
 20
-10.994355
 11
-79.6835169498
 21
-10.389084
  0
LINE
  5
51A
100
AcDbEntity
  8
CURVE
100
AcDbLine
 62
250
  6
CONTINUOUS
 10
-78.6695444062
 20
-10.235548
 11
-76.784305581
 21
-10.955216
  0
LINE
  5
51B
100
AcDbEntity
  8
CURVE
100
AcDbLine
 62
250
  6
CONTINUOUS
 10
-79.6836909233
 20
-12.785664
 11
-79.6836909233
 21
-13.390935
  0
LINE
  5
51C
100
AcDbEntity
  8
CURVE
100
AcDbLine
 62
250
  6
CONTINUOUS
 10
-79.6835169498
 20
-16.00026
 11
-79.6835169498
 21
-15.342748
  0
LINE
  5
51D
100
AcDbEntity
  8
CURVE
100
AcDbLine
 62
250
  6
CONTINUOUS
 10
-79.6835169498
 20
-14.22041
 11
-79.6835169498
 21
-13.615552
  0
LINE
  5
51E
100
AcDbEntity
  8
CURVE
100
AcDbLine
 62
250
  6
CONTINUOUS
 10
-79.6835169498
 20
-12.198005
 11
-79.6835169498
 21
-11.593234
  0
LINE
  5
51F
100
AcDbEntity
  8
CURVE
100
AcDbLine
 62
250
  6
CONTINUOUS
 10
-79.6835169498
 20
-10.389084
 11
-79.6835169498
 21
-9.790227
  0
LINE
  5
520
100
AcDbEntity
  8
CURVE
100
AcDbLine
 62
250
  6
CONTINUOUS
 10
-79.6835169498
 20
-8.514517
 11
-79.6835169498
 21
-7.92899
  0
LINE
  5
521
100
AcDbEntity
  8
CURVE
100
AcDbLine
 62
250
  6
CONTINUOUS
 10
-79.6755991559
 20
4.037094
 11
-79.6755991559
 21
6.086013
  0
LINE
  5
522
100
AcDbEntity
  8
CURVE
100
AcDbLine
 62
250
  6
CONTINUOUS
 10
-79.6755991559
 20
6.720338
 11
-79.6755991559
 21
7.238107
  0
LINE
  5
523
100
AcDbEntity
  8
CURVE
100
AcDbLine
 62
250
  6
CONTINUOUS
 10
-79.6755991559
 20
7.853838
 11
-79.6755991559
 21
8.371585
  0
LINE
  5
524
100
AcDbEntity
  8
CURVE
100
AcDbLine
 62
250
  6
CONTINUOUS
 10
-79.6755991559
 20
9.656836
 11
-79.6755991559
 21
10.35105
  0
LINE
  5
525
100
AcDbEntity
  8
CURVE
100
AcDbLine
 62
250
  6
CONTINUOUS
 10
-79.6755991559
 20
13.66021
 11
-79.6755991559
 21
14.166101
  0
LINE
  5
526
100
AcDbEntity
  8
CURVE
100
AcDbLine
 62
250
  6
CONTINUOUS
 10
-79.6755991559
 20
15.503009
 11
-79.6755991559
 21
16.001437
  0
LINE
  5
527
100
AcDbEntity
  8
CURVE
100
AcDbLine
 62
250
  6
CONTINUOUS
 10
-79.2155492344
 20
6.086013
 11
-79.2155552334
 21
4.554832
  0
LINE
  5
528
100
AcDbEntity
  8
CURVE
100
AcDbLine
 62
7
  6
CONTINUOUS
 10
-79.6755991559
 20
4.8013128711
 11
-79.2155524653
 21
5.2613595617
  0
LINE
  5
529
100
AcDbEntity
  8
CURVE
100
AcDbLine
 62
7
  6
CONTINUOUS
 10
-77.756574027
 20
6.720338
 11
-77.238805027
 21
7.238107
  0
LINE
  5
52A
100
AcDbEntity
  8
CURVE
100
AcDbLine
 62
250
  6
CONTINUOUS
 10
-74.2686425937
 20
9.978571558
 11
-73.9972553217
 21
10.25
  0
LINE
  5
52B
100
AcDbEntity
  8
CURVE
100
AcDbLine
 62
250
  6
CONTINUOUS
 10
-74.8114170244
 20
9.435714221
 11
-75.0828042398
 21
9.164285779
  0
LINE
  5
52C
100
AcDbEntity
  8
CURVE
100
AcDbLine
 62
7
  6
CONTINUOUS
 10
-79.4442116791
 20
4.037094
 11
-78.9264736791
 21
4.554832
  0
LINE
  5
52D
100
AcDbEntity
  8
CURVE
100
AcDbLine
 62
7
  6
CONTINUOUS
 10
-78.4947920014
 20
4.9865136776
 11
-78.0347213554
 21
5.4465843236
  0
LINE
  5
52E
100
AcDbEntity
  8
CURVE
100
AcDbLine
 62
250
  6
CONTINUOUS
 10
-75.0828042398
 20
7.535714221
 11
-74.8114170244
 21
7.8071428895
  0
LINE
  5
52F
100
AcDbEntity
  8
CURVE
100
AcDbLine
 62
7
  6
CONTINUOUS
 10
-78.4486053311
 20
4.037094
 11
-77.9308673311
 21
4.554832
  0
LINE
  5
530
100
AcDbEntity
  8
CURVE
100
AcDbLine
 62
7
  6
CONTINUOUS
 10
-77.2369878206
 20
5.2487115105
 11
-76.7769467019
 21
5.7087526292
  0
LINE
  5
531
100
AcDbEntity
  8
CURVE
100
AcDbLine
 62
250
  6
CONTINUOUS
 10
-74.8114170244
 20
7.8071428895
 11
-74.5400298091
 21
7.9428571105
  0
LINE
  5
532
100
AcDbEntity
  8
CURVE
100
AcDbLine
 62
250
  6
CONTINUOUS
 10
-79.6835169498
 20
-9.790227
 11
-76.784305581
 21
-9.519077
  0
LINE
  5
533
100
AcDbEntity
  8
CURVE
100
AcDbLine
 62
250
  6
CONTINUOUS
 10
-76.784305581
 20
-10.111193
 11
-78.6695444062
 21
-10.235548
  0
LINE
  5
534
100
AcDbEntity
  8
ASSI
100
AcDbLine
 62
250
  6
CONTINUOUS
 10
-92.1948611148
 20
-9.4905
 11
-92.6860446518
 21
-9.5
  0
LINE
  5
535
100
AcDbEntity
  8
CURVE
100
AcDbLine
 62
250
  6
CONTINUOUS
 10
-78.8868872988
 20
-8.233126
 11
-77.8109531937
 21
-8.5345
  0
LINE
  5
536
100
AcDbEntity
  8
CURVE
100
AcDbLine
 62
250
  6
CONTINUOUS
 10
-77.3630914156
 20
-8.658312
 11
-76.784305581
 21
-8.825329
  0
LINE
  5
537
100
AcDbEntity
  8
CURVE
100
AcDbLine
 62
250
  6
CONTINUOUS
 10
-78.4947950254
 20
4.554832
 11
-78.494785027
 21
5.982127
  0
LINE
  5
538
100
AcDbEntity
  8
CURVE
100
AcDbLine
 62
250
  6
CONTINUOUS
 10
-78.3937173236
 20
-5.9328946758
 11
-78.3937173236
 21
-6.2788012718
  0
LINE
  5
539
100
AcDbEntity
  8
CURVE
100
AcDbLine
 62
250
  6
CONTINUOUS
 10
-78.034725107
 20
5.982127
 11
-78.0347151085
 21
4.554832
  0
LINE
  5
53A
100
AcDbEntity
  8
CURVE
100
AcDbLine
 62
250
  6
CONTINUOUS
 10
-77.9188965129
 20
-6.2587313832
 11
-77.9188965129
 21
-5.9341993273
  0
LINE
  5
53B
100
AcDbEntity
  8
CURVE
100
AcDbLine
 62
250
  6
CONTINUOUS
 10
-77.8109531937
 20
-8.5345
 11
-77.8109531937
 21
-7.954996
  0
LINE
  5
53C
100
AcDbEntity
  8
CURVE
100
AcDbLine
 62
250
  6
CONTINUOUS
 10
-77.3630914156
 20
-7.834033
 11
-77.3630914156
 21
-8.658312
  0
LINE
  5
53D
100
AcDbEntity
  8
CURVE
100
AcDbLine
 62
250
  6
CONTINUOUS
 10
-77.2369806258
 20
4.554832
 11
-77.2369966234
 21
6.097666
  0
LINE
  5
53E
100
AcDbEntity
  8
CURVE
100
AcDbLine
 62
250
  6
CONTINUOUS
 10
-76.784305581
 20
-13.390935
 11
-76.784305581
 21
-12.785664
  0
LINE
  5
53F
100
AcDbEntity
  8
CURVE
100
AcDbLine
 62
250
  6
CONTINUOUS
 10
-76.784305581
 20
-7.039304
 11
-76.784305581
 21
-7.677235
  0
LINE
  5
540
100
AcDbEntity
  8
CURVE
100
AcDbLine
 62
250
  6
CONTINUOUS
 10
-76.784305581
 20
-8.825329
 11
-76.784305581
 21
-9.424033
  0
LINE
  5
541
100
AcDbEntity
  8
CURVE
100
AcDbLine
 62
250
  6
CONTINUOUS
 10
-76.784305581
 20
-9.519077
 11
-76.784305581
 21
-10.111193
  0
LINE
  5
542
100
AcDbEntity
  8
CURVE
100
AcDbLine
 62
250
  6
CONTINUOUS
 10
-76.784305581
 20
-10.955216
 11
-76.784305581
 21
-11.040105
  0
LINE
  5
543
100
AcDbEntity
  8
CURVE
100
AcDbLine
 62
250
  6
CONTINUOUS
 10
-76.784305581
 20
-11.880779
 11
-76.784305581
 21
-12.459827
  0
LINE
  5
544
100
AcDbEntity
  8
CURVE
100
AcDbLine
 62
250
  6
CONTINUOUS
 10
-76.784305581
 20
-14.547617
 11
-76.784305581
 21
-15.081013
  0
LINE
  5
545
100
AcDbEntity
  8
CURVE
100
AcDbLine
 62
250
  6
CONTINUOUS
 10
-76.7843052287
 20
-6.8615673444
 11
-76.7843052287
 21
-6.2587313832
  0
LINE
  5
546
100
AcDbEntity
  8
CURVE
100
AcDbLine
 62
250
  6
CONTINUOUS
 10
-76.7843052287
 20
-5.3318417383
 11
-76.7843052287
 21
-4.7496410148
  0
LINE
  5
547
100
AcDbEntity
  8
CURVE
100
AcDbLine
 62
250
  6
CONTINUOUS
 10
-76.7769467019
 20
16.001437
 11
-76.7769467019
 21
15.484078
  0
LINE
  5
548
100
AcDbEntity
  8
CURVE
100
AcDbLine
 62
250
  6
CONTINUOUS
 10
-76.7769467019
 20
14.158632
 11
-76.7769467019
 21
13.66021
  0
LINE
  5
549
100
AcDbEntity
  8
CURVE
100
AcDbLine
 62
250
  6
CONTINUOUS
 10
-76.7769467019
 20
10.357884
 11
-76.7769467019
 21
9.706581
  0
LINE
  5
54A
100
AcDbEntity
  8
CURVE
100
AcDbLine
 62
250
  6
CONTINUOUS
 10
-76.7769467019
 20
8.371585
 11
-76.7769467019
 21
7.853838
  0
LINE
  5
54B
100
AcDbEntity
  8
CURVE
100
AcDbLine
 62
250
  6
CONTINUOUS
 10
-76.7769467019
 20
7.238107
 11
-76.7769467019
 21
6.720338
  0
LINE
  5
54C
100
AcDbEntity
  8
CURVE
100
AcDbLine
 62
250
  6
CONTINUOUS
 10
-76.7769467019
 20
6.097666
 11
-76.7769467019
 21
4.037094
  0
LINE
  5
54D
100
AcDbEntity
  8
ASSI
100
AcDbLine
 62
7
  6
CONTINUOUS
 10
-76.7763028
 20
-23.4413184673
 11
-76.7763028
 21
-22.8586815327
  0
LINE
  5
54E
100
AcDbEntity
  8
ASSI
100
AcDbLine
 62
7
  6
CONTINUOUS
 10
-76.7763028
 20
22.8586815327
 11
-76.7763028
 21
23.4413184673
  0
LINE
  5
54F
100
AcDbEntity
  8
ASSI
100
AcDbLine
 62
250
  6
CONTINUOUS
 10
-76.7267098292
 20
23.9538922731
 11
-76.7267098292
 21
22.356077753
  0
LINE
  5
550
100
AcDbEntity
  8
ASSI
100
AcDbLine
 62
250
  6
CONTINUOUS
 10
-76.7267098292
 20
-22.356077753
 11
-76.7267098292
 21
-23.9538922731
  0
LINE
  5
551
100
AcDbEntity
  8
ASSI
100
AcDbLine
 62
7
  6
CONTINUOUS
 10
-76.2763028
 20
23.4563578147
 11
-76.2763028
 21
22.3534573615
  0
LINE
  5
552
100
AcDbEntity
  8
ASSI
100
AcDbLine
 62
7
  6
CONTINUOUS
 10
-76.2763028
 20
-22.3534573615
 11
-76.2763028
 21
-23.4563578147
  0
LINE
  5
553
100
AcDbEntity
  8
CURVE
100
AcDbLine
 62
7
  6
CONTINUOUS
 10
-77.4529989832
 20
4.037094
 11
-76.7769467019
 21
4.7131462813
  0
LINE
  5
554
100
AcDbEntity
  8
CURVE
100
AcDbLine
 62
250
  6
CONTINUOUS
 10
-74.8114170244
 20
6.45
 11
-75.0828042398
 21
6.1785714447
  0
LINE
  5
555
100
AcDbEntity
  8
CURVE
100
AcDbLine
 62
250
  6
CONTINUOUS
 10
-73.183093619
 20
7.4
 11
-73.4544808627
 21
7.1285714447
  0
LINE
  5
556
100
AcDbEntity
  8
CURVE
100
AcDbLine
 62
250
  6
CONTINUOUS
 10
-73.4544808627
 20
7.1285714447
 11
-73.7258681063
 21
6.9928571105
  0
LINE
  5
557
100
AcDbEntity
  8
ASSI
100
AcDbLine
 62
7
  6
CONTINUOUS
 10
-46.2763028
 20
-6.5274648713
 11
-71.0263313577
 21
-6.7434550984
  0
LINE
  5
558
100
AcDbEntity
  8
CURVE
100
AcDbLine
 62
250
  6
CONTINUOUS
 10
-79.6496444568
 20
-6.8615673444
 11
-76.7843052287
 21
-6.8615673444
  0
LINE
  5
559
100
AcDbEntity
  8
ASSI
100
AcDbLine
 62
7
  6
CONTINUOUS
 10
-46.2763028
 20
-8.4725351287
 11
-71.0263313577
 21
-8.2565449016
  0
LINE
  5
55A
100
AcDbEntity
  8
CURVE
100
AcDbLine
 62
250
  6
CONTINUOUS
 10
-75.0828042398
 20
12.15
 11
-75.0828042398
 21
11.742857337
  0
LINE
  5
55B
100
AcDbEntity
  8
CURVE
100
AcDbLine
 62
250
  6
CONTINUOUS
 10
-75.0828042398
 20
10.657142663
 11
-75.0828042398
 21
10.25
  0
LINE
  5
55C
100
AcDbEntity
  8
CURVE
100
AcDbLine
 62
250
  6
CONTINUOUS
 10
-75.0828042398
 20
9.164285779
 11
-75.0828042398
 21
8.7571428895
  0
LINE
  5
55D
100
AcDbEntity
  8
CURVE
100
AcDbLine
 62
250
  6
CONTINUOUS
 10
-75.0828042398
 20
6.1785714447
 11
-75.0828042398
 21
5.7714285836
  0
LINE
  5
55E
100
AcDbEntity
  8
CURVE
100
AcDbLine
 62
250
  6
CONTINUOUS
 10
-75.0828042398
 20
7.4
 11
-75.0828042398
 21
7.535714221
  0
LINE
  5
55F
100
AcDbEntity
  8
CURVE
100
AcDbLine
 62
250
  6
CONTINUOUS
 10
-75.0828042398
 20
15.95
 11
-75.0828042398
 21
16.492856884
  0
LINE
  5
560
100
AcDbEntity
  8
CURVE
100
AcDbLine
 62
250
  6
CONTINUOUS
 10
-76.784305581
 20
-7.677235
 11
-77.3630914156
 21
-7.834033
  0
LINE
  5
561
100
AcDbEntity
  8
CURVE
100
AcDbLine
 62
250
  6
CONTINUOUS
 10
-77.8109531937
 20
-7.954996
 11
-78.8868872988
 21
-8.233126
  0
LINE
  5
562
100
AcDbEntity
  8
CURVE
100
AcDbLine
 62
250
  6
CONTINUOUS
 10
-78.3937173236
 20
-6.2788012718
 11
-79.1896074443
 21
-6.2788012718
  0
LINE
  5
563
100
AcDbEntity
  8
CURVE
100
AcDbLine
 62
250
  6
CONTINUOUS
 10
-76.7843052287
 20
-6.2587313832
 11
-77.9188965129
 21
-6.2587313832
  0
LINE
  5
564
100
AcDbEntity
  8
CURVE
100
AcDbLine
 62
250
  6
CONTINUOUS
 10
-78.1376315027
 20
-5.30544429
 11
-78.1547633158
 21
-5.30544429
  0
LINE
  5
565
100
AcDbEntity
  8
CURVE
100
AcDbLine
 62
250
  6
CONTINUOUS
 10
-73.9972553217
 20
10.25
 11
-73.9972553217
 21
10.8380952597
  0
LINE
  5
566
100
AcDbEntity
  8
CURVE
100
AcDbLine
 62
250
  6
CONTINUOUS
 10
-73.7258681063
 20
14.2309525967
 11
-73.7258681063
 21
14.9547620773
  0
LINE
  5
567
100
AcDbEntity
  8
CURVE
100
AcDbLine
 62
250
  6
CONTINUOUS
 10
-73.4997120652
 20
13.2809525967
 11
-73.4997120652
 21
13.371428442
  0
LINE
  5
568
100
AcDbEntity
  8
CURVE
100
AcDbLine
 62
250
  6
CONTINUOUS
 10
-73.2735560312
 20
13.371428442
 11
-73.2735560312
 21
13.2809525967
  0
LINE
  5
569
100
AcDbEntity
  8
CURVE
100
AcDbLine
 62
250
  6
CONTINUOUS
 10
-73.183093619
 20
16.492856884
 11
-73.183093619
 21
15.95
  0
LINE
  5
56A
100
AcDbEntity
  8
CURVE
100
AcDbLine
 62
250
  6
CONTINUOUS
 10
-73.183093619
 20
12.421428442
 11
-73.183093619
 21
11.471428442
  0
LINE
  5
56B
100
AcDbEntity
  8
CURVE
100
AcDbLine
 62
250
  6
CONTINUOUS
 10
-73.183093619
 20
9.435714221
 11
-73.183093619
 21
8.485714221
  0
LINE
  5
56C
100
AcDbEntity
  8
CURVE
100
AcDbLine
 62
250
  6
CONTINUOUS
 10
-73.183093619
 20
7.535714221
 11
-73.183093619
 21
7.4
  0
LINE
  5
56D
100
AcDbEntity
  8
CURVE
100
AcDbLine
 62
250
  6
CONTINUOUS
 10
-73.183093619
 20
6.45
 11
-73.183093619
 21
5.5
  0
LWPOLYLINE
  5
56E
100
AcDbEntity
  8
0
100
AcDbPolyline
 62
7
  6
CONTINUOUS
 90
2
 70
0
 43
0.3500000019
 10
-72.8120170288
 20
43.2499992676
 10
-72.8120170288
 20
44.7500007324
  0
LINE
  5
56F
100
AcDbEntity
  8
ASSI
100
AcDbLine
 62
250
  6
CONTINUOUS
 10
-72.7675765968
 20
-21.4537354271
 11
-72.7675765968
 21
-20.9
  0
LINE
  5
570
100
AcDbEntity
  8
ASSI
100
AcDbLine
 62
250
  6
CONTINUOUS
 10
-72.7675765968
 20
20.9
 11
-72.7675765968
 21
21.4537354271
  0
LINE
  5
571
100
AcDbEntity
  8
CURVE
100
AcDbLine
 62
250
  6
CONTINUOUS
 10
-72.7263028
 20
-3.29
 11
-72.7263028
 21
-2.290000718
  0
LINE
  5
572
100
AcDbEntity
  8
ASSI
100
AcDbLine
 62
7
  6
CONTINUOUS
 10
-72.2763028
 20
-19.3181305591
 11
-72.2763028
 21
-21.3359869487
  0
LINE
  5
573
100
AcDbEntity
  8
ASSI
100
AcDbLine
 62
7
  6
CONTINUOUS
 10
-72.2763028
 20
19.3181305591
 11
-72.2763028
 21
21.3359869487
  0
LINE
  5
574
100
AcDbEntity
  8
ASSI
100
AcDbLine
 62
7
  6
CONTINUOUS
 10
-46.2763028
 20
-3.4725351287
 11
-71.0263313577
 21
-3.2565449016
  0
LINE
  5
575
100
AcDbEntity
  8
CURVE
100
AcDbLine
 62
250
  6
CONTINUOUS
 10
-76.3099135666
 20
-1.6724560012
 11
-75.1371428874
 21
-2.2018127306
  0
LINE
  5
576
100
AcDbEntity
  8
CURVE
100
AcDbLine
 62
250
  6
CONTINUOUS
 10
-73.9751685703
 20
-2.7262962353
 11
-72.7263028
 21
-3.29
  0
LINE
  5
577
100
AcDbEntity
  8
CURVE
100
AcDbLine
 62
250
  6
CONTINUOUS
 10
-74.198026924
 20
-1.5803314832
 11
-74.6681645624
 21
-1.3536291216
  0
LINE
  5
578
100
AcDbEntity
  8
CURVE
100
AcDbLine
 62
250
  6
CONTINUOUS
 10
-72.7263028
 20
-2.290000718
 11
-73.2778442597
 21
-2.0240457986
  0
LINE
  5
579
100
AcDbEntity
  8
ASSI
100
AcDbLine
 62
7
  6
CONTINUOUS
 10
-46.2763028
 20
-1.5274648713
 11
-71.0263313577
 21
-1.7434550984
  0
LINE
  5
57A
100
AcDbEntity
  8
CURVE
100
AcDbLine
 62
250
  6
CONTINUOUS
 10
-72.7263028
 20
-0.2900000008
 11
-73.7261508537
 21
-0.2900000008
  0
LINE
  5
57B
100
AcDbEntity
  8
CURVE
100
AcDbLine
 62
250
  6
CONTINUOUS
 10
-77.7255419922
 20
-0.2900000008
 11
-78.7253889694
 21
-0.2900000008
  0
LINE
  5
57C
100
AcDbEntity
  8
CURVE
100
AcDbLine
 62
250
  6
CONTINUOUS
 10
-78.4117816707
 20
8.371575
 11
-79.6755991559
 21
9.656836
  0
LINE
  5
57D
100
AcDbEntity
  8
CURVE
100
AcDbLine
 62
250
  6
CONTINUOUS
 10
-79.6755991559
 20
10.35105
 11
-78.4828308479
 21
9.10422
  0
LINE
  5
57E
100
AcDbEntity
  8
CURVE
100
AcDbLine
 62
250
  6
CONTINUOUS
 10
-78.126770086
 20
8.741819
 11
-77.7815266762
 21
8.371575
  0
LINE
  5
57F
100
AcDbEntity
  8
IMPORT_IGES
100
AcDbLine
 62
7
  6
CONTINUOUS
 10
-68.6763028001
 20
13.2770532902
 11
-68.6763028001
 21
12.8
  0
LINE
  5
580
100
AcDbEntity
  8
IMPORT_IGES
100
AcDbLine
 62
250
  6
CONTINUOUS
 10
-56.6763027998
 20
2.5
 11
-48.1763028002
 21
2.5
  0
LINE
  5
581
100
AcDbEntity
  8
ASSI
100
AcDbLine
 62
7
  6
CONTINUOUS
 10
-46.2763028
 20
1.5274648713
 11
-71.0263313577
 21
1.7434550984
  0
LINE
  5
582
100
AcDbEntity
  8
CURVE
100
AcDbLine
 62
250
  6
CONTINUOUS
 10
-75.0828042398
 20
5.7714285836
 11
-74.6757233601
 21
5.5
  0
LINE
  5
583
100
AcDbEntity
  8
CURVE
100
AcDbLine
 62
250
  6
CONTINUOUS
 10
-73.183093619
 20
5.5
 11
-74.5400298091
 21
6.45
  0
LINE
  5
584
100
AcDbEntity
  8
CURVE
100
AcDbLine
 62
250
  6
CONTINUOUS
 10
-74.8114170244
 20
7.1285714447
 11
-75.0828042398
 21
7.4
  0
LINE
  5
585
100
AcDbEntity
  8
IMPORT_IGES
100
AcDbLine
 62
7
  6
CONTINUOUS
 10
-66.2663028
 20
-12.85
 11
-66.2663028
 21
-13.3
  0
LINE
  5
586
100
AcDbEntity
  8
IMPORT_IGES
100
AcDbLine
 62
7
  6
CONTINUOUS
 10
-65.0663028
 20
-12.85
 11
-65.0663028
 21
-13.3
  0
LINE
  5
587
100
AcDbEntity
  8
CURVE
100
AcDbLine
 62
250
  6
CONTINUOUS
 10
-79.6835169498
 20
-7.92899
 11
-76.784305581
 21
-7.039304
  0
LINE
  5
588
100
AcDbEntity
  8
ASSI
100
AcDbLine
 62
7
  6
CONTINUOUS
 10
-46.2763028
 20
3.4725351287
 11
-71.0263313577
 21
3.2565449016
  0
LINE
  5
589
100
AcDbEntity
  8
CURVE
100
AcDbLine
 62
250
  6
CONTINUOUS
 10
-76.7769467019
 20
4.037094
 11
-79.6755991559
 21
4.037094
  0
LINE
  5
58A
100
AcDbEntity
  8
CURVE
100
AcDbLine
 62
250
  6
CONTINUOUS
 10
-79.2155552334
 20
4.554832
 11
-78.4947950254
 21
4.554832
  0
LINE
  5
58B
100
AcDbEntity
  8
CURVE
100
AcDbLine
 62
250
  6
CONTINUOUS
 10
-78.0347151085
 20
4.554832
 11
-77.2369806258
 21
4.554832
  0
LINE
  5
58C
100
AcDbEntity
  8
ASSI
100
AcDbLine
 62
7
  6
CONTINUOUS
 10
-47.7763028
 20
3.0
 11
-48.3163577314
 21
3.0094266939
  0
LINE
  5
58D
100
AcDbEntity
  8
CURVE
100
AcDbLine
 62
250
  6
CONTINUOUS
 10
-74.5400298091
 20
6.9928571105
 11
-74.8114170244
 21
7.1285714447
  0
LINE
  5
58E
100
AcDbEntity
  8
CURVE
100
AcDbLine
 62
250
  6
CONTINUOUS
 10
-75.0828042398
 20
8.7571428895
 11
-74.6757233601
 21
8.485714221
  0
LINE
  5
58F
100
AcDbEntity
  8
CURVE
100
AcDbLine
 62
250
  6
CONTINUOUS
 10
-73.4544808627
 20
7.8071428895
 11
-73.183093619
 21
7.535714221
  0
LINE
  5
590
100
AcDbEntity
  8
CURVE
100
AcDbLine
 62
250
  6
CONTINUOUS
 10
-75.0828042398
 20
10.25
 11
-74.8114170244
 21
9.978571558
  0
LINE
  5
591
100
AcDbEntity
  8
IMPORT_IGES
100
AcDbLine
 62
7
  6
CONTINUOUS
 10
-64.7158308
 20
-13.3
 11
-64.7158308
 21
-13.3116158057
  0
LINE
  5
592
100
AcDbEntity
  8
ASSI
100
AcDbLine
 62
7
  6
CONTINUOUS
 10
-46.2763028
 20
5.4
 11
-53.0263028
 21
5.4
  0
LINE
  5
593
100
AcDbEntity
  8
CURVE
100
AcDbLine
 62
250
  6
CONTINUOUS
 10
-78.494785027
 20
5.982127
 11
-78.034725107
 21
5.982127
  0
LINE
  5
594
100
AcDbEntity
  8
CURVE
100
AcDbLine
 62
250
  6
CONTINUOUS
 10
-79.6755991559
 20
6.086013
 11
-79.2155492344
 21
6.086013
  0
LINE
  5
595
100
AcDbEntity
  8
CURVE
100
AcDbLine
 62
250
  6
CONTINUOUS
 10
-77.2369966234
 20
6.097666
 11
-76.7769467019
 21
6.097666
  0
LINE
  5
596
100
AcDbEntity
  8
CURVE
100
AcDbLine
 62
250
  6
CONTINUOUS
 10
-74.5400298091
 20
6.45
 11
-74.8114170244
 21
6.45
  0
LINE
  5
597
100
AcDbEntity
  8
CURVE
100
AcDbLine
 62
250
  6
CONTINUOUS
 10
-76.7769467019
 20
6.720338
 11
-79.6755991559
 21
6.720338
  0
LINE
  5
598
100
AcDbEntity
  8
CURVE
100
AcDbLine
 62
250
  6
CONTINUOUS
 10
-73.7258681063
 20
6.9928571105
 11
-74.5400298091
 21
6.9928571105
  0
LINE
  5
599
100
AcDbEntity
  8
ASSI
100
AcDbLine
 62
7
  6
CONTINUOUS
 10
-54.9250618565
 20
6.6029414482
 11
-71.0263313577
 21
6.7434550984
  0
LINE
  5
59A
100
AcDbEntity
  8
CURVE
100
AcDbLine
 62
250
  6
CONTINUOUS
 10
-73.7258681063
 20
7.9428571105
 11
-73.4544808627
 21
7.8071428895
  0
LINE
  5
59B
100
AcDbEntity
  8
CURVE
100
AcDbLine
 62
250
  6
CONTINUOUS
 10
-75.0828042398
 20
11.742857337
 11
-74.6757233601
 21
11.471428442
  0
LINE
  5
59C
100
AcDbEntity
  8
CURVE
100
AcDbLine
 62
250
  6
CONTINUOUS
 10
-73.183093619
 20
8.485714221
 11
-74.5400298091
 21
9.435714221
  0
LINE
  5
59D
100
AcDbEntity
  8
CURVE
100
AcDbLine
 62
250
  6
CONTINUOUS
 10
-73.183093619
 20
10.25
 11
-73.7258681063
 21
10.792857337
  0
LINE
  5
59E
100
AcDbEntity
  8
CURVE
100
AcDbLine
 62
250
  6
CONTINUOUS
 10
-76.784305581
 20
-11.040105
 11
-78.6774362041
 21
-11.750162
  0
LINE
  5
59F
100
AcDbEntity
  8
CURVE
100
AcDbLine
 62
250
  6
CONTINUOUS
 10
-79.6835169498
 20
-11.593234
 11
-78.0738661447
 21
-10.994355
  0
LINE
  5
5A0
100
AcDbEntity
  8
ASSI
100
AcDbLine
 62
7
  6
CONTINUOUS
 10
-54.9250618565
 20
8.3970585518
 11
-71.0263313577
 21
8.2565449016
  0
LINE
  5
5A1
100
AcDbEntity
  8
CURVE
100
AcDbLine
 62
250
  6
CONTINUOUS
 10
-79.6755991559
 20
7.238107
 11
-76.7769467019
 21
7.238107
  0
LINE
  5
5A2
100
AcDbEntity
  8
CURVE
100
AcDbLine
 62
250
  6
CONTINUOUS
 10
-76.7769467019
 20
7.853838
 11
-79.6755991559
 21
7.853838
  0
LINE
  5
5A3
100
AcDbEntity
  8
CURVE
100
AcDbLine
 62
250
  6
CONTINUOUS
 10
-74.5400298091
 20
7.9428571105
 11
-73.7258681063
 21
7.9428571105
  0
LINE
  5
5A4
100
AcDbEntity
  8
CURVE
100
AcDbLine
 62
250
  6
CONTINUOUS
 10
-79.6755991559
 20
8.371585
 11
-78.4117816707
 21
8.371575
  0
LINE
  5
5A5
100
AcDbEntity
  8
CURVE
100
AcDbLine
 62
250
  6
CONTINUOUS
 10
-77.7815266762
 20
8.371575
 11
-76.7769467019
 21
8.371585
  0
LINE
  5
5A6
100
AcDbEntity
  8
ASSI
100
AcDbLine
 62
250
  6
CONTINUOUS
 10
-92.1948611148
 20
9.4905
 11
-92.6860446533
 21
9.5
  0
LINE
  5
5A7
100
AcDbEntity
  8
CURVE
100
AcDbLine
 62
250
  6
CONTINUOUS
 10
-73.183093619
 20
11.471428442
 11
-74.5400298091
 21
12.421428442
  0
LINE
  5
5A8
100
AcDbEntity
  8
CURVE
100
AcDbLine
 62
250
  6
CONTINUOUS
 10
-74.8114170244
 20
15.678571558
 11
-75.0828042398
 21
15.95
  0
LINE
  5
5A9
100
AcDbEntity
  8
CURVE
100
AcDbLine
 62
250
  6
CONTINUOUS
 10
-74.5400298091
 20
9.435714221
 11
-74.8114170244
 21
9.435714221
  0
LINE
  5
5AA
100
AcDbEntity
  8
ASSI
100
AcDbLine
 62
7
  6
CONTINUOUS
 10
-46.2763028
 20
9.6
 11
-53.0263028
 21
9.6
  0
LINE
  5
5AB
100
AcDbEntity
  8
CURVE
100
AcDbLine
 62
250
  6
CONTINUOUS
 10
-74.8114170244
 20
9.978571558
 11
-74.2686425937
 21
9.978571558
  0
LINE
  5
5AC
100
AcDbEntity
  8
ASSI
100
AcDbLine
 62
7
  6
CONTINUOUS
 10
-46.2763028
 20
10.4
 11
-53.0763028
 21
10.4
  0
LINE
  5
5AD
100
AcDbEntity
  8
CURVE
100
AcDbLine
 62
250
  6
CONTINUOUS
 10
-74.2686425937
 20
10.928571558
 11
-74.8114170244
 21
10.928571558
  0
LINE
  5
5AE
100
AcDbEntity
  8
CURVE
100
AcDbLine
 62
250
  6
CONTINUOUS
 10
-73.7258681063
 20
10.792857337
 11
-74.2686425937
 21
10.928571558
  0
LINE
  5
5AF
100
AcDbEntity
  8
CURVE
100
AcDbLine
 62
250
  6
CONTINUOUS
 10
-73.409249646
 20
13.235714674
 11
-73.4997120652
 21
13.2809525967
  0
LINE
  5
5B0
100
AcDbEntity
  8
CURVE
100
AcDbLine
 62
250
  6
CONTINUOUS
 10
-73.3640184434
 20
13.4166663647
 11
-73.2735560312
 21
13.371428442
  0
LINE
  5
5B1
100
AcDbEntity
  8
IMPORT_IGES
100
AcDbLine
 62
7
  6
CONTINUOUS
 10
-56.6763027998
 20
2.5
 11
-56.6763027998
 21
1.6182242964
  0
LINE
  5
5B2
100
AcDbEntity
  8
ASSI
100
AcDbLine
 62
7
  6
CONTINUOUS
 10
-85.7763028
 20
-23.1226497308
 11
-86.6513028
 21
-23.6278312164
  0
LINE
  5
5B3
100
AcDbEntity
  8
ASSI
100
AcDbLine
 62
250
  6
CONTINUOUS
 10
-85.5277572328
 20
-23.2669872981
 11
-86.5277572328
 21
-23.8443375673
  0
LINE
  5
5B4
100
AcDbEntity
  8
CURVE
100
AcDbLine
 62
250
  6
CONTINUOUS
 10
-76.784305581
 20
-15.081013
 11
-79.6835169498
 21
-16.00026
  0
LINE
  5
5B5
100
AcDbEntity
  8
ASSI
100
AcDbLine
 62
7
  6
CONTINUOUS
 10
-54.975268796
 20
13.3966204025
 11
-71.0263313577
 21
13.2565449016
  0
LINE
  5
5B6
100
AcDbEntity
  8
IMPORT_IGES
100
AcDbLine
 62
7
  6
CONTINUOUS
 10
-71.7493174267
 20
12.3
 11
-69.1763028
 21
12.3
  0
LINE
  5
5B7
100
AcDbEntity
  8
CURVE
100
AcDbLine
 62
250
  6
CONTINUOUS
 10
-74.5400298091
 20
12.421428442
 11
-74.8114170244
 21
12.421428442
  0
LINE
  5
5B8
100
AcDbEntity
  8
IMPORT_IGES
100
AcDbLine
 62
250
  6
CONTINUOUS
 10
-68.6763028001
 20
12.8
 11
-71.7141974989
 21
12.8
  0
LINE
  5
5B9
100
AcDbEntity
  8
CURVE
100
AcDbLine
 62
250
  6
CONTINUOUS
 10
-73.3640184434
 20
13.235714674
 11
-73.409249646
 21
13.235714674
  0
LINE
  5
5BA
100
AcDbEntity
  8
CURVE
100
AcDbLine
 62
250
  6
CONTINUOUS
 10
-73.409249646
 20
13.4166663647
 11
-73.3640184434
 21
13.4166663647
  0
LINE
  5
5BB
100
AcDbEntity
  8
CURVE
100
AcDbLine
 62
250
  6
CONTINUOUS
 10
-76.7769467019
 20
13.66021
 11
-79.6755991559
 21
13.66021
  0
LINE
  5
5BC
100
AcDbEntity
  8
ASSI
100
AcDbLine
 62
7
  6
CONTINUOUS
 10
-54.975268796
 20
11.6033795975
 11
-71.0263313577
 21
11.7434550984
  0
LINE
  5
5BD
100
AcDbEntity
  8
CURVE
100
AcDbLine
 62
250
  6
CONTINUOUS
 10
-73.183093619
 20
14.05
 11
-75.0828042398
 21
14.592856884
  0
LINE
  5
5BE
100
AcDbEntity
  8
ASSI
100
AcDbLine
 62
7
  6
CONTINUOUS
 10
-86.6513028
 20
23.6278312164
 11
-85.7763028
 21
23.1226497308
  0
LINE
  5
5BF
100
AcDbEntity
  8
ASSI
100
AcDbLine
 62
250
  6
CONTINUOUS
 10
-86.5277572328
 20
23.8443375673
 11
-85.5277572328
 21
23.2669872981
  0
LINE
  5
5C0
100
AcDbEntity
  8
ASSI
100
AcDbLine
 62
7
  6
CONTINUOUS
 10
-46.2763028
 20
14.6
 11
-53.0763028
 21
14.6
  0
LINE
  5
5C1
100
AcDbEntity
  8
CURVE
100
AcDbLine
 62
250
  6
CONTINUOUS
 10
-77.6283370113
 20
15.502999
 11
-79.6755991559
 21
15.503009
  0
LINE
  5
5C2
100
AcDbEntity
  8
CURVE
100
AcDbLine
 62
250
  6
CONTINUOUS
 10
-73.4544808627
 20
15.678571558
 11
-74.8114170244
 21
15.678571558
  0
LINE
  5
5C3
100
AcDbEntity
  8
CURVE
100
AcDbLine
 62
250
  6
CONTINUOUS
 10
-79.6755991559
 20
16.001437
 11
-76.7769467019
 21
16.001437
  0
LINE
  5
5C4
100
AcDbEntity
  8
CURVE
100
AcDbLine
 62
250
  6
CONTINUOUS
 10
-78.8018642502
 20
14.165656
 11
-76.7769467019
 21
14.158632
  0
LINE
  5
5C5
100
AcDbEntity
  8
ASSI
100
AcDbLine
 62
7
  6
CONTINUOUS
 10
-82.2763028
 20
18.1473460386
 11
-84.2263028
 21
18.491183651
  0
LINE
  5
5C6
100
AcDbEntity
  8
ASSI
100
AcDbLine
 62
250
  6
CONTINUOUS
 10
-46.2763028
 20
17.4114145622
 11
-82.2763028
 21
17.6716990487
  0
LINE
  5
5C7
100
AcDbEntity
  8
ASSI
100
AcDbLine
 62
7
  6
CONTINUOUS
 10
-83.2763028
 20
18.5082905244
 11
-82.2763028
 21
18.5046757374
  0
LINE
  5
5C8
100
AcDbEntity
  8
ASSI
100
AcDbLine
 62
250
  6
CONTINUOUS
 10
-46.2763028
 20
18.825412733
 11
-82.2763028
 21
19.0856972195
  0
LINE
  5
5C9
100
AcDbEntity
  8
ASSI
100
AcDbLine
 62
7
  6
CONTINUOUS
 10
-83.2763028
 20
19.5
 11
-82.2763028
 21
19.4912731322
  0
LINE
  5
5CA
100
AcDbEntity
  8
ASSI
100
AcDbLine
 62
250
  6
CONTINUOUS
 10
-72.2763028
 20
19.3181305591
 11
-46.2763028
 21
18.864298871
  0
LINE
  5
5CB
100
AcDbEntity
  8
ASSI
100
AcDbLine
 62
7
  6
CONTINUOUS
 10
-72.2763028
 20
19.6109791689
 11
-46.2763028
 21
19.1571474807
  0
LINE
  5
5CC
100
AcDbEntity
  8
IMPORT_IGES
100
AcDbLine
 62
7
  6
CONTINUOUS
 10
-48.1763028002
 20
1.5440459201
 11
-48.1763028002
 21
2.5
  0
LINE
  5
5CD
100
AcDbEntity
  8
ASSI
100
AcDbLine
 62
7
  6
CONTINUOUS
 10
-47.7763028
 20
3.459444827
 11
-47.7763028
 21
1.540555173
  0
LINE
  5
5CE
100
AcDbEntity
  8
ASSI
100
AcDbLine
 62
7
  6
CONTINUOUS
 10
-47.7763028
 20
-1.540555173
 11
-47.7763028
 21
-3.459444827
  0
LINE
  5
5CF
100
AcDbEntity
  8
ASSI
100
AcDbLine
 62
7
  6
CONTINUOUS
 10
-47.7763028
 20
-6.540555173
 11
-47.7763028
 21
-8.459444827
  0
LINE
  5
5D0
100
AcDbEntity
  8
ASSI
100
AcDbLine
 62
7
  6
CONTINUOUS
 10
-47.7763028
 20
5.4
 11
-47.7763028
 21
9.6
  0
LINE
  5
5D1
100
AcDbEntity
  8
ASSI
100
AcDbLine
 62
7
  6
CONTINUOUS
 10
-47.7763028
 20
-11.540555173
 11
-47.7763028
 21
-13.459444827
  0
LINE
  5
5D2
100
AcDbEntity
  8
ASSI
100
AcDbLine
 62
7
  6
CONTINUOUS
 10
-47.7763028
 20
10.4
 11
-47.7763028
 21
14.6
  0
LINE
  5
5D3
100
AcDbEntity
  8
ASSI
100
AcDbLine
 62
250
  6
CONTINUOUS
 10
-84.2762799566
 20
21.8997723451
 11
-90.7420980942
 21
21.5609131753
  0
LINE
  5
5D4
100
AcDbEntity
  8
ASSI
100
AcDbLine
 62
7
  6
CONTINUOUS
 10
-72.7675765968
 20
21.4537354271
 11
-83.2763028
 21
21.4
  0
LINE
  5
5D5
100
AcDbEntity
  8
ASSI
100
AcDbLine
 62
250
  6
CONTINUOUS
 10
-82.2763028
 20
20.7
 11
-83.2728109228
 21
20.7
  0
LINE
  5
5D6
100
AcDbEntity
  8
ASSI
100
AcDbLine
 62
7
  6
CONTINUOUS
 10
-82.2763028
 20
20.85
 11
-72.2763028
 21
20.85
  0
LINE
  5
5D7
100
AcDbEntity
  8
ASSI
100
AcDbLine
 62
7
  6
CONTINUOUS
 10
-72.2763028
 20
20.9
 11
-83.2763028
 21
20.9
  0
LINE
  5
5D8
100
AcDbEntity
  8
ASSI
100
AcDbLine
 62
250
  6
CONTINUOUS
 10
-83.2763028
 20
21.8941990932
 11
-84.2763028
 21
21.900016923
  0
LINE
  5
5D9
100
AcDbEntity
  8
ASSI
100
AcDbLine
 62
7
  6
CONTINUOUS
 10
-73.2704850686
 20
22.3359700255
 11
-84.2763028
 21
22.4
  0
LWPOLYLINE
  5
5DA
100
AcDbEntity
  8
0
100
AcDbPolyline
 62
7
  6
CONTINUOUS
 90
10
 70
0
 43
0.3500000019
 10
-68.4548741608
 20
43.7499997559
 10
-68.3834456635
 20
43.6071420898
 10
-68.3834456635
 20
43.5357145996
 10
-68.5263028259
 20
43.3928569336
 10
-68.5977313232
 20
43.3928569336
 10
-68.6691599884
 20
43.4642844238
 10
-68.6691599884
 20
43.5357145996
 10
-68.5977313232
 20
43.6785722656
 10
-68.5263028259
 20
43.7499997559
 10
-68.4548741608
 20
43.7499997559
  0
LINE
  5
5DB
100
AcDbEntity
  8
ASSI
100
AcDbLine
 62
7
  6
CONTINUOUS
 10
-46.2763028
 20
19.1571474807
 11
-46.2763028
 21
-19.1571474807
  0
LINE
  5
5DC
100
AcDbEntity
  8
ASSI
100
AcDbLine
 62
250
  6
CONTINUOUS
 10
-85.7763028
 20
22.5111812444
 11
-85.7749674681
 21
22.5113160484
  0
LINE
  5
5DD
100
AcDbEntity
  8
ASSI
100
AcDbLine
 62
250
  6
CONTINUOUS
 10
-85.7763028
 20
22.5111812444
 11
-85.5277572328
 21
22.5346275426
  0
LINE
  5
5DE
100
AcDbEntity
  8
ASSI
100
AcDbLine
 62
7
  6
CONTINUOUS
 10
-84.2763028
 20
22.4
 11
-90.7595398691
 21
22.0602279426
  0
LINE
  5
5DF
100
AcDbEntity
  8
ASSI
100
AcDbLine
 62
250
  6
CONTINUOUS
 10
-85.5277572328
 20
22.5346275426
 11
-84.2763028
 21
22.6002134903
  0
LINE
  5
5E0
100
AcDbEntity
  8
ASSI
100
AcDbLine
 62
250
  6
CONTINUOUS
 10
-86.5277572328
 20
24.2369056521
 11
-84.2763028
 21
24.2500042308
  0
LINE
  5
5E1
100
AcDbEntity
  8
ASSI
100
AcDbLine
 62
7
  6
CONTINUOUS
 10
-86.5277572328
 20
24.4869014213
 11
-84.2763028
 21
24.5
  0
LINE
  5
5E2
100
AcDbEntity
  8
ASSI
100
AcDbLine
 62
250
  6
CONTINUOUS
 10
-86.7763028
 20
23.8443375673
 11
-86.5277572328
 21
23.8443375673
  0
LINE
  5
5E3
100
AcDbEntity
  8
ASSI
100
AcDbLine
 62
250
  6
CONTINUOUS
 10
-83.2763028
 20
23.8443375673
 11
-83.5248483672
 21
23.8443375673
  0
LINE
  5
5E4
100
AcDbEntity
  8
ASSI
100
AcDbLine
 62
250
  6
CONTINUOUS
 10
-86.7763028
 20
24.2369056521
 11
-86.5277572328
 21
24.2369056521
  0
LINE
  5
5E5
100
AcDbEntity
  8
ASSI
100
AcDbLine
 62
250
  6
CONTINUOUS
 10
-83.2763028
 20
24.2456323968
 11
-83.5248483672
 21
24.2456323968
  0
LINE
  5
5E6
100
AcDbEntity
  8
ASSI
100
AcDbLine
 62
7
  6
CONTINUOUS
 10
-83.2763028
 20
23.9941821702
 11
-76.7733939343
 21
23.9563493531
  0
LINE
  5
5E7
100
AcDbEntity
  8
ASSI
100
AcDbLine
 62
250
  6
CONTINUOUS
 10
-84.2763028
 20
24.2500042308
 11
-83.5248483672
 21
24.2456323968
  0
LINE
  5
5E8
100
AcDbEntity
  8
ASSI
100
AcDbLine
 62
7
  6
CONTINUOUS
 10
-84.2763028
 20
24.5
 11
-83.5248483672
 21
24.495628166
  0
LWPOLYLINE
  5
5E9
100
AcDbEntity
  8
0
100
AcDbPolyline
 62
7
  6
CONTINUOUS
 90
6
 70
0
 43
0.3500000019
 10
-66.526302887
 20
33.2500002441
 10
-65.4548740845
 20
33.2500002441
 10
-65.2405882568
 20
33.4642854004
 10
-65.2405882568
 20
34.5357138672
 10
-65.6691599121
 20
34.9642868652
 10
-66.0977312317
 20
34.9642868652
  0
LWPOLYLINE
  5
5EA
100
AcDbEntity
  8
0
100
AcDbPolyline
 62
7
  6
CONTINUOUS
 90
8
 70
0
 43
0.3500000019
 10
-67.3834455261
 20
43.2499992676
 10
-66.526302887
 20
43.2499992676
 10
-66.0977312317
 20
43.6785722656
 10
-66.0977312317
 20
44.5357155762
 10
-66.526302887
 20
44.9642858887
 10
-67.3834455261
 20
44.9642858887
 10
-67.3834455261
 20
46.2499995117
 10
-66.0977312317
 20
46.2499995117
  0
LWPOLYLINE
  5
5EB
100
AcDbEntity
  8
0
100
AcDbPolyline
 62
7
  6
CONTINUOUS
 90
3
 70
0
 43
0.3500000019
 10
-72.3120170441
 20
43.8928574219
 10
-73.8120171661
 20
43.8928574219
 10
-73.1691600189
 20
46.2499995117
  0
ARC
  5
5EC
100
AcDbEntity
  8
ASSI
100
AcDbCircle
 62
250
  6
CONTINUOUS
 10
-5119.365913819
 20
-7.8583856064
 40
5108.855193117
100
AcDbArc
 50
359.8502535097
 51
359.9815893044
  0
ARC
  5
5ED
100
AcDbEntity
  8
ASSI
100
AcDbCircle
 62
250
  6
CONTINUOUS
 10
-5063.2587122813
 20
-7.8580054599
 40
5052.2480677319
100
AcDbArc
 50
359.8494169401
 51
359.9814864497
  0
ARC
  5
5EE
100
AcDbEntity
  8
ASSI
100
AcDbCircle
 62
250
  6
CONTINUOUS
 10
-1.1993911695
 20
-4.2517215739
 40
1.835186878
100
AcDbArc
 50
90.0190087357
 51
180.0259109386
  0
ARC
  5
5EF
100
AcDbEntity
  8
ASSI
100
AcDbCircle
 62
250
  6
CONTINUOUS
 10
-1.1993956546
 20
-5.1533154611
 40
1.8350385073
100
AcDbArc
 50
179.9930185262
 51
269.9811298136
  0
ARC
  5
5F0
100
AcDbEntity
  8
ASSI
100
AcDbCircle
 62
250
  6
CONTINUOUS
 10
-1.2000158976
 20
-4.2497767029
 40
1.5346737384
100
AcDbArc
 50
89.9994064754
 51
180.0083366332
  0
ARC
  5
5F1
100
AcDbEntity
  8
ASSI
100
AcDbCircle
 62
250
  6
CONTINUOUS
 10
-1.2000159197
 20
-5.1496209126
 40
1.5345259956
100
AcDbArc
 50
180.0141543116
 51
270.0005944064
  0
ARC
  5
5F2
100
AcDbEntity
  8
ASSI
100
AcDbCircle
 62
7
  6
CONTINUOUS
 10
-1.2
 20
-4.25
 40
1.5
100
AcDbArc
 50
90.0
 51
180.0
  0
ARC
  5
5F3
100
AcDbEntity
  8
ASSI
100
AcDbCircle
 62
7
  6
CONTINUOUS
 10
-1.2
 20
-5.15
 40
1.5
100
AcDbArc
 50
180.0
 51
270.0
  0
ARC
  5
5F4
100
AcDbEntity
  8
ASSI
100
AcDbCircle
 62
250
  6
CONTINUOUS
 10
-10.5361277425
 20
-21.5600462239
 40
0.5001615205
100
AcDbArc
 50
180.0993903949
 51
269.9753969724
  0
ARC
  5
5F5
100
AcDbEntity
  8
ASSI
100
AcDbCircle
 62
7
  6
CONTINUOUS
 10
-4.0
 20
-23.15
 40
0.5
100
AcDbArc
 50
154.1580672368
 51
205.8419327632
  0
ARC
  5
5F6
100
AcDbEntity
  8
ASSI
100
AcDbCircle
 62
7
  6
CONTINUOUS
 10
-10.6492683593
 20
-21.9001831577
 40
0.4998369905
100
AcDbArc
 50
179.9527738354
 51
269.9725467298
  0
ARC
  5
5F7
100
AcDbEntity
  8
ASSI
100
AcDbCircle
 62
7
  6
CONTINUOUS
 10
-9.8995658225
 20
-24.2482118894
 40
0.2518134323
100
AcDbArc
 50
246.0745078492
 51
263.9432972639
  0
ARC
  5
5F8
100
AcDbEntity
  8
ASSI
100
AcDbCircle
 62
7
  6
CONTINUOUS
 10
-9.8981926537
 20
-24.2497182339
 40
0.2518075087
100
AcDbArc
 50
180.0650751793
 51
197.9347569599
  0
ARC
  5
5F9
100
AcDbEntity
  8
ASSI
100
AcDbCircle
 62
7
  6
CONTINUOUS
 10
-7.5002817661
 20
-24.2481926537
 40
0.2518075087
100
AcDbArc
 50
270.0650751793
 51
287.9347569599
  0
ARC
  5
5FA
100
AcDbEntity
  8
ASSI
100
AcDbCircle
 62
7
  6
CONTINUOUS
 10
-9.8999176653
 20
-24.2499287064
 40
0.2501017266
100
AcDbArc
 50
198.0105729679
 51
245.9886811234
  0
ARC
  5
5FB
100
AcDbEntity
  8
ASSI
100
AcDbCircle
 62
7
  6
CONTINUOUS
 10
-7.5131182296
 20
-24.2368817704
 40
0.2500209182
100
AcDbArc
 50
270.0054728453
 51
359.9945271547
  0
ARC
  5
5FC
100
AcDbEntity
  8
ASSI
100
AcDbCircle
 62
7
  6
CONTINUOUS
 10
-9.8869044181
 20
-24.2368942392
 40
0.2499972572
100
AcDbArc
 50
180.3359530858
 51
263.8274818831
  0
ARC
  5
5FD
100
AcDbEntity
  8
ASSI
100
AcDbCircle
 62
7
  6
CONTINUOUS
 10
-9.8999484332
 20
-24.2509055562
 40
0.24909445
100
AcDbArc
 50
263.9654384278
 51
269.9871656551
  0
ARC
  5
5FE
100
AcDbEntity
  8
ASSI
100
AcDbCircle
 62
7
  6
CONTINUOUS
 10
-7.4990944438
 20
-24.2499484332
 40
0.24909445
100
AcDbArc
 50
288.0109155924
 51
359.9871656551
  0
ARC
  5
5FF
100
AcDbEntity
  8
ASSI
100
AcDbCircle
 62
7
  6
CONTINUOUS
 10
-1.2000128976
 20
-23.7999873395
 40
0.2000137785
100
AcDbArc
 50
270.0036946472
 51
359.9973428491
  0
ARC
  5
600
100
AcDbEntity
  8
ASSI
100
AcDbCircle
 62
7
  6
CONTINUOUS
 10
-1.2000092882
 20
-23.7982383655
 40
0.2000104009
100
AcDbArc
 50
270.0026607515
 51
359.9963043324
  0
ARC
  5
601
100
AcDbEntity
  8
ASSI
100
AcDbCircle
 62
250
  6
CONTINUOUS
 10
-7.057345656
 20
-22.5348556265
 40
0.1999457302
100
AcDbArc
 50
89.9823710527
 51
179.9346375917
  0
ARC
  5
602
100
AcDbEntity
  8
ASSI
100
AcDbCircle
 62
250
  6
CONTINUOUS
 10
-10.3426543428
 20
-22.5348556278
 40
0.1999457303
100
AcDbArc
 50
0.0653627667
 51
90.0176292729
  0
ARC
  5
603
100
AcDbEntity
  8
ASSI
100
AcDbCircle
 62
250
  6
CONTINUOUS
 10
-5147.6879463006
 20
7.8168244588
 40
5137.1772375938
100
AcDbArc
 50
0.018772733
 51
0.149384453
  0
ARC
  5
604
100
AcDbEntity
  8
ASSI
100
AcDbCircle
 62
250
  6
CONTINUOUS
 10
-5091.2668283405
 20
7.816675357
 40
5080.2561957861
100
AcDbArc
 50
0.0188776089
 51
0.1502190013
  0
ARC
  5
605
100
AcDbEntity
  8
ASSI
100
AcDbCircle
 62
250
  6
CONTINUOUS
 10
-4.3525170609
 20
7.5472542852
 40
0.6001657469
100
AcDbArc
 50
90.0095112214
 51
179.9947587369
  0
ARC
  5
606
100
AcDbEntity
  8
ASSI
100
AcDbCircle
 62
250
  6
CONTINUOUS
 10
-4.3535296724
 20
1.8571649833
 40
0.6000821163
100
AcDbArc
 50
179.9775601656
 51
269.9792581923
  0
ARC
  5
607
100
AcDbEntity
  8
ASSI
100
AcDbCircle
 62
250
  6
CONTINUOUS
 10
-10.536126678
 20
21.560045379
 40
0.5001623719
100
AcDbArc
 50
90.0247249323
 51
179.9005857438
  0
ARC
  5
608
100
AcDbEntity
  8
ASSI
100
AcDbCircle
 62
7
  6
CONTINUOUS
 10
-4.0
 20
23.15
 40
0.5
100
AcDbArc
 50
154.1580672368
 51
205.8419327632
  0
ARC
  5
609
100
AcDbEntity
  8
ASSI
100
AcDbCircle
 62
7
  6
CONTINUOUS
 10
-10.6492683568
 20
21.9001831603
 40
0.4998369904
100
AcDbArc
 50
90.0274535528
 51
180.0472264622
  0
ARC
  5
60A
100
AcDbEntity
  8
ASSI
100
AcDbCircle
 62
250
  6
CONTINUOUS
 10
-4.3528041521
 20
7.5426278391
 40
0.2999385113
100
AcDbArc
 50
89.9641884188
 51
179.9707400666
  0
ARC
  5
60B
100
AcDbEntity
  8
ASSI
100
AcDbCircle
 62
250
  6
CONTINUOUS
 10
-4.3538655485
 20
1.8561001812
 40
0.2998034638
100
AcDbArc
 50
179.9645908499
 51
270.0226256906
  0
ARC
  5
60C
100
AcDbEntity
  8
ASSI
100
AcDbCircle
 62
7
  6
CONTINUOUS
 10
-7.5004341775
 20
24.2482118894
 40
0.2518134323
100
AcDbArc
 50
66.0745078492
 51
83.943297264
  0
ARC
  5
60D
100
AcDbEntity
  8
ASSI
100
AcDbCircle
 62
7
  6
CONTINUOUS
 10
-7.5018073463
 20
24.2497182339
 40
0.2518075087
100
AcDbArc
 50
0.0650751793
 51
17.9347569599
  0
ARC
  5
60E
100
AcDbEntity
  8
ASSI
100
AcDbCircle
 62
7
  6
CONTINUOUS
 10
-7.5000823347
 20
24.2499287064
 40
0.2501017266
100
AcDbArc
 50
18.0105729679
 51
65.9886811234
  0
ARC
  5
60F
100
AcDbEntity
  8
ASSI
100
AcDbCircle
 62
7
  6
CONTINUOUS
 10
-7.5130955807
 20
24.2368942379
 40
0.2499972583
100
AcDbArc
 50
0.3359533892
 51
83.8274821965
  0
ARC
  5
610
100
AcDbEntity
  8
ASSI
100
AcDbCircle
 62
7
  6
CONTINUOUS
 10
-9.8869046408
 20
24.2368943993
 40
0.2499970595
100
AcDbArc
 50
96.172471317
 51
179.9974210206
  0
ARC
  5
611
100
AcDbEntity
  8
ASSI
100
AcDbCircle
 62
7
  6
CONTINUOUS
 10
-9.9009055562
 20
24.2499484332
 40
0.24909445
100
AcDbArc
 50
114.0113188766
 51
179.9871656551
  0
ARC
  5
612
100
AcDbEntity
  8
ASSI
100
AcDbCircle
 62
7
  6
CONTINUOUS
 10
-7.5000515668
 20
24.2509055562
 40
0.24909445
100
AcDbArc
 50
83.9654384278
 51
89.9871656551
  0
ARC
  5
613
100
AcDbEntity
  8
ASSI
100
AcDbCircle
 62
7
  6
CONTINUOUS
 10
-1.2000128982
 20
23.7999873402
 40
0.2000137782
100
AcDbArc
 50
0.0026569572
 51
89.9963051666
  0
ARC
  5
614
100
AcDbEntity
  8
ASSI
100
AcDbCircle
 62
250
  6
CONTINUOUS
 10
-1.2000092707
 20
23.798238393
 40
0.2000103799
100
AcDbArc
 50
0.003687779
 51
89.9973442616
  0
ARC
  5
615
100
AcDbEntity
  8
ASSI
100
AcDbCircle
 62
250
  6
CONTINUOUS
 10
-10.3426543429
 20
22.5348556278
 40
0.1999457303
100
AcDbArc
 50
269.982370733
 51
359.9346372268
  0
ARC
  5
616
100
AcDbEntity
  8
ASSI
100
AcDbCircle
 62
250
  6
CONTINUOUS
 10
-7.057345656
 20
22.5348556265
 40
0.1999457303
100
AcDbArc
 50
180.0653624094
 51
270.0176289456
  0
ARC
  5
617
100
AcDbEntity
  8
ASSI
100
AcDbCircle
 62
250
  6
CONTINUOUS
 10
5147.6878899419
 20
-7.8168245415
 40
5137.1771812351
100
AcDbArc
 50
180.0187727322
 51
180.1493844537
  0
ARC
  5
618
100
AcDbEntity
  8
ASSI
100
AcDbCircle
 62
250
  6
CONTINUOUS
 10
5091.2667733239
 20
-7.8166754382
 40
5080.2561407695
100
AcDbArc
 50
180.0188776082
 51
180.150219002
  0
ARC
  5
619
100
AcDbEntity
  8
ASSI
100
AcDbCircle
 62
250
  6
CONTINUOUS
 10
5.49939527
 20
-4.2517256604
 40
1.8351868602
100
AcDbArc
 50
359.9742165822
 51
89.9811193299
  0
ARC
  5
61A
100
AcDbEntity
  8
ASSI
100
AcDbCircle
 62
250
  6
CONTINUOUS
 10
5.4993916458
 20
-5.1533196258
 40
1.8350385489
100
AcDbArc
 50
270.0189953995
 51
0.0071114899
  0
ARC
  5
61B
100
AcDbEntity
  8
ASSI
100
AcDbCircle
 62
250
  6
CONTINUOUS
 10
5.5000158213
 20
-4.2497767334
 40
1.5346737393
100
AcDbArc
 50
359.9916645065
 51
90.0005906756
  0
ARC
  5
61C
100
AcDbEntity
  8
ASSI
100
AcDbCircle
 62
250
  6
CONTINUOUS
 10
5.5000123213
 20
-5.1496235456
 40
1.5345260033
100
AcDbArc
 50
269.9995399492
 51
359.9859440324
  0
ARC
  5
61D
100
AcDbEntity
  8
ASSI
100
AcDbCircle
 62
7
  6
CONTINUOUS
 10
5.5
 20
-5.15
 40
1.5
100
AcDbArc
 50
270.0
 51
360.0
  0
ARC
  5
61E
100
AcDbEntity
  8
ASSI
100
AcDbCircle
 62
7
  6
CONTINUOUS
 10
5.5
 20
-4.25
 40
1.5
100
AcDbArc
 50
0.0
 51
90.0
  0
ARC
  5
61F
100
AcDbEntity
  8
ASSI
100
AcDbCircle
 62
7
  6
CONTINUOUS
 10
6.75
 20
-2.8
 40
0.75
100
AcDbArc
 50
270.0
 51
275.6228757591
  0
ARC
  5
620
100
AcDbEntity
  8
ASSI
100
AcDbCircle
 62
250
  6
CONTINUOUS
 10
10.5361014902
 20
-21.560025344
 40
0.5001825321
100
AcDbArc
 50
270.0276090741
 51
359.900025736
  0
ARC
  5
621
100
AcDbEntity
  8
ASSI
100
AcDbCircle
 62
7
  6
CONTINUOUS
 10
4.0
 20
-23.15
 40
0.5
100
AcDbArc
 50
334.1580672368
 51
25.8419327632
  0
ARC
  5
622
100
AcDbEntity
  8
ASSI
100
AcDbCircle
 62
7
  6
CONTINUOUS
 10
10.6492683592
 20
-21.9001831578
 40
0.4998369905
100
AcDbArc
 50
270.0274532777
 51
0.047226169
  0
ARC
  5
623
100
AcDbEntity
  8
0
100
AcDbCircle
 62
250
  6
CONTINUOUS
 10
4.413894
 20
-15.357254
 40
0.4002215908
100
AcDbArc
 50
287.3057211573
 51
70.4228570063
  0
ARC
  5
624
100
AcDbEntity
  8
ASSI
100
AcDbCircle
 62
7
  6
CONTINUOUS
 10
7.5018073463
 20
-24.2497182339
 40
0.2518075087
100
AcDbArc
 50
180.0650751793
 51
197.9347569599
  0
ARC
  5
625
100
AcDbEntity
  8
ASSI
100
AcDbCircle
 62
7
  6
CONTINUOUS
 10
9.8997182339
 20
-24.2481926537
 40
0.2518075087
100
AcDbArc
 50
270.0650751793
 51
287.9347569599
  0
ARC
  5
626
100
AcDbEntity
  8
ASSI
100
AcDbCircle
 62
7
  6
CONTINUOUS
 10
7.5131182296
 20
-24.2368817704
 40
0.2500209182
100
AcDbArc
 50
180.0054728486
 51
269.9945271514
  0
ARC
  5
627
100
AcDbEntity
  8
ASSI
100
AcDbCircle
 62
7
  6
CONTINUOUS
 10
9.8868817704
 20
-24.2368817704
 40
0.2500209182
100
AcDbArc
 50
270.0054728536
 51
359.9945271464
  0
ARC
  5
628
100
AcDbEntity
  8
ASSI
100
AcDbCircle
 62
7
  6
CONTINUOUS
 10
7.5000515668
 20
-24.2509055562
 40
0.24909445
100
AcDbArc
 50
198.0109155924
 51
269.9871656551
  0
ARC
  5
629
100
AcDbEntity
  8
ASSI
100
AcDbCircle
 62
7
  6
CONTINUOUS
 10
9.9009055562
 20
-24.2499484332
 40
0.24909445
100
AcDbArc
 50
288.0109155924
 51
359.9871656551
  0
ARC
  5
62A
100
AcDbEntity
  8
ASSI
100
AcDbCircle
 62
7
  6
CONTINUOUS
 10
1.2000128966
 20
-23.7999873385
 40
0.200013779
100
AcDbArc
 50
180.0026574368
 51
269.9963056304
  0
ARC
  5
62B
100
AcDbEntity
  8
ASSI
100
AcDbCircle
 62
250
  6
CONTINUOUS
 10
1.2000092765
 20
-23.79823837
 40
0.2000103941
100
AcDbArc
 50
180.0036943803
 51
269.9973425918
  0
ARC
  5
62C
100
AcDbEntity
  8
ASSI
100
AcDbCircle
 62
250
  6
CONTINUOUS
 10
10.3426543441
 20
-22.5348556266
 40
0.1999457303
100
AcDbArc
 50
89.9823710775
 51
179.9346375669
  0
ARC
  5
62D
100
AcDbEntity
  8
ASSI
100
AcDbCircle
 62
250
  6
CONTINUOUS
 10
7.0573456572
 20
-22.5348556277
 40
0.1999457303
100
AcDbArc
 50
0.065362755
 51
90.0176292847
  0
ARC
  5
62E
100
AcDbEntity
  8
0
100
AcDbCircle
 62
250
  6
CONTINUOUS
 10
8.457732
 20
-18.257962
 40
0.1421921691
100
AcDbArc
 50
272.5069730947
 51
360.0
  0
ARC
  5
62F
100
AcDbEntity
  8
ASSI
100
AcDbCircle
 62
250
  6
CONTINUOUS
 10
5119.3658581042
 20
7.8583856881
 40
5108.8551374022
100
AcDbArc
 50
179.850253509
 51
179.9815893051
  0
ARC
  5
630
100
AcDbEntity
  8
ASSI
100
AcDbCircle
 62
250
  6
CONTINUOUS
 10
5063.258657272
 20
7.8580055411
 40
5052.2480127226
100
AcDbArc
 50
179.8494169394
 51
179.9814864504
  0
ARC
  5
631
100
AcDbEntity
  8
IMPORT_IGES
100
AcDbCircle
 62
7
  6
CONTINUOUS
 10
6.604
 20
2.5
 40
1.0
100
AcDbArc
 50
0.0
 51
89.9988264849
  0
ARC
  5
632
100
AcDbEntity
  8
ASSI
100
AcDbCircle
 62
250
  6
CONTINUOUS
 10
8.6325174683
 20
7.5472545467
 40
0.6001656886
100
AcDbArc
 50
0.0052362136
 51
89.9905484088
  0
ARC
  5
633
100
AcDbEntity
  8
ASSI
100
AcDbCircle
 62
250
  6
CONTINUOUS
 10
8.6335814486
 20
1.8571134842
 40
0.6000270112
100
AcDbArc
 50
270.0158253977
 51
0.0273683641
  0
ARC
  5
634
100
AcDbEntity
  8
ASSI
100
AcDbCircle
 62
250
  6
CONTINUOUS
 10
10.5361266809
 20
21.5600453762
 40
0.5001623718
100
AcDbArc
 50
0.0994145739
 51
89.9752754049
  0
ARC
  5
635
100
AcDbEntity
  8
ASSI
100
AcDbCircle
 62
7
  6
CONTINUOUS
 10
4.0
 20
23.15
 40
0.5
100
AcDbArc
 50
334.1580672368
 51
25.8419327632
  0
ARC
  5
636
100
AcDbEntity
  8
ASSI
100
AcDbCircle
 62
7
  6
CONTINUOUS
 10
10.6492683566
 20
21.9001831603
 40
0.4998369905
100
AcDbArc
 50
359.9527735425
 51
89.9725464295
  0
ARC
  5
637
100
AcDbEntity
  8
ASSI
100
AcDbCircle
 62
250
  6
CONTINUOUS
 10
8.6328040976
 20
7.5426278492
 40
0.2999385329
100
AcDbArc
 50
0.0292581141
 51
90.0358017619
  0
ARC
  5
638
100
AcDbEntity
  8
ASSI
100
AcDbCircle
 62
250
  6
CONTINUOUS
 10
8.6338654516
 20
1.8561002964
 40
0.2998035457
100
AcDbArc
 50
269.9773941989
 51
0.0353858996
  0
ARC
  5
639
100
AcDbEntity
  8
ASSI
100
AcDbCircle
 62
7
  6
CONTINUOUS
 10
9.8981926537
 20
24.2497182339
 40
0.2518075087
100
AcDbArc
 50
0.0650751793
 51
17.9347569599
  0
ARC
  5
63A
100
AcDbEntity
  8
ASSI
100
AcDbCircle
 62
7
  6
CONTINUOUS
 10
7.5002817661
 20
24.2481926537
 40
0.2518075087
100
AcDbArc
 50
90.0650751793
 51
107.9347569599
  0
ARC
  5
63B
100
AcDbEntity
  8
ASSI
100
AcDbCircle
 62
7
  6
CONTINUOUS
 10
9.8868817704
 20
24.2368817704
 40
0.2500209182
100
AcDbArc
 50
0.0054728453
 51
89.9945271547
  0
ARC
  5
63C
100
AcDbEntity
  8
ASSI
100
AcDbCircle
 62
7
  6
CONTINUOUS
 10
7.5131182296
 20
24.2368817704
 40
0.2500209181
100
AcDbArc
 50
90.0054728346
 51
179.9945271654
  0
ARC
  5
63D
100
AcDbEntity
  8
ASSI
100
AcDbCircle
 62
7
  6
CONTINUOUS
 10
9.8999484332
 20
24.2509055562
 40
0.24909445
100
AcDbArc
 50
18.0109155924
 51
89.9871656551
  0
ARC
  5
63E
100
AcDbEntity
  8
ASSI
100
AcDbCircle
 62
7
  6
CONTINUOUS
 10
7.4990944438
 20
24.2499484332
 40
0.24909445
100
AcDbArc
 50
108.0109155924
 51
179.9871656551
  0
ARC
  5
63F
100
AcDbEntity
  8
ASSI
100
AcDbCircle
 62
7
  6
CONTINUOUS
 10
1.2000128966
 20
23.7999873385
 40
0.200013779
100
AcDbArc
 50
90.0036943664
 51
179.9973425609
  0
ARC
  5
640
100
AcDbEntity
  8
ASSI
100
AcDbCircle
 62
7
  6
CONTINUOUS
 10
1.2000092824
 20
23.7982383926
 40
0.200010385
100
AcDbArc
 50
90.0026590908
 51
179.9963121129
  0
ARC
  5
641
100
AcDbEntity
  8
ASSI
100
AcDbCircle
 62
250
  6
CONTINUOUS
 10
7.0573456572
 20
22.5348556277
 40
0.1999457303
100
AcDbArc
 50
269.9823707142
 51
359.9346372456
  0
ARC
  5
642
100
AcDbEntity
  8
ASSI
100
AcDbCircle
 62
250
  6
CONTINUOUS
 10
10.3426543441
 20
22.5348556266
 40
0.1999457304
100
AcDbArc
 50
180.065362436
 51
270.017628919
  0
ARC
  5
643
100
AcDbEntity
  8
ASSI
100
AcDbCircle
 62
7
  6
CONTINUOUS
 10
-73.2763028
 20
-21.3359869487
 40
1.0
100
AcDbArc
 50
270.3333333333
 51
360.0
  0
ARC
  5
644
100
AcDbEntity
  8
ASSI
100
AcDbCircle
 62
7
  6
CONTINUOUS
 10
-90.7072039128
 20
-21.0615984079
 40
1.0
100
AcDbArc
 50
188.5758796048
 51
267.0
  0
ARC
  5
645
100
AcDbEntity
  8
IMPORT_IGES
100
AcDbCircle
 62
7
  6
CONTINUOUS
 10
-52.7163028006
 20
-13.1599999932
 40
0.5500000049
100
AcDbArc
 50
331.6855972008
 51
207.3619349844
  0
ARC
  5
646
100
AcDbEntity
  8
IMPORT_IGES
100
AcDbCircle
 62
7
  6
CONTINUOUS
 10
-50.1763028006
 20
-13.1599999932
 40
0.5500000049
100
AcDbArc
 50
328.7176089005
 51
210.2439632042
  0
ARC
  5
647
100
AcDbEntity
  8
ASSI
100
AcDbCircle
 62
250
  6
CONTINUOUS
 10
-90.7158931608
 20
-21.0615577774
 40
0.5000472557
100
AcDbArc
 50
188.5798516433
 51
266.9650401678
  0
ARC
  5
648
100
AcDbEntity
  8
ASSI
100
AcDbCircle
 62
7
  6
CONTINUOUS
 10
-76.7763028
 20
-23.4563578147
 40
0.5
100
AcDbArc
 50
270.3333333333
 51
360.0
  0
ARC
  5
649
100
AcDbEntity
  8
ASSI
100
AcDbCircle
 62
7
  6
CONTINUOUS
 10
-86.5263028
 20
-24.2369056521
 40
0.25
100
AcDbArc
 50
180.0
 51
269.6666666667
  0
ARC
  5
64A
100
AcDbEntity
  8
ASSI
100
AcDbCircle
 62
7
  6
CONTINUOUS
 10
-83.5263028
 20
-24.2456323968
 40
0.25
100
AcDbArc
 50
270.3333333333
 51
360.0
  0
ARC
  5
64B
100
AcDbEntity
  8
ASSI
100
AcDbCircle
 62
7
  6
CONTINUOUS
 10
-83.5263028
 20
-23.8443375673
 40
0.25
100
AcDbArc
 50
0.0
 51
60.0
  0
ARC
  5
64C
100
AcDbEntity
  8
ASSI
100
AcDbCircle
 62
7
  6
CONTINUOUS
 10
-86.5263028
 20
-23.8443375673
 40
0.25
100
AcDbArc
 50
120.0
 51
180.0
  0
ARC
  5
64D
100
AcDbEntity
  8
ASSI
100
AcDbCircle
 62
7
  6
CONTINUOUS
 10
-85.9763028
 20
-22.5111812444
 40
0.2
100
AcDbArc
 50
0.0
 51
87.0
  0
ARC
  5
64E
100
AcDbEntity
  8
IMPORT_IGES
100
AcDbCircle
 62
7
  6
CONTINUOUS
 10
-64.1263027898
 20
-13.1749999886
 40
0.1500000048
100
AcDbArc
 50
287.5573562986
 51
253.2785704276
  0
ARC
  5
64F
100
AcDbEntity
  8
ASSI
100
AcDbCircle
 62
7
  6
CONTINUOUS
 10
-71.0197290904
 20
-12.5
 40
0.7565737096
100
AcDbArc
 50
90.5
 51
269.5
  0
ARC
  5
650
100
AcDbEntity
  8
ASSI
100
AcDbCircle
 62
7
  6
CONTINUOUS
 10
-71.0197290904
 20
-7.5
 40
0.7565737096
100
AcDbArc
 50
90.5
 51
269.5
  0
ARC
  5
651
100
AcDbEntity
  8
IMPORT_IGES
100
AcDbCircle
 62
7
  6
CONTINUOUS
 10
-60.5763028032
 20
-8.3000000104
 40
0.1500000048
100
AcDbArc
 50
340.6508573227
 51
198.3612443617
  0
ARC
  5
652
100
AcDbEntity
  8
ASSI
100
AcDbCircle
 62
7
  6
CONTINUOUS
 10
-71.0197290904
 20
-2.5
 40
0.7565737096
100
AcDbArc
 50
90.5
 51
269.5
  0
ARC
  5
653
100
AcDbEntity
  8
IMPORT_IGES
100
AcDbCircle
 62
7
  6
CONTINUOUS
 10
-63.276302788
 20
-3.400000006
 40
0.1500000048
100
AcDbArc
 50
30.9625661277
 51
148.4608512007
  0
CIRCLE
  5
654
100
AcDbEntity
  8
IMPORT_IGES
100
AcDbCircle
 62
7
  6
CONTINUOUS
 10
-63.276302788
 20
-2.8000000122
 40
0.1500000048
  0
CIRCLE
  5
655
100
AcDbEntity
  8
IMPORT_IGES
100
AcDbCircle
 62
7
  6
CONTINUOUS
 10
-63.8763028072
 20
-2.8000000122
 40
0.1500000048
  0
ARC
  5
656
100
AcDbEntity
  8
IMPORT_IGES
100
AcDbCircle
 62
7
  6
CONTINUOUS
 10
-63.8763028072
 20
-3.400000006
 40
0.1500000048
100
AcDbArc
 50
33.7060799848
 51
145.8724848277
  0
ARC
  5
657
100
AcDbEntity
  8
IMPORT_IGES
100
AcDbCircle
 62
7
  6
CONTINUOUS
 10
-64.476302801
 20
-3.400000006
 40
0.1500000048
100
AcDbArc
 50
36.3870676732
 51
143.3335794341
  0
CIRCLE
  5
658
100
AcDbEntity
  8
IMPORT_IGES
100
AcDbCircle
 62
7
  6
CONTINUOUS
 10
-64.476302801
 20
-2.199999993
 40
0.1500000048
  0
CIRCLE
  5
659
100
AcDbEntity
  8
IMPORT_IGES
100
AcDbCircle
 62
7
  6
CONTINUOUS
 10
-63.8763028072
 20
-2.199999993
 40
0.1500000048
  0
CIRCLE
  5
65A
100
AcDbEntity
  8
IMPORT_IGES
100
AcDbCircle
 62
7
  6
CONTINUOUS
 10
-63.276302788
 20
-2.199999993
 40
0.1500000048
  0
ARC
  5
65B
100
AcDbEntity
  8
IMPORT_IGES
100
AcDbCircle
 62
7
  6
CONTINUOUS
 10
-64.476302801
 20
-1.5999999992
 40
0.1500000048
100
AcDbArc
 50
216.5190763155
 51
324.4182260739
  0
ARC
  5
65C
100
AcDbEntity
  8
IMPORT_IGES
100
AcDbCircle
 62
7
  6
CONTINUOUS
 10
-63.276302788
 20
-1.5999999992
 40
0.1500000048
100
AcDbArc
 50
211.3244365245
 51
329.2845688056
  0
ARC
  5
65D
100
AcDbEntity
  8
IMPORT_IGES
100
AcDbCircle
 62
7
  6
CONTINUOUS
 10
-63.8763028072
 20
-1.5999999992
 40
0.1500000048
100
AcDbArc
 50
213.9421559083
 51
326.9712148778
  0
CIRCLE
  5
65E
100
AcDbEntity
  8
IMPORT_IGES
100
AcDbCircle
 62
7
  6
CONTINUOUS
 10
-64.476302801
 20
-2.8000000122
 40
0.1500000048
  0
CIRCLE
  5
65F
100
AcDbEntity
  8
IMPORT_IGES
100
AcDbCircle
 62
7
  6
CONTINUOUS
 10
-58.7763027964
 20
-7.6999999912
 40
0.1500000048
  0
CIRCLE
  5
660
100
AcDbEntity
  8
IMPORT_IGES
100
AcDbCircle
 62
7
  6
CONTINUOUS
 10
-54.576302789
 20
-7.6999999912
 40
0.1500000048
  0
CIRCLE
  5
661
100
AcDbEntity
  8
IMPORT_IGES
100
AcDbCircle
 62
7
  6
CONTINUOUS
 10
-55.1763028082
 20
-7.6999999912
 40
0.1500000048
  0
CIRCLE
  5
662
100
AcDbEntity
  8
IMPORT_IGES
100
AcDbCircle
 62
7
  6
CONTINUOUS
 10
-55.776302802
 20
-7.6999999912
 40
0.1500000048
  0
ARC
  5
663
100
AcDbEntity
  8
IMPORT_IGES
100
AcDbCircle
 62
7
  6
CONTINUOUS
 10
-59.9763028094
 20
-8.3000000104
 40
0.1500000048
100
AcDbArc
 50
338.3733389041
 51
200.5778571286
  0
ARC
  5
664
100
AcDbEntity
  8
IMPORT_IGES
100
AcDbCircle
 62
7
  6
CONTINUOUS
 10
-59.3763027902
 20
-8.3000000104
 40
0.1500000048
100
AcDbArc
 50
336.0773372846
 51
202.8021475802
  0
ARC
  5
665
100
AcDbEntity
  8
IMPORT_IGES
100
AcDbCircle
 62
7
  6
CONTINUOUS
 10
-57.5763028088
 20
-8.3000000104
 40
0.1500000048
100
AcDbArc
 50
329.1544436976
 51
209.4599052568
  0
ARC
  5
666
100
AcDbEntity
  8
IMPORT_IGES
100
AcDbCircle
 62
7
  6
CONTINUOUS
 10
-56.9763027896
 20
-8.3000000104
 40
0.1500000048
100
AcDbArc
 50
326.8632679901
 51
211.897928546
  0
ARC
  5
667
100
AcDbEntity
  8
IMPORT_IGES
100
AcDbCircle
 62
7
  6
CONTINUOUS
 10
-56.3763027958
 20
-8.3000000104
 40
0.1500000048
100
AcDbArc
 50
324.3178737113
 51
214.5416655956
  0
ARC
  5
668
100
AcDbEntity
  8
IMPORT_IGES
100
AcDbCircle
 62
7
  6
CONTINUOUS
 10
-55.1763028082
 20
-8.3000000104
 40
0.1500000048
100
AcDbArc
 50
318.8193874332
 51
219.6884368694
  0
ARC
  5
669
100
AcDbEntity
  8
IMPORT_IGES
100
AcDbCircle
 62
7
  6
CONTINUOUS
 10
-55.776302802
 20
-8.3000000104
 40
0.1500000048
100
AcDbArc
 50
321.5340427691
 51
217.1413985957
  0
ARC
  5
66A
100
AcDbEntity
  8
IMPORT_IGES
100
AcDbCircle
 62
7
  6
CONTINUOUS
 10
-54.576302789
 20
-8.3000000104
 40
0.1500000048
100
AcDbArc
 50
316.190313225
 51
222.1752053095
  0
ARC
  5
66B
100
AcDbEntity
  8
IMPORT_IGES
100
AcDbCircle
 62
7
  6
CONTINUOUS
 10
-58.7763027964
 20
-8.3000000104
 40
0.1500000048
100
AcDbArc
 50
333.7701333561
 51
205.0280241772
  0
ARC
  5
66C
100
AcDbEntity
  8
IMPORT_IGES
100
AcDbCircle
 62
7
  6
CONTINUOUS
 10
-58.1763028026
 20
-8.3000000104
 40
0.1500000048
100
AcDbArc
 50
331.459677327
 51
207.2493203342
  0
ARC
  5
66D
100
AcDbEntity
  8
IMPORT_IGES
100
AcDbCircle
 62
7
  6
CONTINUOUS
 10
-50.1763028006
 20
-2.9999999932
 40
0.6499999954
100
AcDbArc
 50
315.6896096647
 51
223.3861118953
  0
ARC
  5
66E
100
AcDbEntity
  8
IMPORT_IGES
100
AcDbCircle
 62
7
  6
CONTINUOUS
 10
-49.8763028
 20
-1.5
 40
0.25
100
AcDbArc
 50
194.2283296052
 51
346.7791358993
  0
ARC
  5
66F
100
AcDbEntity
  8
ASSI
100
AcDbCircle
 62
7
  6
CONTINUOUS
 10
-2.7022911198
 20
-7.79
 40
90.0
100
AcDbArc
 50
181.08868532
 51
188.5758796048
  0
ARC
  5
670
100
AcDbEntity
  8
0
100
AcDbCircle
 62
250
  6
CONTINUOUS
 10
-2.7022911198
 20
-7.79
 40
90.0
100
AcDbArc
 50
183.0910743768
 51
183.3110896335
  0
ARC
  5
671
100
AcDbEntity
  8
0
100
AcDbCircle
 62
250
  6
CONTINUOUS
 10
-2.7022911198
 20
-7.79
 40
90.0
100
AcDbArc
 50
186.0842070977
 51
187.286414046
  0
ARC
  5
672
100
AcDbEntity
  8
0
100
AcDbCircle
 62
250
  6
CONTINUOUS
 10
-2.7022911198
 20
-7.79
 40
90.0
100
AcDbArc
 50
183.4016190345
 51
185.4236180648
  0
ARC
  5
673
100
AcDbEntity
  8
ASSI
100
AcDbCircle
 62
250
  6
CONTINUOUS
 10
-2.7114257464
 20
-7.790034528
 40
89.4995909944
100
AcDbArc
 50
181.0886681877
 51
188.5758967371
  0
ARC
  5
674
100
AcDbEntity
  8
IMPORT_IGES
100
AcDbCircle
 62
7
  6
CONTINUOUS
 10
-61.6263028
 20
4.6
 40
4.25
100
AcDbArc
 50
28.5948130006
 51
62.639535929
  0
ARC
  5
675
100
AcDbEntity
  8
IMPORT_IGES
100
AcDbCircle
 62
7
  6
CONTINUOUS
 10
-61.6263028
 20
4.6
 40
4.25
100
AcDbArc
 50
118.3529326782
 51
150.4555045124
  0
ARC
  5
676
100
AcDbEntity
  8
IMPORT_IGES
100
AcDbCircle
 62
7
  6
CONTINUOUS
 10
-61.6263028
 20
4.6
 40
4.25
100
AcDbArc
 50
197.8710580307
 51
223.4149691693
  0
ARC
  5
677
100
AcDbEntity
  8
IMPORT_IGES
100
AcDbCircle
 62
7
  6
CONTINUOUS
 10
-61.6263028
 20
4.6
 40
4.25
100
AcDbArc
 50
315.707099216
 51
343.1455091328
  0
ARC
  5
678
100
AcDbEntity
  8
IMPORT_IGES
100
AcDbCircle
 62
7
  6
CONTINUOUS
 10
-61.6263028
 20
13.2
 40
4.25
100
AcDbArc
 50
178.5995623216
 51
200.9089951034
  0
ARC
  5
679
100
AcDbEntity
  8
IMPORT_IGES
100
AcDbCircle
 62
7
  6
CONTINUOUS
 10
-61.6263028
 20
13.2
 40
4.25
100
AcDbArc
 50
338.1045905559
 51
2.3808818398
  0
ARC
  5
67A
100
AcDbEntity
  8
IMPORT_IGES
100
AcDbCircle
 62
250
  6
CONTINUOUS
 10
-61.6263028
 20
4.6
 40
3.8500017296
100
AcDbArc
 50
229.2797245898
 51
229.4344486065
  0
ARC
  5
67B
100
AcDbEntity
  8
IMPORT_IGES
100
AcDbCircle
 62
250
  6
CONTINUOUS
 10
-61.6263028
 20
4.6
 40
3.8500017296
100
AcDbArc
 50
31.9778456873
 51
76.6337187604
  0
ARC
  5
67C
100
AcDbEntity
  8
IMPORT_IGES
100
AcDbCircle
 62
250
  6
CONTINUOUS
 10
-61.6263028
 20
4.6
 40
3.8500017296
100
AcDbArc
 50
309.5697127473
 51
341.3590596342
  0
ARC
  5
67D
100
AcDbEntity
  8
IMPORT_IGES
100
AcDbCircle
 62
250
  6
CONTINUOUS
 10
-61.6263028
 20
13.2
 40
3.8500017296
100
AcDbArc
 50
335.9415192438
 51
2.5540682652
  0
ARC
  5
67E
100
AcDbEntity
  8
IMPORT_IGES
100
AcDbCircle
 62
250
  6
CONTINUOUS
 10
-61.6263028
 20
13.2
 40
3.8500017296
100
AcDbArc
 50
178.4452850116
 51
203.0529325857
  0
ARC
  5
67F
100
AcDbEntity
  8
IMPORT_IGES
100
AcDbCircle
 62
7
  6
CONTINUOUS
 10
-61.6263028
 20
4.6
 40
3.85
100
AcDbArc
 50
104.2997600835
 51
147.1168301875
  0
ARC
  5
680
100
AcDbEntity
  8
IMPORT_IGES
100
AcDbCircle
 62
7
  6
CONTINUOUS
 10
-61.6263028
 20
4.6
 40
3.85
100
AcDbArc
 50
199.6276114244
 51
229.2797245898
  0
ARC
  5
681
100
AcDbEntity
  8
ASSI
100
AcDbCircle
 62
7
  6
CONTINUOUS
 10
-53.0263028
 20
7.5
 40
2.1
100
AcDbArc
 50
205.2881416632
 51
270.0
  0
ARC
  5
682
100
AcDbEntity
  8
ASSI
100
AcDbCircle
 62
7
  6
CONTINUOUS
 10
-53.0763028
 20
12.5
 40
2.1
100
AcDbArc
 50
90.0
 51
154.7250789394
  0
ARC
  5
683
100
AcDbEntity
  8
ASSI
100
AcDbCircle
 62
7
  6
CONTINUOUS
 10
-53.0763028
 20
12.5
 40
2.1
100
AcDbArc
 50
205.2749210606
 51
270.0
  0
ARC
  5
684
100
AcDbEntity
  8
ASSI
100
AcDbCircle
 62
7
  6
CONTINUOUS
 10
-53.0263028
 20
7.5
 40
2.1
100
AcDbArc
 50
90.0
 51
154.7118583368
  0
ARC
  5
685
100
AcDbEntity
  8
IMPORT_IGES
100
AcDbCircle
 62
7
  6
CONTINUOUS
 10
-55.6763027999
 20
2.5
 40
1.0
100
AcDbArc
 50
117.1567644603
 51
180.0
  0
ARC
  5
686
100
AcDbEntity
  8
IMPORT_IGES
100
AcDbCircle
 62
7
  6
CONTINUOUS
 10
-49.1763028001
 20
2.5
 40
1.0
100
AcDbArc
 50
0.0
 51
72.1091882772
  0
ARC
  5
687
100
AcDbEntity
  8
ASSI
100
AcDbCircle
 62
7
  6
CONTINUOUS
 10
-71.0197290904
 20
2.5
 40
0.7565737096
100
AcDbArc
 50
90.5
 51
269.5
  0
ARC
  5
688
100
AcDbEntity
  8
ASSI
100
AcDbCircle
 62
7
  6
CONTINUOUS
 10
-71.0197290904
 20
7.5
 40
0.7565737096
100
AcDbArc
 50
90.5
 51
269.5
  0
ARC
  5
689
100
AcDbEntity
  8
ASSI
100
AcDbCircle
 62
7
  6
CONTINUOUS
 10
-71.0197290904
 20
12.5
 40
0.7565737096
100
AcDbArc
 50
90.5
 51
269.5
  0
ARC
  5
68A
100
AcDbEntity
  8
IMPORT_IGES
100
AcDbCircle
 62
7
  6
CONTINUOUS
 10
-70.441412791
 20
7.2930299922
 40
0.5999999938
100
AcDbArc
 50
284.0149684102
 51
255.5128889905
  0
CIRCLE
  5
68B
100
AcDbEntity
  8
IMPORT_IGES
100
AcDbCircle
 62
7
  6
CONTINUOUS
 10
-51.776302801
 20
7.5000000126
 40
0.5500000049
  0
CIRCLE
  5
68C
100
AcDbEntity
  8
IMPORT_IGES
100
AcDbCircle
 62
7
  6
CONTINUOUS
 10
-51.776302801
 20
12.4999999948
 40
0.5500000049
  0
ARC
  5
68D
100
AcDbEntity
  8
IMPORT_IGES
100
AcDbCircle
 62
7
  6
CONTINUOUS
 10
-69.1763028001
 20
12.8
 40
0.5
100
AcDbArc
 50
270.0008528174
 51
360.0
  0
CIRCLE
  5
68E
100
AcDbEntity
  8
IMPORT_IGES
100
AcDbCircle
 62
7
  6
CONTINUOUS
 10
-54.8763027986
 20
7.5000000126
 40
0.1500000048
  0
ARC
  5
68F
100
AcDbEntity
  8
ASSI
100
AcDbCircle
 62
7
  6
CONTINUOUS
 10
-63.1758246517
 20
15.5086272662
 40
44.7566439197
100
AcDbArc
 50
239.6710607893
 51
240.0390012346
  0
ARC
  5
690
100
AcDbEntity
  8
ASSI
100
AcDbCircle
 62
7
  6
CONTINUOUS
 10
-73.2763028
 20
21.3359869487
 40
1.0
100
AcDbArc
 50
0.0
 51
89.6666666667
  0
ARC
  5
691
100
AcDbEntity
  8
ASSI
100
AcDbCircle
 62
7
  6
CONTINUOUS
 10
-90.7072039128
 20
21.0615984079
 40
1.0
100
AcDbArc
 50
93.0
 51
171.4241203952
  0
ARC
  5
692
100
AcDbEntity
  8
ASSI
100
AcDbCircle
 62
250
  6
CONTINUOUS
 10
-90.7158932399
 20
21.0615577564
 40
0.500047073
100
AcDbArc
 50
93.0039757689
 51
171.4201446255
  0
ARC
  5
693
100
AcDbEntity
  8
ASSI
100
AcDbCircle
 62
7
  6
CONTINUOUS
 10
-76.7763028
 20
23.4563578147
 40
0.5
100
AcDbArc
 50
0.0
 51
89.6666666667
  0
ARC
  5
694
100
AcDbEntity
  8
ASSI
100
AcDbCircle
 62
7
  6
CONTINUOUS
 10
-86.5263028
 20
24.2369056521
 40
0.25
100
AcDbArc
 50
90.3333333333
 51
180.0
  0
ARC
  5
695
100
AcDbEntity
  8
ASSI
100
AcDbCircle
 62
7
  6
CONTINUOUS
 10
-83.5263028
 20
24.2456323968
 40
0.25
100
AcDbArc
 50
0.0
 51
89.6666666667
  0
ARC
  5
696
100
AcDbEntity
  8
ASSI
100
AcDbCircle
 62
7
  6
CONTINUOUS
 10
-83.5263028
 20
23.8443375673
 40
0.25
100
AcDbArc
 50
300.0
 51
360.0
  0
ARC
  5
697
100
AcDbEntity
  8
ASSI
100
AcDbCircle
 62
7
  6
CONTINUOUS
 10
-86.5263028
 20
23.8443375673
 40
0.25
100
AcDbArc
 50
180.0
 51
240.0
  0
ARC
  5
698
100
AcDbEntity
  8
ASSI
100
AcDbCircle
 62
7
  6
CONTINUOUS
 10
-85.9763028
 20
22.5111812444
 40
0.2
100
AcDbArc
 50
273.0
 51
360.0
  0
ARC
  5
699
100
AcDbEntity
  8
ASSI
100
AcDbCircle
 62
7
  6
CONTINUOUS
 10
-2.7022911198
 20
7.79
 40
90.0
100
AcDbArc
 50
171.4241203952
 51
178.91131468
  0
ARC
  5
69A
100
AcDbEntity
  8
ASSI
100
AcDbCircle
 62
250
  6
CONTINUOUS
 10
-2.7114257464
 20
7.790034528
 40
89.4995909943
100
AcDbArc
 50
171.4241032629
 51
178.9113318123
  0
ARC
  5
69B
100
AcDbEntity
  8
ASSI
100
AcDbCircle
 62
7
  6
CONTINUOUS
 10
407.2236972
 20
0.0
 40
500.0
100
AcDbArc
 50
178.91131468
 51
181.08868532
  0
ARC
  5
69C
100
AcDbEntity
  8
ASSI
100
AcDbCircle
 62
250
  6
CONTINUOUS
 10
407.2602649089
 20
0.0
 40
499.5452857366
100
AcDbArc
 50
178.9114133854
 51
181.0885866146
  0
SPLINE
  5
69D
100
AcDbEntity
  8
ASSI
100
AcDbSpline
 62
7
  6
CONTINUOUS
 70
0
 71
3
 72
8
 73
4
 74
0
 42
0.0000001
 43
0.0000001
 44
0.0000000001
 40
0.0
 40
0.0
 40
0.0
 40
0.0
 40
1.0
 40
1.0
 40
1.0
 40
1.0
 10
-10.0016883365
 20
24.4783879022
 30
0.0
 10
-9.9700334632
 20
24.4924846359
 30
0.0
 10
-9.9346560547
 20
24.5
 30
0.0
 10
-9.9000042308
 20
24.5
 30
0.0
  0
LINE
  5
69E
100
AcDbEntity
  8
ASSI
100
AcDbLine
 62
7
  6
CONTINUOUS
 10
11.15
 20
18.491183651
 11
11.1504363434
 21
18.5
  0
LINE
  5
69F
100
AcDbEntity
  8
ASSI
100
AcDbLine
 62
7
  6
CONTINUOUS
 10
11.1504363434
 20
-18.5
 11
11.15
 21
-18.491183651
  0
LINE
  5
6A0
100
AcDbEntity
  8
ASSI
100
AcDbLine
 62
7
  6
CONTINUOUS
 10
-11.15
 20
18.491183651
 11
-11.1504363434
 21
18.5
  0
LINE
  5
6A1
100
AcDbEntity
  8
ASSI
100
AcDbLine
 62
7
  6
CONTINUOUS
 10
-11.1504363434
 20
-18.5
 11
-11.15
 21
-18.491183651
  0
SPLINE
  5
6A2
100
AcDbEntity
  8
ASSI
100
AcDbSpline
 62
250
  6
CONTINUOUS
 70
0
 71
3
 72
17
 73
13
 74
0
 42
0.0000001
 43
0.0000001
 44
0.0000000001
 40
0.0
 40
0.0
 40
0.0
 40
0.0
 40
0.3787047232
 40
0.5501487631
 40
0.7009072763
 40
0.8253969502
 40
0.8762295173
 40
0.9188347159
 40
0.9527905956
 40
0.9777498579
 40
0.9935325946
 40
1.0
 40
1.0
 40
1.0
 40
1.0
 10
-3.0346403512
 20
-4.2525515313
 30
0.0
 10
-2.996771107
 20
-4.25254591
 30
0.0
 10
-2.9417581075
 20
-4.2524530508
 30
0.0
 10
-2.8716699312
 20
-4.252137364
 30
0.0
 10
-2.8270040973
 20
-4.2518294296
 30
0.0
 10
-2.7943962411
 20
-4.2515148657
 30
0.0
 10
-2.772609935
 20
-4.2512062068
 30
0.0
 10
-2.7598646789
 20
-4.2510083486
 30
0.0
 10
-2.7497371642
 20
-4.2507285471
 30
0.0
 10
-2.7422195425
 20
-4.250633293
 30
0.0
 10
-2.7376003248
 20
-4.2501729465
 30
0.0
 10
-2.7352673796
 20
-4.2502833622
 30
0.0
 10
-2.7346860419
 20
-4.2500000027
 30
0.0
  0
SPLINE
  5
6A3
100
AcDbEntity
  8
ASSI
100
AcDbSpline
 62
250
  6
CONTINUOUS
 70
0
 71
3
 72
14
 73
10
 74
0
 42
0.0000001
 43
0.0000001
 44
0.0000000001
 40
0.0
 40
0.0
 40
0.0
 40
0.0
 40
0.3787418232
 40
0.5502014125
 40
0.7009719161
 40
0.8254686566
 40
0.9189064083
 40
0.9778097014
 40
1.0
 40
1.0
 40
1.0
 40
1.0
 10
-4.9536231778
 20
1.8573998792
 30
0.0
 10
-4.9157539979
 20
1.8573974237
 30
0.0
 10
-4.8607398596
 20
1.8573659845
 30
0.0
 10
-4.7906550911
 20
1.857205964
 30
0.0
 10
-4.7459812518
 20
1.8571243008
 30
0.0
 10
-4.7091362497
 20
1.8568209226
 30
0.0
 10
-4.6814074746
 20
1.8569950451
 30
0.0
 10
-4.6640497177
 20
1.8561630772
 30
0.0
 10
-4.6558389754
 20
1.8567474267
 30
0.0
 10
-4.6536688693
 20
1.8562854393
 30
0.0
  0
SPLINE
  5
6A4
100
AcDbEntity
  8
ASSI
100
AcDbSpline
 62
250
  6
CONTINUOUS
 70
0
 71
3
 72
8
 73
4
 74
0
 42
0.0000001
 43
0.0000001
 44
0.0000000001
 40
0.0
 40
0.0
 40
0.0
 40
0.0
 40
1.0
 40
1.0
 40
1.0
 40
1.0
 10
8.9327353188
 20
7.5427810103
 30
0.0
 10
8.933234797
 20
5.6472825269
 30
0.0
 10
8.9335459604
 20
3.7517839845
 30
0.0
 10
8.9336688693
 20
1.8562854393
 30
0.0
  0
SPLINE
  5
6A5
100
AcDbEntity
  8
ASSI
100
AcDbSpline
 62
250
  6
CONTINUOUS
 70
0
 71
3
 72
14
 73
10
 74
0
 42
0.0000001
 43
0.0000001
 44
0.0000000001
 40
0.0
 40
0.0
 40
0.0
 40
0.0
 40
0.0268548358
 40
0.0860913706
 40
0.1788137636
 40
0.3022813847
 40
0.4520250568
 40
0.6226018848
 40
1.0
 40
1.0
 40
1.0
 40
1.0
 10
-7.2572807489
 20
-22.5346275426
 30
0.0
 10
-7.2574214819
 20
-22.5323657636
 30
0.0
 10
-7.2655274075
 20
-22.5282853429
 30
0.0
 10
-7.2789091228
 20
-22.5249400123
 30
0.0
 10
-7.3025084749
 20
-22.5209434935
 30
0.0
 10
-7.3329481757
 20
-22.5176882155
 30
0.0
 10
-7.3703925521
 20
-22.5148498241
 30
0.0
 10
-7.42916331
 20
-22.5119794572
 30
0.0
 10
-7.4754296682
 20
-22.511179946
 30
0.0
 10
-7.5072765181
 20
-22.5111812444
 30
0.0
  0
SPLINE
  5
6A6
100
AcDbEntity
  8
ASSI
100
AcDbSpline
 62
250
  6
CONTINUOUS
 70
0
 71
3
 72
18
 73
14
 74
0
 42
0.0000001
 43
0.0000001
 44
0.0000000001
 40
0.0
 40
0.0
 40
0.0
 40
0.0
 40
0.0073666623
 40
0.0229747249
 40
0.047554672
 40
0.0810672066
 40
0.1232373162
 40
0.1737351182
 40
0.2977518257
 40
0.448497376
 40
0.6201868947
 40
0.806467526
 40
1.0
 40
1.0
 40
1.0
 40
1.0
 10
-7.0572841335
 20
-22.3349016357
 30
0.0
 10
-7.0574086539
 20
-22.3337985144
 30
0.0
 10
-7.061063769
 20
-22.3317493442
 30
0.0
 10
-7.0674866483
 20
-22.32993348
 30
0.0
 10
-7.0786436496
 20
-22.3277211736
 30
0.0
 10
-7.0935094487
 20
-22.3256874768
 30
0.0
 10
-7.1124568153
 20
-22.3236430592
 30
0.0
 10
-7.1449768068
 20
-22.320882372
 30
0.0
 10
-7.193919847
 20
-22.3179162065
 30
0.0
 10
-7.2611378592
 20
-22.3151234182
 30
0.0
 10
-7.3377747743
 20
-22.3130365143
 30
0.0
 10
-7.4208749875
 20
-22.3117435306
 30
0.0
 10
-7.4781119386
 20
-22.3114508357
 30
0.0
 10
-7.5072765181
 20
-22.3114553375
 30
0.0
  0
SPLINE
  5
6A7
100
AcDbEntity
  8
ASSI
100
AcDbSpline
 62
250
  6
CONTINUOUS
 70
0
 71
3
 72
14
 73
10
 74
0
 42
0.0000001
 43
0.0000001
 44
0.0000000001
 40
0.0
 40
0.0
 40
0.0
 40
0.0
 40
0.3773981168
 40
0.5479749443
 40
0.6977186167
 40
0.8211862384
 40
0.9139086312
 40
0.9731451689
 40
1.0
 40
1.0
 40
1.0
 40
1.0
 10
-9.8927234819
 20
-22.5111812444
 30
0.0
 10
-9.9245703319
 20
-22.5111799476
 30
0.0
 10
-9.97083669
 20
-22.5119794589
 30
0.0
 10
-10.029607448
 20
-22.5148498231
 30
0.0
 10
-10.0670518245
 20
-22.5176882147
 30
0.0
 10
-10.0974915246
 20
-22.5209434943
 30
0.0
 10
-10.1210908783
 20
-22.5249400112
 30
0.0
 10
-10.134472591
 20
-22.5282853452
 30
0.0
 10
-10.1425785185
 20
-22.532365764
 30
0.0
 10
-10.1427192511
 20
-22.5346275426
 30
0.0
  0
SPLINE
  5
6A8
100
AcDbEntity
  8
ASSI
100
AcDbSpline
 62
250
  6
CONTINUOUS
 70
0
 71
3
 72
18
 73
14
 74
0
 42
0.0000001
 43
0.0000001
 44
0.0000000001
 40
0.0
 40
0.0
 40
0.0
 40
0.0
 40
0.1935324682
 40
0.3798131097
 40
0.5515026341
 40
0.7022481708
 40
0.8262648799
 40
0.8767626798
 40
0.9189327829
 40
0.9524453131
 40
0.9770252644
 40
0.9926333356
 40
1.0
 40
1.0
 40
1.0
 40
1.0
 10
-9.8927234819
 20
-22.3114553375
 30
0.0
 10
-9.9218880605
 20
-22.3114508451
 30
0.0
 10
-9.9791250121
 20
-22.3117435338
 30
0.0
 10
-10.0622252269
 20
-22.3130365113
 30
0.0
 10
-10.1388621422
 20
-22.3151234186
 30
0.0
 10
-10.2060801534
 20
-22.3179162067
 30
0.0
 10
-10.2550231914
 20
-22.3208823718
 30
0.0
 10
-10.2875431818
 20
-22.323643059
 30
0.0
 10
-10.3064905465
 20
-22.3256874769
 30
0.0
 10
-10.3213563442
 20
-22.3277211739
 30
0.0
 10
-10.3325133476
 20
-22.3299334805
 30
0.0
 10
-10.3389362274
 20
-22.3317493439
 30
0.0
 10
-10.3425913471
 20
-22.333798514
 30
0.0
 10
-10.3427158665
 20
-22.3349016357
 30
0.0
  0
SPLINE
  5
6A9
100
AcDbEntity
  8
ASSI
100
AcDbSpline
 62
250
  6
CONTINUOUS
 70
0
 71
3
 72
14
 73
10
 74
0
 42
0.0000001
 43
0.0000001
 44
0.0000000001
 40
0.0
 40
0.0
 40
0.0
 40
0.0
 40
0.0268548358
 40
0.0860913706
 40
0.1788137636
 40
0.3022813847
 40
0.4520250568
 40
0.6226018848
 40
1.0
 40
1.0
 40
1.0
 40
1.0
 10
10.1427192511
 20
-22.5346275426
 30
0.0
 10
10.1425785181
 20
-22.5323657636
 30
0.0
 10
10.1344725925
 20
-22.5282853429
 30
0.0
 10
10.1210908772
 20
-22.5249400123
 30
0.0
 10
10.0974915251
 20
-22.5209434935
 30
0.0
 10
10.0670518243
 20
-22.5176882155
 30
0.0
 10
10.0296074479
 20
-22.5148498241
 30
0.0
 10
9.97083669
 20
-22.5119794572
 30
0.0
 10
9.9245703318
 20
-22.511179946
 30
0.0
 10
9.8927234819
 20
-22.5111812444
 30
0.0
  0
SPLINE
  5
6AA
100
AcDbEntity
  8
ASSI
100
AcDbSpline
 62
250
  6
CONTINUOUS
 70
0
 71
3
 72
18
 73
14
 74
0
 42
0.0000001
 43
0.0000001
 44
0.0000000001
 40
0.0
 40
0.0
 40
0.0
 40
0.0
 40
0.0073666623
 40
0.0229747249
 40
0.047554672
 40
0.0810672066
 40
0.1232373162
 40
0.1737351182
 40
0.2977518257
 40
0.448497376
 40
0.6201868947
 40
0.806467526
 40
1.0
 40
1.0
 40
1.0
 40
1.0
 10
10.3427158665
 20
-22.3349016357
 30
0.0
 10
10.3425913461
 20
-22.3337985144
 30
0.0
 10
10.338936231
 20
-22.3317493442
 30
0.0
 10
10.3325133517
 20
-22.32993348
 30
0.0
 10
10.3213563504
 20
-22.3277211736
 30
0.0
 10
10.3064905513
 20
-22.3256874768
 30
0.0
 10
10.2875431847
 20
-22.3236430592
 30
0.0
 10
10.2550231932
 20
-22.320882372
 30
0.0
 10
10.206080153
 20
-22.3179162065
 30
0.0
 10
10.1388621408
 20
-22.3151234182
 30
0.0
 10
10.0622252257
 20
-22.3130365143
 30
0.0
 10
9.9791250125
 20
-22.3117435306
 30
0.0
 10
9.9218880614
 20
-22.3114508357
 30
0.0
 10
9.8927234819
 20
-22.3114553375
 30
0.0
  0
SPLINE
  5
6AB
100
AcDbEntity
  8
ASSI
100
AcDbSpline
 62
250
  6
CONTINUOUS
 70
0
 71
3
 72
14
 73
10
 74
0
 42
0.0000001
 43
0.0000001
 44
0.0000000001
 40
0.0
 40
0.0
 40
0.0
 40
0.0
 40
0.3773981168
 40
0.5479749443
 40
0.6977186167
 40
0.8211862384
 40
0.9139086312
 40
0.9731451689
 40
1.0
 40
1.0
 40
1.0
 40
1.0
 10
7.5072765181
 20
-22.5111812444
 30
0.0
 10
7.4754296681
 20
-22.5111799476
 30
0.0
 10
7.42916331
 20
-22.5119794589
 30
0.0
 10
7.370392552
 20
-22.5148498231
 30
0.0
 10
7.3329481755
 20
-22.5176882147
 30
0.0
 10
7.3025084754
 20
-22.5209434943
 30
0.0
 10
7.2789091217
 20
-22.5249400112
 30
0.0
 10
7.265527409
 20
-22.5282853452
 30
0.0
 10
7.2574214815
 20
-22.532365764
 30
0.0
 10
7.2572807489
 20
-22.5346275426
 30
0.0
  0
SPLINE
  5
6AC
100
AcDbEntity
  8
ASSI
100
AcDbSpline
 62
250
  6
CONTINUOUS
 70
0
 71
3
 72
18
 73
14
 74
0
 42
0.0000001
 43
0.0000001
 44
0.0000000001
 40
0.0
 40
0.0
 40
0.0
 40
0.0
 40
0.1935324682
 40
0.3798131097
 40
0.5515026341
 40
0.7022481708
 40
0.8262648799
 40
0.8767626798
 40
0.9189327829
 40
0.9524453131
 40
0.9770252644
 40
0.9926333356
 40
1.0
 40
1.0
 40
1.0
 40
1.0
 10
7.5072765181
 20
-22.3114553375
 30
0.0
 10
7.4781119395
 20
-22.3114508451
 30
0.0
 10
7.4208749879
 20
-22.3117435338
 30
0.0
 10
7.3377747731
 20
-22.3130365113
 30
0.0
 10
7.2611378578
 20
-22.3151234186
 30
0.0
 10
7.1939198466
 20
-22.3179162067
 30
0.0
 10
7.1449768086
 20
-22.3208823718
 30
0.0
 10
7.1124568182
 20
-22.323643059
 30
0.0
 10
7.0935094535
 20
-22.3256874769
 30
0.0
 10
7.0786436558
 20
-22.3277211739
 30
0.0
 10
7.0674866524
 20
-22.3299334805
 30
0.0
 10
7.0610637726
 20
-22.3317493439
 30
0.0
 10
7.0574086529
 20
-22.333798514
 30
0.0
 10
7.0572841335
 20
-22.3349016357
 30
0.0
  0
SPLINE
  5
6AD
100
AcDbEntity
  8
ASSI
100
AcDbSpline
 62
250
  6
CONTINUOUS
 70
0
 71
3
 72
14
 73
10
 74
0
 42
0.0000001
 43
0.0000001
 44
0.0000000001
 40
0.0
 40
0.0
 40
0.0
 40
0.0
 40
0.0268548358
 40
0.0860913706
 40
0.1788137636
 40
0.3022813847
 40
0.4520250568
 40
0.6226018848
 40
1.0
 40
1.0
 40
1.0
 40
1.0
 10
-10.1427192511
 20
22.5346275426
 30
0.0
 10
-10.1425785181
 20
22.5323657636
 30
0.0
 10
-10.1344725925
 20
22.5282853429
 30
0.0
 10
-10.1210908772
 20
22.5249400123
 30
0.0
 10
-10.0974915251
 20
22.5209434935
 30
0.0
 10
-10.0670518243
 20
22.5176882155
 30
0.0
 10
-10.0296074479
 20
22.5148498241
 30
0.0
 10
-9.97083669
 20
22.5119794572
 30
0.0
 10
-9.9245703318
 20
22.511179946
 30
0.0
 10
-9.8927234819
 20
22.5111812444
 30
0.0
  0
SPLINE
  5
6AE
100
AcDbEntity
  8
ASSI
100
AcDbSpline
 62
250
  6
CONTINUOUS
 70
0
 71
3
 72
18
 73
14
 74
0
 42
0.0000001
 43
0.0000001
 44
0.0000000001
 40
0.0
 40
0.0
 40
0.0
 40
0.0
 40
0.0073666623
 40
0.0229747249
 40
0.047554672
 40
0.0810672066
 40
0.1232373162
 40
0.1737351182
 40
0.2977518257
 40
0.448497376
 40
0.6201868947
 40
0.806467526
 40
1.0
 40
1.0
 40
1.0
 40
1.0
 10
-10.3427158665
 20
22.3349016357
 30
0.0
 10
-10.3425913461
 20
22.3337985144
 30
0.0
 10
-10.338936231
 20
22.3317493442
 30
0.0
 10
-10.3325133517
 20
22.32993348
 30
0.0
 10
-10.3213563504
 20
22.3277211736
 30
0.0
 10
-10.3064905513
 20
22.3256874768
 30
0.0
 10
-10.2875431847
 20
22.3236430592
 30
0.0
 10
-10.2550231932
 20
22.320882372
 30
0.0
 10
-10.206080153
 20
22.3179162065
 30
0.0
 10
-10.1388621408
 20
22.3151234182
 30
0.0
 10
-10.0622252257
 20
22.3130365143
 30
0.0
 10
-9.9791250125
 20
22.3117435306
 30
0.0
 10
-9.9218880614
 20
22.3114508357
 30
0.0
 10
-9.8927234819
 20
22.3114553375
 30
0.0
  0
SPLINE
  5
6AF
100
AcDbEntity
  8
ASSI
100
AcDbSpline
 62
250
  6
CONTINUOUS
 70
0
 71
3
 72
14
 73
10
 74
0
 42
0.0000001
 43
0.0000001
 44
0.0000000001
 40
0.0
 40
0.0
 40
0.0
 40
0.0
 40
0.3773981168
 40
0.5479749443
 40
0.6977186167
 40
0.8211862384
 40
0.9139086312
 40
0.9731451689
 40
1.0
 40
1.0
 40
1.0
 40
1.0
 10
-7.5072765181
 20
22.5111812444
 30
0.0
 10
-7.4754296681
 20
22.5111799476
 30
0.0
 10
-7.42916331
 20
22.5119794589
 30
0.0
 10
-7.370392552
 20
22.5148498231
 30
0.0
 10
-7.3329481755
 20
22.5176882147
 30
0.0
 10
-7.3025084754
 20
22.5209434943
 30
0.0
 10
-7.2789091217
 20
22.5249400112
 30
0.0
 10
-7.265527409
 20
22.5282853452
 30
0.0
 10
-7.2574214815
 20
22.532365764
 30
0.0
 10
-7.2572807489
 20
22.5346275426
 30
0.0
  0
SPLINE
  5
6B0
100
AcDbEntity
  8
ASSI
100
AcDbSpline
 62
250
  6
CONTINUOUS
 70
0
 71
3
 72
18
 73
14
 74
0
 42
0.0000001
 43
0.0000001
 44
0.0000000001
 40
0.0
 40
0.0
 40
0.0
 40
0.0
 40
0.1935324682
 40
0.3798131097
 40
0.5515026341
 40
0.7022481708
 40
0.8262648799
 40
0.8767626798
 40
0.9189327829
 40
0.9524453131
 40
0.9770252644
 40
0.9926333356
 40
1.0
 40
1.0
 40
1.0
 40
1.0
 10
-7.5072765181
 20
22.3114553375
 30
0.0
 10
-7.4781119395
 20
22.3114508451
 30
0.0
 10
-7.4208749879
 20
22.3117435338
 30
0.0
 10
-7.3377747731
 20
22.3130365113
 30
0.0
 10
-7.2611378578
 20
22.3151234186
 30
0.0
 10
-7.1939198466
 20
22.3179162067
 30
0.0
 10
-7.1449768086
 20
22.3208823718
 30
0.0
 10
-7.1124568182
 20
22.323643059
 30
0.0
 10
-7.0935094535
 20
22.3256874769
 30
0.0
 10
-7.0786436558
 20
22.3277211739
 30
0.0
 10
-7.0674866524
 20
22.3299334805
 30
0.0
 10
-7.0610637726
 20
22.3317493439
 30
0.0
 10
-7.0574086529
 20
22.333798514
 30
0.0
 10
-7.0572841335
 20
22.3349016357
 30
0.0
  0
SPLINE
  5
6B1
100
AcDbEntity
  8
ASSI
100
AcDbSpline
 62
250
  6
CONTINUOUS
 70
0
 71
3
 72
14
 73
10
 74
0
 42
0.0000001
 43
0.0000001
 44
0.0000000001
 40
0.0
 40
0.0
 40
0.0
 40
0.0
 40
0.3787425017
 40
0.5502023257
 40
0.7009729509
 40
0.8254696713
 40
0.9189072488
 40
0.9778102006
 40
1.0
 40
1.0
 40
1.0
 40
1.0
 10
9.2336231468
 20
1.8573998747
 30
0.0
 10
9.195753901
 20
1.8573974183
 30
0.0
 10
9.1407396736
 20
1.85736598
 30
0.0
 10
9.0706548063
 20
1.8572059533
 30
0.0
 10
9.0259809331
 20
1.857124301
 30
0.0
 10
8.9891359471
 20
1.856820891
 30
0.0
 10
8.9614072103
 20
1.8569950895
 30
0.0
 10
8.9440495864
 20
1.8561629842
 30
0.0
 10
8.9358388951
 20
1.8567474826
 30
0.0
 10
8.9336688534
 20
1.8562854328
 30
0.0
  0
SPLINE
  5
6B2
100
AcDbEntity
  8
ASSI
100
AcDbSpline
 62
250
  6
CONTINUOUS
 70
0
 71
3
 72
18
 73
14
 74
0
 42
0.0000001
 43
0.0000001
 44
0.0000000001
 40
0.0
 40
0.0
 40
0.0
 40
0.0
 40
0.1927482479
 40
0.3786096259
 40
0.5500137353
 40
0.7007416121
 40
0.8252135353
 40
0.8760437015
 40
0.9186520338
 40
0.9526183357
 40
0.9775988301
 40
0.9934228317
 40
1.0
 40
1.0
 40
1.0
 40
1.0
 10
9.2326896274
 20
7.5473093959
 30
0.0
 10
9.213410482
 20
7.5473043169
 30
0.0
 10
9.1755409717
 20
7.5472393863
 30
0.0
 10
9.1205280055
 20
7.5469811457
 30
0.0
 10
9.0697180998
 20
7.5465738871
 30
0.0
 10
9.0250529862
 20
7.5460288208
 30
0.0
 10
8.9924421167
 20
7.5454672804
 30
0.0
 10
8.9706609074
 20
7.5449246509
 30
0.0
 10
8.9579050355
 20
7.5445621403
 30
0.0
 10
8.9478038874
 20
7.5440957786
 30
0.0
 10
8.9402197233
 20
7.5438552921
 30
0.0
 10
8.9357142515
 20
7.5431710341
 30
0.0
 10
8.9332328374
 20
7.5432114296
 30
0.0
 10
8.9327353188
 20
7.5427810103
 30
0.0
  0
LINE
  5
6B3
100
AcDbEntity
  8
ASSI
100
AcDbLine
 62
250
  6
CONTINUOUS
 10
-2.7345382775
 20
-5.15
 11
-2.7346860426
 21
-4.25
  0
SPLINE
  5
6B4
100
AcDbEntity
  8
ASSI
100
AcDbSpline
 62
250
  6
CONTINUOUS
 70
0
 71
3
 72
14
 73
10
 74
0
 42
0.0000001
 43
0.0000001
 44
0.0000000001
 40
0.0
 40
0.0
 40
0.0
 40
0.0
 40
0.0268548358
 40
0.0860913706
 40
0.1788137636
 40
0.3022813847
 40
0.4520250568
 40
0.6226018848
 40
1.0
 40
1.0
 40
1.0
 40
1.0
 10
7.2572807489
 20
22.5346275426
 30
0.0
 10
7.2574214819
 20
22.5323657636
 30
0.0
 10
7.2655274075
 20
22.5282853429
 30
0.0
 10
7.2789091228
 20
22.5249400123
 30
0.0
 10
7.3025084749
 20
22.5209434935
 30
0.0
 10
7.3329481757
 20
22.5176882155
 30
0.0
 10
7.3703925521
 20
22.5148498241
 30
0.0
 10
7.42916331
 20
22.5119794572
 30
0.0
 10
7.4754296682
 20
22.511179946
 30
0.0
 10
7.5072765181
 20
22.5111812444
 30
0.0
  0
SPLINE
  5
6B5
100
AcDbEntity
  8
ASSI
100
AcDbSpline
 62
250
  6
CONTINUOUS
 70
0
 71
3
 72
18
 73
14
 74
0
 42
0.0000001
 43
0.0000001
 44
0.0000000001
 40
0.0
 40
0.0
 40
0.0
 40
0.0
 40
0.0073666623
 40
0.0229747249
 40
0.047554672
 40
0.0810672066
 40
0.1232373162
 40
0.1737351182
 40
0.2977518257
 40
0.448497376
 40
0.6201868947
 40
0.806467526
 40
1.0
 40
1.0
 40
1.0
 40
1.0
 10
7.0572841335
 20
22.3349016357
 30
0.0
 10
7.0574086539
 20
22.3337985144
 30
0.0
 10
7.061063769
 20
22.3317493442
 30
0.0
 10
7.0674866483
 20
22.32993348
 30
0.0
 10
7.0786436496
 20
22.3277211736
 30
0.0
 10
7.0935094487
 20
22.3256874768
 30
0.0
 10
7.1124568153
 20
22.3236430592
 30
0.0
 10
7.1449768068
 20
22.320882372
 30
0.0
 10
7.193919847
 20
22.3179162065
 30
0.0
 10
7.2611378592
 20
22.3151234182
 30
0.0
 10
7.3377747743
 20
22.3130365143
 30
0.0
 10
7.4208749875
 20
22.3117435306
 30
0.0
 10
7.4781119386
 20
22.3114508357
 30
0.0
 10
7.5072765181
 20
22.3114553375
 30
0.0
  0
SPLINE
  5
6B6
100
AcDbEntity
  8
ASSI
100
AcDbSpline
 62
250
  6
CONTINUOUS
 70
0
 71
3
 72
14
 73
10
 74
0
 42
0.0000001
 43
0.0000001
 44
0.0000000001
 40
0.0
 40
0.0
 40
0.0
 40
0.0
 40
0.3773981168
 40
0.5479749443
 40
0.6977186167
 40
0.8211862384
 40
0.9139086312
 40
0.9731451689
 40
1.0
 40
1.0
 40
1.0
 40
1.0
 10
9.8927234819
 20
22.5111812444
 30
0.0
 10
9.9245703319
 20
22.5111799476
 30
0.0
 10
9.97083669
 20
22.5119794589
 30
0.0
 10
10.029607448
 20
22.5148498231
 30
0.0
 10
10.0670518245
 20
22.5176882147
 30
0.0
 10
10.0974915246
 20
22.5209434943
 30
0.0
 10
10.1210908783
 20
22.5249400112
 30
0.0
 10
10.134472591
 20
22.5282853452
 30
0.0
 10
10.1425785185
 20
22.532365764
 30
0.0
 10
10.1427192511
 20
22.5346275426
 30
0.0
  0
SPLINE
  5
6B7
100
AcDbEntity
  8
ASSI
100
AcDbSpline
 62
7
  6
CONTINUOUS
 70
0
 71
3
 72
11
 73
7
 74
0
 42
0.0000001
 43
0.0000001
 44
0.0000000001
 40
0.0
 40
0.0
 40
0.0
 40
0.0
 40
0.327146023
 40
0.6070324572
 40
0.8253457233
 40
1.0
 40
1.0
 40
1.0
 40
1.0
 10
7.5072765181
 20
-23.1226497308
 30
0.0
 10
7.4731584788
 20
-23.1226497308
 30
0.0
 10
7.4095320655
 20
-23.1303597588
 30
0.0
 10
7.3283940244
 20
-23.1618583379
 30
0.0
 10
7.2728270032
 20
-23.2077655042
 30
0.0
 10
7.2574642802
 20
-23.2487735386
 30
0.0
 10
7.2572807489
 20
-23.2669872981
 30
0.0
  0
SPLINE
  5
6B8
100
AcDbEntity
  8
ASSI
100
AcDbSpline
 62
250
  6
CONTINUOUS
 70
0
 71
3
 72
18
 73
14
 74
0
 42
0.0000001
 43
0.0000001
 44
0.0000000001
 40
0.0
 40
0.0
 40
0.0
 40
0.0
 40
0.1935324682
 40
0.3798131097
 40
0.5515026341
 40
0.7022481708
 40
0.8262648799
 40
0.8767626798
 40
0.9189327829
 40
0.9524453131
 40
0.9770252644
 40
0.9926333356
 40
1.0
 40
1.0
 40
1.0
 40
1.0
 10
9.8927234819
 20
22.3114553375
 30
0.0
 10
9.9218880605
 20
22.3114508451
 30
0.0
 10
9.9791250121
 20
22.3117435338
 30
0.0
 10
10.0622252269
 20
22.3130365113
 30
0.0
 10
10.1388621422
 20
22.3151234186
 30
0.0
 10
10.2060801534
 20
22.3179162067
 30
0.0
 10
10.2550231914
 20
22.3208823718
 30
0.0
 10
10.2875431818
 20
22.323643059
 30
0.0
 10
10.3064905465
 20
22.3256874769
 30
0.0
 10
10.3213563442
 20
22.3277211739
 30
0.0
 10
10.3325133476
 20
22.3299334805
 30
0.0
 10
10.3389362274
 20
22.3317493439
 30
0.0
 10
10.3425913471
 20
22.333798514
 30
0.0
 10
10.3427158665
 20
22.3349016357
 30
0.0
  0
SPLINE
  5
6B9
100
AcDbEntity
  8
ASSI
100
AcDbSpline
 62
250
  6
CONTINUOUS
 70
0
 71
3
 72
8
 73
4
 74
0
 42
0.0000001
 43
0.0000001
 44
0.0000000001
 40
0.0
 40
0.0
 40
0.0
 40
0.0
 40
1.0
 40
1.0
 40
1.0
 40
1.0
 10
-4.6536688693
 20
1.8562854393
 30
0.0
 10
-4.6535459604
 20
3.7517839845
 30
0.0
 10
-4.653234797
 20
5.6472825269
 30
0.0
 10
-4.6527353188
 20
7.5427810103
 30
0.0
  0
LINE
  5
6BA
100
AcDbEntity
  8
ASSI
100
AcDbLine
 62
250
  6
CONTINUOUS
 10
7.0346860426
 20
-4.25
 11
7.0345382775
 21
-5.15
  0
SPLINE
  5
6BB
100
AcDbEntity
  8
ASSI
100
AcDbSpline
 62
250
  6
CONTINUOUS
 70
0
 71
3
 72
16
 73
12
 74
0
 42
0.0000001
 43
0.0000001
 44
0.0000000001
 40
0.0
 40
0.0
 40
0.0
 40
0.0
 40
0.0096034029
 40
0.0277120834
 40
0.0542082087
 40
0.0889082672
 40
0.1818097916
 40
0.3037289099
 40
0.4511155323
 40
0.6196158753
 40
1.0
 40
1.0
 40
1.0
 40
1.0
 10
-10.5363423382
 20
-22.0602279426
 30
0.0
 10
-10.5358954894
 20
-22.0575451952
 30
0.0
 10
-10.535460696
 20
-22.0496881012
 30
0.0
 10
-10.5347062763
 20
-22.0343689925
 30
0.0
 10
-10.5340615806
 20
-22.0119108905
 30
0.0
 10
-10.5330348847
 20
-21.9682861724
 30
0.0
 10
-10.5319467916
 20
-21.8976258966
 30
0.0
 10
-10.530803903
 20
-21.7950556013
 30
0.0
 10
-10.5298289541
 20
-21.6710709646
 30
0.0
 10
-10.5287298374
 20
-21.4738884775
 30
0.0
 10
-10.5283111529
 20
-21.3184431141
 30
0.0
 10
-10.5281693342
 20
-21.2107174911
 30
0.0
  0
SPLINE
  5
6BC
100
AcDbEntity
  8
ASSI
100
AcDbSpline
 62
250
  6
CONTINUOUS
 70
0
 71
3
 72
15
 73
11
 74
0
 42
0.0000001
 43
0.0000001
 44
0.0000000001
 40
0.0
 40
0.0
 40
0.0
 40
0.0
 40
0.0097164539
 40
0.0278790752
 40
0.0891012831
 40
0.1820015492
 40
0.3039224236
 40
0.4512319513
 40
0.6196954159
 40
1.0
 40
1.0
 40
1.0
 40
1.0
 10
-11.036266885
 20
-21.5609147213
 30
0.0
 10
-11.0358318057
 20
-21.5596089654
 30
0.0
 10
-11.0353779938
 20
-21.5556477616
 30
0.0
 10
-11.0341815364
 20
-21.5431208727
 30
0.0
 10
-11.0331478188
 20
-21.5186936899
 30
0.0
 10
-11.0318402236
 20
-21.4796368226
 30
0.0
 10
-11.0307399793
 20
-21.4283425924
 30
0.0
 10
-11.0297489859
 20
-21.3663545647
 30
0.0
 10
-11.0286565873
 20
-21.2677596448
 30
0.0
 10
-11.0282349852
 20
-21.1900278044
 30
0.0
 10
-11.0280931818
 20
-21.1361579495
 30
0.0
  0
SPLINE
  5
6BD
100
AcDbEntity
  8
ASSI
100
AcDbSpline
 62
250
  6
CONTINUOUS
 70
0
 71
3
 72
14
 73
10
 74
0
 42
0.0000001
 43
0.0000001
 44
0.0000000001
 40
0.0
 40
0.0
 40
0.0
 40
0.0
 40
0.0353213137
 40
0.0631901565
 40
0.0987850655
 40
0.1930292503
 40
0.3160915379
 40
0.6312757632
 40
1.0
 40
1.0
 40
1.0
 40
1.0
 10
-11.0280931818
 20
-21.1361579495
 30
0.0
 10
-11.0273978275
 20
-21.1421673778
 30
0.0
 10
-11.0181351919
 20
-21.1506539356
 30
0.0
 10
-11.0035842867
 20
-21.1583611103
 30
0.0
 10
-10.9781912631
 20
-21.1683024848
 30
0.0
 10
-10.9362188816
 20
-21.1789027885
 30
0.0
 10
-10.8462666871
 20
-21.1945678235
 30
0.0
 10
-10.7084587888
 20
-21.2069700911
 30
0.0
 10
-10.5913209745
 20
-21.2105549523
 30
0.0
 10
-10.5281693342
 20
-21.2107174908
 30
0.0
  0
SPLINE
  5
6BE
100
AcDbEntity
  8
ASSI
100
AcDbSpline
 62
250
  6
CONTINUOUS
 70
0
 71
3
 72
18
 73
14
 74
0
 42
0.0000001
 43
0.0000001
 44
0.0000000001
 40
0.0
 40
0.0
 40
0.0
 40
0.0
 40
0.0066636352
 40
0.0225153708
 40
0.0475290711
 40
0.0815045715
 40
0.1240988022
 40
0.1749434568
 40
0.2993683257
 40
0.4501254541
 40
0.6214885398
 40
0.8071953074
 40
1.0
 40
1.0
 40
1.0
 40
1.0
 10
-11.0109082972
 20
-9.4905
 30
0.0
 10
-11.0101568009
 20
-9.4913184077
 30
0.0
 10
-11.0059051972
 20
-9.491413776
 30
0.0
 10
-10.9984782064
 20
-9.4926986534
 30
0.0
 10
-10.9857841861
 20
-9.4932826796
 30
0.0
 10
-10.9689686971
 20
-9.4942265529
 30
0.0
 10
-10.9477005945
 20
-9.4950004592
 30
0.0
 10
-10.9114081276
 20
-9.4961319966
 30
0.0
 10
-10.8570477261
 20
-9.4973159649
 30
0.0
 10
-10.782603357
 20
-9.4984559917
 30
0.0
 10
-10.6979306064
 20
-9.4993112976
 30
0.0
 10
-10.6062461006
 20
-9.4998536371
 30
0.0
 10
-10.5431327923
 20
-9.49998934
 30
0.0
 10
-10.5109844497
 20
-9.5
 30
0.0
  0
SPLINE
  5
6BF
100
AcDbEntity
  8
ASSI
100
AcDbSpline
 62
250
  6
CONTINUOUS
 70
0
 71
3
 72
9
 73
5
 74
0
 42
0.0000001
 43
0.0000001
 44
0.0000000001
 40
0.0
 40
0.0
 40
0.0
 40
0.0
 40
0.2499885515
 40
1.0
 40
1.0
 40
1.0
 40
1.0
 10
-11.0109082972
 20
-9.4905
 30
0.0
 10
-11.0103836454
 20
-7.9088225052
 30
0.0
 10
-11.0088098086
 20
-1.5818226249
 30
0.0
 10
-11.0093342455
 20
4.7451777776
 30
0.0
 10
-11.0109082972
 20
9.4905
 30
0.0
  0
SPLINE
  5
6C0
100
AcDbEntity
  8
ASSI
100
AcDbSpline
 62
250
  6
CONTINUOUS
 70
0
 71
3
 72
18
 73
14
 74
0
 42
0.0000001
 43
0.0000001
 44
0.0000000001
 40
0.0
 40
0.0
 40
0.0
 40
0.0
 40
0.0066636355
 40
0.0225153715
 40
0.0475290721
 40
0.0815045727
 40
0.1240988036
 40
0.1749434583
 40
0.2993683272
 40
0.4501254555
 40
0.6214885408
 40
0.8071953079
 40
1.0
 40
1.0
 40
1.0
 40
1.0
 10
-11.0109082972
 20
9.4905
 30
0.0
 10
-11.0101568007
 20
9.4913184077
 30
0.0
 10
-11.0059051971
 20
9.491413776
 30
0.0
 10
-10.998478206
 20
9.4926986534
 30
0.0
 10
-10.9857841856
 20
9.4932826796
 30
0.0
 10
-10.9689686965
 20
9.4942265529
 30
0.0
 10
-10.9477005938
 20
9.4950004592
 30
0.0
 10
-10.9114081268
 20
9.4961319966
 30
0.0
 10
-10.8570477253
 20
9.4973159648
 30
0.0
 10
-10.7826033563
 20
9.4984559916
 30
0.0
 10
-10.6979306059
 20
9.4993112976
 30
0.0
 10
-10.6062461003
 20
9.499853637
 30
0.0
 10
-10.5431327922
 20
9.49998934
 30
0.0
 10
-10.5109844497
 20
9.5
 30
0.0
  0
SPLINE
  5
6C1
100
AcDbEntity
  8
ASSI
100
AcDbSpline
 62
250
  6
CONTINUOUS
 70
0
 71
3
 72
14
 73
10
 74
0
 42
0.0000001
 43
0.0000001
 44
0.0000000001
 40
0.0
 40
0.0
 40
0.0
 40
0.0
 40
0.0353213409
 40
0.0631902025
 40
0.0987851298
 40
0.1930293433
 40
0.3160916449
 40
0.6312758444
 40
1.0
 40
1.0
 40
1.0
 40
1.0
 10
-11.0280931818
 20
21.1361579495
 30
0.0
 10
-11.0273978147
 20
21.1421673808
 30
0.0
 10
-11.0181351649
 20
21.150653929
 30
0.0
 10
-11.0035842473
 20
21.158361103
 30
0.0
 10
-10.9781912111
 20
21.168302472
 30
0.0
 10
-10.9362188199
 20
21.1789027715
 30
0.0
 10
-10.846266625
 20
21.1945677968
 30
0.0
 10
-10.7084587486
 20
21.2069700571
 30
0.0
 10
-10.5913209578
 20
21.2105549156
 30
0.0
 10
-10.5281693342
 20
21.2107174539
 30
0.0
  0
SPLINE
  5
6C2
100
AcDbEntity
  8
ASSI
100
AcDbSpline
 62
250
  6
CONTINUOUS
 70
0
 71
3
 72
16
 73
12
 74
0
 42
0.0000001
 43
0.0000001
 44
0.0000000001
 40
0.0
 40
0.0
 40
0.0
 40
0.0
 40
0.3803842025
 40
0.5488845342
 40
0.6962712333
 40
0.8181903368
 40
0.9110918851
 40
0.9457918661
 40
0.9722877903
 40
0.9903963317
 40
1.0
 40
1.0
 40
1.0
 40
1.0
 10
-10.5281693342
 20
21.2107174911
 30
0.0
 10
-10.5283111551
 20
21.3184431364
 30
0.0
 10
-10.5287298257
 20
21.4738885189
 30
0.0
 10
-10.5298289593
 20
21.6710710472
 30
0.0
 10
-10.5308038848
 20
21.7950556979
 30
0.0
 10
-10.5319468305
 20
21.8976260193
 30
0.0
 10
-10.5330348695
 20
21.9682862715
 30
0.0
 10
-10.5340615345
 20
22.0119109257
 30
0.0
 10
-10.534706415
 20
22.0343688912
 30
0.0
 10
-10.5354609124
 20
22.0496880022
 30
0.0
 10
-10.5358958774
 20
22.0575450851
 30
0.0
 10
-10.5363425225
 20
22.0602279426
 30
0.0
  0
SPLINE
  5
6C3
100
AcDbEntity
  8
ASSI
100
AcDbSpline
 62
250
  6
CONTINUOUS
 70
0
 71
3
 72
15
 73
11
 74
0
 42
0.0000001
 43
0.0000001
 44
0.0000000001
 40
0.0
 40
0.0
 40
0.0
 40
0.0
 40
0.3802905275
 40
0.5487495191
 40
0.6960569885
 40
0.8179782929
 40
0.9108819078
 40
0.9721119793
 40
0.9902793802
 40
1.0
 40
1.0
 40
1.0
 40
1.0
 10
-11.0280931818
 20
21.1361579495
 30
0.0
 10
-11.0282349949
 20
21.190025609
 30
0.0
 10
-11.0286565499
 20
21.2677545313
 30
0.0
 10
-11.0297488817
 20
21.3663461586
 30
0.0
 10
-11.030739797
 20
21.428333095
 30
0.0
 10
-11.0318400053
 20
21.4796273562
 30
0.0
 10
-11.0331474687
 20
21.5186857742
 30
0.0
 10
-11.0341812851
 20
21.5431150476
 30
0.0
 10
-11.0353775145
 20
21.5556443715
 30
0.0
 10
-11.0358313964
 20
21.5596067676
 30
0.0
 10
-11.0362663701
 20
21.5609131753
 30
0.0
  0
SPLINE
  5
6C4
100
AcDbEntity
  8
ASSI
100
AcDbSpline
 62
250
  6
CONTINUOUS
 70
0
 71
3
 72
18
 73
14
 74
0
 42
0.0000001
 43
0.0000001
 44
0.0000000001
 40
0.0
 40
0.0
 40
0.0
 40
0.0
 40
0.1927482909
 40
0.3786097042
 40
0.5500138387
 40
0.7007417273
 40
0.8252136465
 40
0.8760438045
 40
0.9186521242
 40
0.9526184092
 40
0.9775988827
 40
0.9934228594
 40
1.0
 40
1.0
 40
1.0
 40
1.0
 10
-4.9526895987
 20
7.5473094004
 30
0.0
 10
-4.9334104507
 20
7.5473043218
 30
0.0
 10
-4.8955409359
 20
7.5472393919
 30
0.0
 10
-4.8405279641
 20
7.5469811521
 30
0.0
 10
-4.7897180557
 20
7.546573894
 30
0.0
 10
-4.7450529427
 20
7.5460288275
 30
0.0
 10
-4.712442076
 20
7.5454672868
 30
0.0
 10
-4.6906608714
 20
7.5449246564
 30
0.0
 10
-4.6779050038
 20
7.5445621457
 30
0.0
 10
-4.6678038632
 20
7.5440957822
 30
0.0
 10
-4.6602197024
 20
7.5438552979
 30
0.0
 10
-4.6557142453
 20
7.5431710342
 30
0.0
 10
-4.653232829
 20
7.5432114345
 30
0.0
 10
-4.6527353171
 20
7.5427810119
 30
0.0
  0
SPLINE
  5
6C5
100
AcDbEntity
  8
ASSI
100
AcDbSpline
 62
250
  6
CONTINUOUS
 70
0
 71
3
 72
18
 73
14
 74
0
 42
0.0000001
 43
0.0000001
 44
0.0000000001
 40
0.0
 40
0.0
 40
0.0
 40
0.0
 40
0.192786596
 40
0.3786839758
 40
0.5501192565
 40
0.7008710459
 40
0.8253568167
 40
0.8761888487
 40
0.9187947223
 40
0.9527528698
 40
0.9777167613
 40
0.9935085052
 40
1.0
 40
1.0
 40
1.0
 40
1.0
 10
-3.0344925861
 20
-5.1530918551
 30
0.0
 10
-3.0152134685
 20
-5.1530883871
 30
0.0
 10
-2.9773441361
 20
-5.1530440697
 30
0.0
 10
-2.9223312757
 20
-5.1528676849
 30
0.0
 10
-2.8715219114
 20
-5.1525898354
 30
0.0
 10
-2.8268563173
 20
-5.1522170322
 30
0.0
 10
-2.7942476157
 20
-5.1518352401
 30
0.0
 10
-2.7724627209
 20
-5.1514621716
 30
0.0
 10
-2.7597144885
 20
-5.1512203225
 30
0.0
 10
-2.7495944844
 20
-5.1508868374
 30
0.0
 10
-2.7420581996
 20
-5.1507582622
 30
0.0
 10
-2.7374715386
 20
-5.1502248926
 30
0.0
 10
-2.7350972237
 20
-5.1503301428
 30
0.0
 10
-2.7345382775
 20
-5.15
 30
0.0
  0
SPLINE
  5
6C6
100
AcDbEntity
  8
ASSI
100
AcDbSpline
 62
250
  6
CONTINUOUS
 70
0
 71
3
 72
14
 73
10
 74
0
 42
0.0000001
 43
0.0000001
 44
0.0000000001
 40
0.0
 40
0.0
 40
0.0
 40
0.0
 40
0.0353213409
 40
0.0631902044
 40
0.0987851344
 40
0.1930293548
 40
0.3160916625
 40
0.631275862
 40
1.0
 40
1.0
 40
1.0
 40
1.0
 10
11.0280931818
 20
-21.1361579495
 30
0.0
 10
11.0273978148
 20
-21.1421673807
 30
0.0
 10
11.0181351634
 20
-21.1506539283
 30
0.0
 10
11.0035842449
 20
-21.1583611016
 30
0.0
 10
10.9781912062
 20
-21.1683024696
 30
0.0
 10
10.9362188123
 20
-21.1789027679
 30
0.0
 10
10.8462666152
 20
-21.1945677906
 30
0.0
 10
10.7084587415
 20
-21.2069700485
 30
0.0
 10
10.5913209544
 20
-21.2105549063
 30
0.0
 10
10.5281693342
 20
-21.2107174445
 30
0.0
  0
SPLINE
  5
6C7
100
AcDbEntity
  8
ASSI
100
AcDbSpline
 62
250
  6
CONTINUOUS
 70
0
 71
3
 72
16
 73
12
 74
0
 42
0.0000001
 43
0.0000001
 44
0.0000000001
 40
0.0
 40
0.0
 40
0.0
 40
0.0
 40
0.3803841247
 40
0.5488844677
 40
0.6962710901
 40
0.8181902084
 40
0.9110917328
 40
0.9457917913
 40
0.9722879166
 40
0.9903965971
 40
1.0
 40
1.0
 40
1.0
 40
1.0
 10
10.5281693342
 20
-21.2107174911
 30
0.0
 10
10.5283111529
 20
-21.3184431141
 30
0.0
 10
10.5287298374
 20
-21.4738884775
 30
0.0
 10
10.5298289541
 20
-21.6710709646
 30
0.0
 10
10.530803903
 20
-21.7950556013
 30
0.0
 10
10.5319467916
 20
-21.8976258966
 30
0.0
 10
10.5330348847
 20
-21.9682861724
 30
0.0
 10
10.5340615806
 20
-22.0119108905
 30
0.0
 10
10.5347062763
 20
-22.0343689925
 30
0.0
 10
10.535460696
 20
-22.0496881012
 30
0.0
 10
10.5358954894
 20
-22.0575451952
 30
0.0
 10
10.5363423382
 20
-22.0602279426
 30
0.0
  0
SPLINE
  5
6C8
100
AcDbEntity
  8
ASSI
100
AcDbSpline
 62
250
  6
CONTINUOUS
 70
0
 71
3
 72
15
 73
11
 74
0
 42
0.0000001
 43
0.0000001
 44
0.0000000001
 40
0.0
 40
0.0
 40
0.0
 40
0.0
 40
0.3801637058
 40
0.5485806182
 40
0.6958673711
 40
0.8177935255
 40
0.9107302042
 40
0.9720212473
 40
0.9902301969
 40
1.0
 40
1.0
 40
1.0
 40
1.0
 10
11.0280931818
 20
-21.1361579495
 30
0.0
 10
11.0282349272
 20
-21.1900057685
 30
0.0
 10
11.028656252
 20
-21.2677080781
 30
0.0
 10
11.0297479544
 20
-21.3662693701
 30
0.0
 10
11.0307380495
 20
-21.428246057
 30
0.0
 10
11.0318382386
 20
-21.4795406707
 30
0.0
 10
11.0331436353
 20
-21.5186125095
 30
0.0
 10
11.034179698
 20
-21.5430587783
 30
0.0
 10
11.0353727338
 20
-21.5556107475
 30
0.0
 10
11.035828696
 20
-21.5595846653
 30
0.0
 10
11.0362616579
 20
-21.5608990273
 30
0.0
  0
SPLINE
  5
6C9
100
AcDbEntity
  8
ASSI
100
AcDbSpline
 62
250
  6
CONTINUOUS
 70
0
 71
3
 72
18
 73
14
 74
0
 42
0.0000001
 43
0.0000001
 44
0.0000000001
 40
0.0
 40
0.0
 40
0.0
 40
0.0
 40
0.0066636354
 40
0.0225153712
 40
0.0475290718
 40
0.0815045723
 40
0.1240988032
 40
0.1749434578
 40
0.2993683267
 40
0.450125455
 40
0.6214885405
 40
0.8071953077
 40
1.0
 40
1.0
 40
1.0
 40
1.0
 10
11.0109082972
 20
-9.4905
 30
0.0
 10
11.0101568008
 20
-9.4913184077
 30
0.0
 10
11.0059051971
 20
-9.491413776
 30
0.0
 10
10.9984782061
 20
-9.4926986534
 30
0.0
 10
10.9857841858
 20
-9.4932826796
 30
0.0
 10
10.9689686967
 20
-9.4942265529
 30
0.0
 10
10.947700594
 20
-9.4950004592
 30
0.0
 10
10.9114081271
 20
-9.4961319966
 30
0.0
 10
10.8570477256
 20
-9.4973159648
 30
0.0
 10
10.7826033566
 20
-9.4984559917
 30
0.0
 10
10.6979306061
 20
-9.4993112976
 30
0.0
 10
10.6062461004
 20
-9.499853637
 30
0.0
 10
10.5431327923
 20
-9.49998934
 30
0.0
 10
10.5109844497
 20
-9.5
 30
0.0
  0
SPLINE
  5
6CA
100
AcDbEntity
  8
ASSI
100
AcDbSpline
 62
250
  6
CONTINUOUS
 70
0
 71
3
 72
18
 73
14
 74
0
 42
0.0000001
 43
0.0000001
 44
0.0000000001
 40
0.0
 40
0.0
 40
0.0
 40
0.0
 40
0.0066636351
 40
0.0225153708
 40
0.0475290711
 40
0.0815045715
 40
0.1240988022
 40
0.1749434568
 40
0.2993683256
 40
0.4501254541
 40
0.6214885398
 40
0.8071953074
 40
1.0
 40
1.0
 40
1.0
 40
1.0
 10
11.0109082972
 20
9.4905
 30
0.0
 10
11.0101568009
 20
9.4913184077
 30
0.0
 10
11.0059051972
 20
9.491413776
 30
0.0
 10
10.9984782064
 20
9.4926986534
 30
0.0
 10
10.9857841861
 20
9.4932826796
 30
0.0
 10
10.9689686971
 20
9.4942265529
 30
0.0
 10
10.9477005945
 20
9.4950004592
 30
0.0
 10
10.9114081276
 20
9.4961319966
 30
0.0
 10
10.8570477261
 20
9.4973159649
 30
0.0
 10
10.782603357
 20
9.4984559917
 30
0.0
 10
10.6979306064
 20
9.4993112976
 30
0.0
 10
10.6062461006
 20
9.4998536371
 30
0.0
 10
10.5431327923
 20
9.49998934
 30
0.0
 10
10.5109844497
 20
9.5
 30
0.0
  0
SPLINE
  5
6CB
100
AcDbEntity
  8
ASSI
100
AcDbSpline
 62
250
  6
CONTINUOUS
 70
0
 71
3
 72
9
 73
5
 74
0
 42
0.0000001
 43
0.0000001
 44
0.0000000001
 40
0.0
 40
0.0
 40
0.0
 40
0.0
 40
0.2499885515
 40
1.0
 40
1.0
 40
1.0
 40
1.0
 10
11.0109082972
 20
9.4905
 30
0.0
 10
11.0103836454
 20
7.9088225052
 30
0.0
 10
11.0088098086
 20
1.5818226249
 30
0.0
 10
11.0093342455
 20
-4.7451777776
 30
0.0
 10
11.0109082972
 20
-9.4905
 30
0.0
  0
SPLINE
  5
6CC
100
AcDbEntity
  8
ASSI
100
AcDbSpline
 62
250
  6
CONTINUOUS
 70
0
 71
3
 72
14
 73
10
 74
0
 42
0.0000001
 43
0.0000001
 44
0.0000000001
 40
0.0
 40
0.0
 40
0.0
 40
0.0
 40
0.0353213136
 40
0.0631901563
 40
0.0987850654
 40
0.19302925
 40
0.3160915376
 40
0.631275763
 40
1.0
 40
1.0
 40
1.0
 40
1.0
 10
11.0280931818
 20
21.1361579495
 30
0.0
 10
11.0273978276
 20
21.1421673778
 30
0.0
 10
11.018135192
 20
21.1506539356
 30
0.0
 10
11.0035842868
 20
21.1583611103
 30
0.0
 10
10.9781912633
 20
21.1683024848
 30
0.0
 10
10.9362188817
 20
21.1789027885
 30
0.0
 10
10.8462666873
 20
21.1945678236
 30
0.0
 10
10.7084587889
 20
21.2069700912
 30
0.0
 10
10.5913209746
 20
21.2105549524
 30
0.0
 10
10.5281693342
 20
21.2107174909
 30
0.0
  0
SPLINE
  5
6CD
100
AcDbEntity
  8
ASSI
100
AcDbSpline
 62
250
  6
CONTINUOUS
 70
0
 71
3
 72
16
 73
12
 74
0
 42
0.0000001
 43
0.0000001
 44
0.0000000001
 40
0.0
 40
0.0
 40
0.0
 40
0.0
 40
0.0096036683
 40
0.0277122097
 40
0.0542081339
 40
0.0889081149
 40
0.1818096632
 40
0.3037287667
 40
0.4511154658
 40
0.6196157975
 40
1.0
 40
1.0
 40
1.0
 40
1.0
 10
10.5363425225
 20
22.0602279426
 30
0.0
 10
10.5358958774
 20
22.0575450851
 30
0.0
 10
10.5354609124
 20
22.0496880022
 30
0.0
 10
10.534706415
 20
22.0343688912
 30
0.0
 10
10.5340615345
 20
22.0119109257
 30
0.0
 10
10.5330348695
 20
21.9682862715
 30
0.0
 10
10.5319468305
 20
21.8976260193
 30
0.0
 10
10.5308038848
 20
21.7950556979
 30
0.0
 10
10.5298289593
 20
21.6710710472
 30
0.0
 10
10.5287298257
 20
21.4738885189
 30
0.0
 10
10.5283111551
 20
21.3184431364
 30
0.0
 10
10.5281693342
 20
21.2107174911
 30
0.0
  0
SPLINE
  5
6CE
100
AcDbEntity
  8
ASSI
100
AcDbSpline
 62
250
  6
CONTINUOUS
 70
0
 71
3
 72
15
 73
11
 74
0
 42
0.0000001
 43
0.0000001
 44
0.0000000001
 40
0.0
 40
0.0
 40
0.0
 40
0.0
 40
0.0097206198
 40
0.0278880207
 40
0.0891180922
 40
0.1820217071
 40
0.3039430115
 40
0.4512504809
 40
0.6197094725
 40
1.0
 40
1.0
 40
1.0
 40
1.0
 10
11.0362663701
 20
21.5609131753
 30
0.0
 10
11.0358313964
 20
21.5596067676
 30
0.0
 10
11.0353775145
 20
21.5556443715
 30
0.0
 10
11.0341812851
 20
21.5431150476
 30
0.0
 10
11.0331474687
 20
21.5186857742
 30
0.0
 10
11.0318400053
 20
21.4796273562
 30
0.0
 10
11.030739797
 20
21.428333095
 30
0.0
 10
11.0297488817
 20
21.3663461586
 30
0.0
 10
11.0286565499
 20
21.2677545313
 30
0.0
 10
11.0282349949
 20
21.190025609
 30
0.0
 10
11.0280931818
 20
21.1361579495
 30
0.0
  0
SPLINE
  5
6CF
100
AcDbEntity
  8
ASSI
100
AcDbSpline
 62
250
  6
CONTINUOUS
 70
0
 71
3
 72
17
 73
13
 74
0
 42
0.0000001
 43
0.0000001
 44
0.0000000001
 40
0.0
 40
0.0
 40
0.0
 40
0.0
 40
0.3787046917
 40
0.5501487206
 40
0.700907228
 40
0.8253969028
 40
0.876229473
 40
0.9188346767
 40
0.9527905634
 40
0.9777498345
 40
0.9935325821
 40
1.0
 40
1.0
 40
1.0
 40
1.0
 10
7.3346403512
 20
-4.2525515309
 30
0.0
 10
7.2967711103
 20
-4.2525459092
 30
0.0
 10
7.2417581151
 20
-4.2524530495
 30
0.0
 10
7.1716699438
 20
-4.2521373623
 30
0.0
 10
7.1270041116
 20
-4.2518294276
 30
0.0
 10
7.0943962557
 20
-4.2515148634
 30
0.0
 10
7.0726099487
 20
-4.2512062046
 30
0.0
 10
7.0598646913
 20
-4.2510083462
 30
0.0
 10
7.0497371742
 20
-4.2507285453
 30
0.0
 10
7.0422195506
 20
-4.2506332897
 30
0.0
 10
7.0376003283
 20
-4.2501729455
 30
0.0
 10
7.0352673823
 20
-4.2502833584
 30
0.0
 10
7.0346860426
 20
-4.25
 30
0.0
  0
SPLINE
  5
6D0
100
AcDbEntity
  8
ASSI
100
AcDbSpline
 62
250
  6
CONTINUOUS
 70
0
 71
3
 72
11
 73
7
 74
0
 42
0.0000001
 43
0.0000001
 44
0.0000000001
 40
0.0
 40
0.0
 40
0.0
 40
0.0
 40
0.2331916137
 40
0.4766746591
 40
0.7337784865
 40
1.0
 40
1.0
 40
1.0
 40
1.0
 10
10.1369014213
 20
-23.8443375673
 30
0.0
 10
10.1368063382
 20
-23.8160290233
 30
0.0
 10
10.122881723
 20
-23.7574811558
 30
0.0
 10
10.0659299765
 20
-23.6858440048
 30
0.0
 10
9.9832832843
 20
-23.6388233468
 30
0.0
 10
9.9192239756
 20
-23.6279126325
 30
0.0
 10
9.8869056521
 20
-23.6278312164
 30
0.0
  0
SPLINE
  5
6D1
100
AcDbEntity
  8
ASSI
100
AcDbSpline
 62
7
  6
CONTINUOUS
 70
0
 71
3
 72
11
 73
7
 74
0
 42
0.0000001
 43
0.0000001
 44
0.0000000001
 40
0.0
 40
0.0
 40
0.0
 40
0.0
 40
0.1745711757
 40
0.3928987232
 40
0.6728803601
 40
1.0
 40
1.0
 40
1.0
 40
1.0
 10
10.1427192511
 20
-23.2669872981
 30
0.0
 10
10.1425353849
 20
-23.2487403041
 30
0.0
 10
10.1271099935
 20
-23.2076464238
 30
0.0
 10
10.0713530694
 20
-23.161707813
 30
0.0
 10
9.9899860406
 20
-23.1301925823
 30
0.0
 10
9.9261900605
 20
-23.1226497308
 30
0.0
 10
9.8919962532
 20
-23.1226497308
 30
0.0
  0
SPLINE
  5
6D2
100
AcDbEntity
  8
ASSI
100
AcDbSpline
 62
250
  6
CONTINUOUS
 70
0
 71
3
 72
11
 73
7
 74
0
 42
0.0000001
 43
0.0000001
 44
0.0000000001
 40
0.0
 40
0.0
 40
0.0
 40
0.0
 40
0.2331915743
 40
0.4766745745
 40
0.7337783373
 40
1.0
 40
1.0
 40
1.0
 40
1.0
 10
7.2630985787
 20
-23.8443375673
 30
0.0
 10
7.2631936618
 20
-23.816029028
 30
0.0
 10
7.2771182715
 20
-23.7574811703
 30
0.0
 10
7.3340700004
 20
-23.6858440306
 30
0.0
 10
7.4167166844
 20
-23.6388233493
 30
0.0
 10
7.4807760062
 20
-23.6279126325
 30
0.0
 10
7.5130943479
 20
-23.6278312164
 30
0.0
  0
SPLINE
  5
6D3
100
AcDbEntity
  8
ASSI
100
AcDbSpline
 62
250
  6
CONTINUOUS
 70
0
 71
3
 72
11
 73
7
 74
0
 42
0.0000001
 43
0.0000001
 44
0.0000000001
 40
0.0
 40
0.0
 40
0.0
 40
0.0
 40
0.2331915743
 40
0.4766745745
 40
0.7337783373
 40
1.0
 40
1.0
 40
1.0
 40
1.0
 10
-7.2630985787
 20
-23.8443375673
 30
0.0
 10
-7.2631936618
 20
-23.816029028
 30
0.0
 10
-7.2771182715
 20
-23.7574811703
 30
0.0
 10
-7.3340700004
 20
-23.6858440306
 30
0.0
 10
-7.4167166844
 20
-23.6388233493
 30
0.0
 10
-7.4807760062
 20
-23.6279126325
 30
0.0
 10
-7.5130943479
 20
-23.6278312164
 30
0.0
  0
SPLINE
  5
6D4
100
AcDbEntity
  8
ASSI
100
AcDbSpline
 62
7
  6
CONTINUOUS
 70
0
 71
3
 72
11
 73
7
 74
0
 42
0.0000001
 43
0.0000001
 44
0.0000000001
 40
0.0
 40
0.0
 40
0.0
 40
0.0
 40
0.1745711757
 40
0.3928987232
 40
0.6728803601
 40
1.0
 40
1.0
 40
1.0
 40
1.0
 10
-7.2572807489
 20
-23.2669872981
 30
0.0
 10
-7.2574646151
 20
-23.2487403041
 30
0.0
 10
-7.2728900065
 20
-23.2076464238
 30
0.0
 10
-7.3286469306
 20
-23.161707813
 30
0.0
 10
-7.4100139594
 20
-23.1301925823
 30
0.0
 10
-7.4738099395
 20
-23.1226497308
 30
0.0
 10
-7.5080037468
 20
-23.1226497308
 30
0.0
  0
SPLINE
  5
6D5
100
AcDbEntity
  8
ASSI
100
AcDbSpline
 62
7
  6
CONTINUOUS
 70
0
 71
3
 72
11
 73
7
 74
0
 42
0.0000001
 43
0.0000001
 44
0.0000000001
 40
0.0
 40
0.0
 40
0.0
 40
0.0
 40
0.1745711757
 40
0.3928987232
 40
0.6728803601
 40
1.0
 40
1.0
 40
1.0
 40
1.0
 10
-10.1427192511
 20
-23.2669872981
 30
0.0
 10
-10.1425353849
 20
-23.2487403041
 30
0.0
 10
-10.1271099935
 20
-23.2076464238
 30
0.0
 10
-10.0713530694
 20
-23.161707813
 30
0.0
 10
-9.9899860406
 20
-23.1301925823
 30
0.0
 10
-9.9261900605
 20
-23.1226497308
 30
0.0
 10
-9.8919962532
 20
-23.1226497308
 30
0.0
  0
SPLINE
  5
6D6
100
AcDbEntity
  8
ASSI
100
AcDbSpline
 62
250
  6
CONTINUOUS
 70
0
 71
3
 72
11
 73
7
 74
0
 42
0.0000001
 43
0.0000001
 44
0.0000000001
 40
0.0
 40
0.0
 40
0.0
 40
0.0
 40
0.2331911215
 40
0.4766742664
 40
0.7337781758
 40
1.0
 40
1.0
 40
1.0
 40
1.0
 10
-10.1369014213
 20
-23.8443375673
 30
0.0
 10
-10.1368063384
 20
-23.8160290833
 30
0.0
 10
-10.1228817485
 20
-23.7574812729
 30
0.0
 10
-10.065930098
 20
-23.6858440937
 30
0.0
 10
-9.9832833708
 20
-23.6388233639
 30
0.0
 10
-9.9192240131
 20
-23.6279126326
 30
0.0
 10
-9.8869056521
 20
-23.6278312164
 30
0.0
  0
SPLINE
  5
6D7
100
AcDbEntity
  8
ASSI
100
AcDbSpline
 62
250
  6
CONTINUOUS
 70
0
 71
3
 72
11
 73
7
 74
0
 42
0.0000001
 43
0.0000001
 44
0.0000000001
 40
0.0
 40
0.0
 40
0.0
 40
0.0
 40
0.2331915743
 40
0.4766745745
 40
0.7337783373
 40
1.0
 40
1.0
 40
1.0
 40
1.0
 10
10.1369014213
 20
23.8443375673
 30
0.0
 10
10.1368063382
 20
23.816029028
 30
0.0
 10
10.1228817285
 20
23.7574811703
 30
0.0
 10
10.0659299996
 20
23.6858440306
 30
0.0
 10
9.9832833156
 20
23.6388233493
 30
0.0
 10
9.9192239938
 20
23.6279126325
 30
0.0
 10
9.8869056521
 20
23.6278312164
 30
0.0
  0
SPLINE
  5
6D8
100
AcDbEntity
  8
ASSI
100
AcDbSpline
 62
7
  6
CONTINUOUS
 70
0
 71
3
 72
11
 73
7
 74
0
 42
0.0000001
 43
0.0000001
 44
0.0000000001
 40
0.0
 40
0.0
 40
0.0
 40
0.0
 40
0.327146023
 40
0.6070324572
 40
0.8253457233
 40
1.0
 40
1.0
 40
1.0
 40
1.0
 10
9.8927234819
 20
23.1226497308
 30
0.0
 10
9.9268415212
 20
23.1226497308
 30
0.0
 10
9.9904679345
 20
23.1303597588
 30
0.0
 10
10.0716059756
 20
23.1618583379
 30
0.0
 10
10.1271729968
 20
23.2077655042
 30
0.0
 10
10.1425357198
 20
23.2487735386
 30
0.0
 10
10.1427192511
 20
23.2669872981
 30
0.0
  0
SPLINE
  5
6D9
100
AcDbEntity
  8
ASSI
100
AcDbSpline
 62
7
  6
CONTINUOUS
 70
0
 71
3
 72
11
 73
7
 74
0
 42
0.0000001
 43
0.0000001
 44
0.0000000001
 40
0.0
 40
0.0
 40
0.0
 40
0.0
 40
0.1745711757
 40
0.3928987232
 40
0.6728803601
 40
1.0
 40
1.0
 40
1.0
 40
1.0
 10
7.2572807489
 20
23.2669872981
 30
0.0
 10
7.2574646151
 20
23.2487403041
 30
0.0
 10
7.2728900065
 20
23.2076464238
 30
0.0
 10
7.3286469306
 20
23.161707813
 30
0.0
 10
7.4100139594
 20
23.1301925823
 30
0.0
 10
7.4738099395
 20
23.1226497308
 30
0.0
 10
7.5080037468
 20
23.1226497308
 30
0.0
  0
SPLINE
  5
6DA
100
AcDbEntity
  8
ASSI
100
AcDbSpline
 62
250
  6
CONTINUOUS
 70
0
 71
3
 72
11
 73
7
 74
0
 42
0.0000001
 43
0.0000001
 44
0.0000000001
 40
0.0
 40
0.0
 40
0.0
 40
0.0
 40
0.2331915743
 40
0.4766745745
 40
0.7337783373
 40
1.0
 40
1.0
 40
1.0
 40
1.0
 10
7.2630985787
 20
23.8443375673
 30
0.0
 10
7.2631936618
 20
23.816029028
 30
0.0
 10
7.2771182715
 20
23.7574811703
 30
0.0
 10
7.3340700004
 20
23.6858440306
 30
0.0
 10
7.4167166844
 20
23.6388233493
 30
0.0
 10
7.4807760062
 20
23.6279126325
 30
0.0
 10
7.5130943479
 20
23.6278312164
 30
0.0
  0
SPLINE
  5
6DB
100
AcDbEntity
  8
ASSI
100
AcDbSpline
 62
250
  6
CONTINUOUS
 70
0
 71
3
 72
11
 73
7
 74
0
 42
0.0000001
 43
0.0000001
 44
0.0000000001
 40
0.0
 40
0.0
 40
0.0
 40
0.0
 40
0.2331911215
 40
0.4766742664
 40
0.7337781758
 40
1.0
 40
1.0
 40
1.0
 40
1.0
 10
-7.2630985787
 20
23.8443375673
 30
0.0
 10
-7.2631936616
 20
23.8160290833
 30
0.0
 10
-7.2771182515
 20
23.7574812729
 30
0.0
 10
-7.334069902
 20
23.6858440937
 30
0.0
 10
-7.4167166292
 20
23.6388233639
 30
0.0
 10
-7.4807759869
 20
23.6279126326
 30
0.0
 10
-7.5130943479
 20
23.6278312164
 30
0.0
  0
SPLINE
  5
6DC
100
AcDbEntity
  8
ASSI
100
AcDbSpline
 62
7
  6
CONTINUOUS
 70
0
 71
3
 72
11
 73
7
 74
0
 42
0.0000001
 43
0.0000001
 44
0.0000000001
 40
0.0
 40
0.0
 40
0.0
 40
0.0
 40
0.1745711757
 40
0.3928987232
 40
0.6728803601
 40
1.0
 40
1.0
 40
1.0
 40
1.0
 10
-7.2572807489
 20
23.2669872981
 30
0.0
 10
-7.2574646151
 20
23.2487403041
 30
0.0
 10
-7.2728900065
 20
23.2076464238
 30
0.0
 10
-7.3286469306
 20
23.161707813
 30
0.0
 10
-7.4100139594
 20
23.1301925823
 30
0.0
 10
-7.4738099395
 20
23.1226497308
 30
0.0
 10
-7.5080037468
 20
23.1226497308
 30
0.0
  0
SPLINE
  5
6DD
100
AcDbEntity
  8
ASSI
100
AcDbSpline
 62
250
  6
CONTINUOUS
 70
0
 71
3
 72
18
 73
14
 74
0
 42
0.0000001
 43
0.0000001
 44
0.0000000001
 40
0.0
 40
0.0
 40
0.0
 40
0.0
 40
0.1927865752
 40
0.3786839367
 40
0.5501192038
 40
0.7008709861
 40
0.825356758
 40
0.8761887939
 40
0.9187946737
 40
0.9527528299
 40
0.9777167325
 40
0.9935084897
 40
1.0
 40
1.0
 40
1.0
 40
1.0
 10
7.3344925861
 20
-5.1530918547
 30
0.0
 10
7.3152134706
 20
-5.1530883863
 30
0.0
 10
7.2773441423
 20
-5.1530440683
 30
0.0
 10
7.2223312873
 20
-5.1528676828
 30
0.0
 10
7.1715219271
 20
-5.1525898329
 30
0.0
 10
7.1268563351
 20
-5.1522170294
 30
0.0
 10
7.0942476339
 20
-5.1518352371
 30
0.0
 10
7.0724627379
 20
-5.1514621689
 30
0.0
 10
7.059714504
 20
-5.1512203195
 30
0.0
 10
7.0495944966
 20
-5.1508868353
 30
0.0
 10
7.0420582099
 20
-5.1507582583
 30
0.0
 10
7.0374715425
 20
-5.150224892
 30
0.0
 10
7.0350972274
 20
-5.1503301386
 30
0.0
 10
7.0345382784
 20
-5.1499999975
 30
0.0
  0
SPLINE
  5
6DE
100
AcDbEntity
  8
ASSI
100
AcDbSpline
 62
7
  6
CONTINUOUS
 70
0
 71
3
 72
11
 73
7
 74
0
 42
0.0000001
 43
0.0000001
 44
0.0000000001
 40
0.0
 40
0.0
 40
0.0
 40
0.0
 40
0.1745711757
 40
0.3928987232
 40
0.6728803601
 40
1.0
 40
1.0
 40
1.0
 40
1.0
 10
-10.1427192511
 20
23.2669872981
 30
0.0
 10
-10.1425353849
 20
23.2487403041
 30
0.0
 10
-10.1271099935
 20
23.2076464238
 30
0.0
 10
-10.0713530694
 20
23.161707813
 30
0.0
 10
-9.9899860406
 20
23.1301925823
 30
0.0
 10
-9.9261900605
 20
23.1226497308
 30
0.0
 10
-9.8919962532
 20
23.1226497308
 30
0.0
  0
SPLINE
  5
6DF
100
AcDbEntity
  8
ASSI
100
AcDbSpline
 62
250
  6
CONTINUOUS
 70
0
 71
3
 72
11
 73
7
 74
0
 42
0.0000001
 43
0.0000001
 44
0.0000000001
 40
0.0
 40
0.0
 40
0.0
 40
0.0
 40
0.2331915743
 40
0.4766745745
 40
0.7337783373
 40
1.0
 40
1.0
 40
1.0
 40
1.0
 10
-10.1369014213
 20
23.8443375673
 30
0.0
 10
-10.1368063382
 20
23.816029028
 30
0.0
 10
-10.1228817285
 20
23.7574811703
 30
0.0
 10
-10.0659299996
 20
23.6858440306
 30
0.0
 10
-9.9832833156
 20
23.6388233493
 30
0.0
 10
-9.9192239938
 20
23.6279126325
 30
0.0
 10
-9.8869056521
 20
23.6278312164
 30
0.0
  0
SPLINE
  5
6E0
100
AcDbEntity
  8
0
100
AcDbSpline
 62
250
  6
CONTINUOUS
 70
0
 71
3
 72
10
 73
6
 74
0
 42
0.0000001
 43
0.0000001
 44
0.0000000001
 40
0.0
 40
0.0
 40
0.0
 40
0.0
 40
0.3333333333
 40
0.6666666667
 40
1.0
 40
1.0
 40
1.0
 40
1.0
 10
1.2816735964
 20
-16.7890855594
 30
0.0
 10
1.2740235665
 20
-16.8299435407
 30
0.0
 10
1.2573413505
 20
-16.9099141948
 30
0.0
 10
1.2277192374
 20
-17.0247509764
 30
0.0
 10
1.2048069209
 20
-17.0974822497
 30
0.0
 10
1.1925218944
 20
-17.1329103976
 30
0.0
  0
SPLINE
  5
6E1
100
AcDbEntity
  8
0
100
AcDbSpline
 62
250
  6
CONTINUOUS
 70
0
 71
3
 72
10
 73
6
 74
0
 42
0.0000001
 43
0.0000001
 44
0.0000000001
 40
0.0
 40
0.0
 40
0.0
 40
0.0
 40
0.3333333333
 40
0.6666666667
 40
1.0
 40
1.0
 40
1.0
 40
1.0
 10
1.3964730895
 20
-17.1623374497
 30
0.0
 10
1.3819951054
 20
-17.1195877512
 30
0.0
 10
1.3537534453
 20
-17.0350789319
 30
0.0
 10
1.3148663993
 20
-16.9105767197
 30
0.0
 10
1.2919053202
 20
-16.8293922896
 30
0.0
 10
1.2816735964
 20
-16.7890855594
 30
0.0
  0
SPLINE
  5
6E2
100
AcDbEntity
  8
0
100
AcDbSpline
 62
250
  6
CONTINUOUS
 70
0
 71
3
 72
12
 73
8
 74
0
 42
0.0000001
 43
0.0000001
 44
0.0000000001
 40
0.0
 40
0.0
 40
0.0
 40
0.0
 40
0.3333333333
 40
0.5
 40
0.6666666667
 40
0.8333333333
 40
1.0
 40
1.0
 40
1.0
 40
1.0
 10
-2.4511501738
 20
-18.1115852516
 30
0.0
 10
-2.4268044175
 20
-18.0680747571
 30
0.0
 10
-2.3827520074
 20
-18.0044186649
 30
0.0
 10
-2.3112290612
 20
-17.9212325787
 30
0.0
 10
-2.252167421
 20
-17.8593249502
 30
0.0
 10
-2.1891745977
 20
-17.7972831174
 30
0.0
 10
-2.1445963159
 20
-17.7556577158
 30
0.0
 10
-2.1215618395
 20
-17.7347990816
 30
0.0
  0
SPLINE
  5
6E3
100
AcDbEntity
  8
0
100
AcDbSpline
 62
250
  6
CONTINUOUS
 70
0
 71
3
 72
10
 73
6
 74
0
 42
0.0000001
 43
0.0000001
 44
0.0000000001
 40
0.0
 40
0.0
 40
0.0
 40
0.0
 40
0.3333333333
 40
0.6666666667
 40
1.0
 40
1.0
 40
1.0
 40
1.0
 10
-2.5365118966
 20
-18.4
 30
0.0
 10
-2.5374490241
 20
-18.3701834496
 30
0.0
 10
-2.5318193075
 20
-18.3090453481
 30
0.0
 10
-2.5020027585
 20
-18.2112554656
 30
0.0
 10
-2.4699928972
 20
-18.1452607801
 30
0.0
 10
-2.4511501738
 20
-18.1115852516
 30
0.0
  0
SPLINE
  5
6E4
100
AcDbEntity
  8
0
100
AcDbSpline
 62
250
  6
CONTINUOUS
 70
0
 71
3
 72
10
 73
6
 74
0
 42
0.0000001
 43
0.0000001
 44
0.0000000001
 40
0.0
 40
0.0
 40
0.0
 40
0.0
 40
0.3333333333
 40
0.6666666667
 40
1.0
 40
1.0
 40
1.0
 40
1.0
 10
6.4101262703
 20
-18.400288
 30
0.0
 10
6.4025517833
 20
-18.3645627494
 30
0.0
 10
6.3849648419
 20
-18.2958466462
 30
0.0
 10
6.3509371379
 20
-18.2005226797
 30
0.0
 10
6.32342079
 20
-18.1431386372
 30
0.0
 10
6.3084204779
 20
-18.1159119999
 30
0.0
  0
SPLINE
  5
6E5
100
AcDbEntity
  8
0
100
AcDbSpline
 62
250
  6
CONTINUOUS
 70
0
 71
3
 72
10
 73
6
 74
0
 42
0.0000001
 43
0.0000001
 44
0.0000000001
 40
0.0
 40
0.0
 40
0.0
 40
0.0
 40
0.3333333333
 40
0.6666666667
 40
1.0
 40
1.0
 40
1.0
 40
1.0
 10
-2.175569565
 20
-18.0674981329
 30
0.0
 10
-2.1859853123
 20
-18.0793342092
 30
0.0
 10
-2.2061371808
 20
-18.1039871169
 30
0.0
 10
-2.2344918466
 20
-18.1443815797
 30
0.0
 10
-2.2515456253
 20
-18.1728749669
 30
0.0
 10
-2.2596361415
 20
-18.187585
 30
0.0
  0
SPLINE
  5
6E6
100
AcDbEntity
  8
0
100
AcDbSpline
 62
250
  6
CONTINUOUS
 70
0
 71
3
 72
12
 73
8
 74
0
 42
0.0000001
 43
0.0000001
 44
0.0000000001
 40
0.0
 40
0.0
 40
0.0
 40
0.0
 40
0.3333333333
 40
0.5
 40
0.6666666667
 40
0.8333333333
 40
1.0
 40
1.0
 40
1.0
 40
1.0
 10
-1.9454334346
 20
-17.8409051807
 30
0.0
 10
-1.9733504588
 20
-17.8670703749
 30
0.0
 10
-2.014333123
 20
-17.9055324585
 30
0.0
 10
-2.0667075548
 20
-17.9559219546
 30
0.0
 10
-2.10468071
 20
-17.9933268049
 30
0.0
 10
-2.141183717
 20
-18.030386266
 30
0.0
 10
-2.1645196619
 20
-18.0549414249
 30
0.0
 10
-2.175569565
 20
-18.0674981329
 30
0.0
  0
SPLINE
  5
6E7
100
AcDbEntity
  8
0
100
AcDbSpline
 62
250
  6
CONTINUOUS
 70
0
 71
3
 72
12
 73
8
 74
0
 42
0.0000001
 43
0.0000001
 44
0.0000000001
 40
0.0
 40
0.0
 40
0.0
 40
0.0
 40
0.3333333333
 40
0.5
 40
0.6666666667
 40
0.8333333333
 40
1.0
 40
1.0
 40
1.0
 40
1.0
 10
-1.5662206745
 20
-17.4210005549
 30
0.0
 10
-1.5968070888
 20
-17.4690288142
 30
0.0
 10
-1.6501978477
 20
-17.5392700237
 30
0.0
 10
-1.7333654938
 20
-17.6313952307
 30
0.0
 10
-1.8005997982
 20
-17.7003701671
 30
0.0
 10
-1.8710158117
 20
-17.7701206903
 30
0.0
 10
-1.9201952932
 20
-17.8172507659
 30
0.0
 10
-1.9454334346
 20
-17.8409051807
 30
0.0
  0
SPLINE
  5
6E8
100
AcDbEntity
  8
0
100
AcDbSpline
 62
250
  6
CONTINUOUS
 70
0
 71
3
 72
13
 73
9
 74
0
 42
0.0000001
 43
0.0000001
 44
0.0000000001
 40
0.0
 40
0.0
 40
0.0
 40
0.0
 40
0.1666666667
 40
0.3333333333
 40
0.5
 40
0.6666666667
 40
0.8333333333
 40
1.0
 40
1.0
 40
1.0
 40
1.0
 10
-1.4654751212
 20
-17.0911319061
 30
0.0
 10
-1.4654751212
 20
-17.1085171057
 30
0.0
 10
-1.4672368697
 20
-17.1435007074
 30
0.0
 10
-1.4752687948
 20
-17.1979243459
 30
0.0
 10
-1.4891714448
 20
-17.2544205724
 30
0.0
 10
-1.5089428369
 20
-17.311261453
 30
0.0
 10
-1.5342164937
 20
-17.3669142038
 30
0.0
 10
-1.5547682758
 20
-17.4030174475
 30
0.0
 10
-1.5662206745
 20
-17.4210005549
 30
0.0
  0
SPLINE
  5
6E9
100
AcDbEntity
  8
0
100
AcDbSpline
 62
250
  6
CONTINUOUS
 70
0
 71
3
 72
13
 73
9
 74
0
 42
0.0000001
 43
0.0000001
 44
0.0000000001
 40
0.0
 40
0.0
 40
0.0
 40
0.0
 40
0.1666666667
 40
0.3333333333
 40
0.5
 40
0.6666666667
 40
0.8333333333
 40
1.0
 40
1.0
 40
1.0
 40
1.0
 10
-1.5941087754
 20
-16.7451101697
 30
0.0
 10
-1.5803504043
 20
-16.7614891799
 30
0.0
 10
-1.5554069338
 20
-16.7953205016
 30
0.0
 10
-1.5236228798
 20
-16.8505188386
 30
0.0
 10
-1.497335097
 20
-16.9111296722
 30
0.0
 10
-1.4785869411
 20
-16.9734187303
 30
0.0
 10
-1.4678988285
 20
-17.0330400449
 30
0.0
 10
-1.4654751212
 20
-17.0717215494
 30
0.0
 10
-1.4654751212
 20
-17.0911319061
 30
0.0
  0
SPLINE
  5
6EA
100
AcDbEntity
  8
0
100
AcDbSpline
 62
250
  6
CONTINUOUS
 70
0
 71
3
 72
15
 73
11
 74
0
 42
0.0000001
 43
0.0000001
 44
0.0000000001
 40
0.0
 40
0.0
 40
0.0
 40
0.0
 40
0.3333333333
 40
0.5
 40
0.5833333333
 40
0.6666666667
 40
0.75
 40
0.8333333333
 40
0.9166666667
 40
1.0
 40
1.0
 40
1.0
 40
1.0
 10
-1.9692540664
 20
-16.5926325246
 30
0.0
 10
-1.914301307
 20
-16.5926325246
 30
0.0
 10
-1.8385714924
 20
-16.6022165674
 30
0.0
 10
-1.7616644037
 20
-16.6269289849
 30
0.0
 10
-1.7213558083
 20
-16.6448301179
 30
0.0
 10
-1.692441503
 20
-16.6604244676
 30
0.0
 10
-1.664999834
 20
-16.6783414983
 30
0.0
 10
-1.6394589615
 20
-16.6984832413
 30
0.0
 10
-1.6156503577
 20
-16.720784411
 30
0.0
 10
-1.6012101138
 20
-16.7366561969
 30
0.0
 10
-1.5941087754
 20
-16.7451101697
 30
0.0
  0
SPLINE
  5
6EB
100
AcDbEntity
  8
0
100
AcDbSpline
 62
250
  6
CONTINUOUS
 70
0
 71
3
 72
15
 73
11
 74
0
 42
0.0000001
 43
0.0000001
 44
0.0000000001
 40
0.0
 40
0.0
 40
0.0
 40
0.0
 40
0.125
 40
0.25
 40
0.375
 40
0.5
 40
0.625
 40
0.75
 40
0.875
 40
1.0
 40
1.0
 40
1.0
 40
1.0
 10
8.458436783
 20
-12.9881864268
 30
0.0
 10
8.4680505782
 20
-12.9881843963
 30
0.0
 10
8.4862613263
 20
-12.9902442675
 30
0.0
 10
8.5124553868
 20
-12.9983082216
 30
0.0
 10
8.5371687782
 20
-13.011333146
 30
0.0
 10
8.5588638396
 20
-13.0288343948
 30
0.0
 10
8.5764836377
 20
-13.0505170838
 30
0.0
 10
8.5896448669
 20
-13.0753569585
 30
0.0
 10
8.5978494429
 20
-13.1018306879
 30
0.0
 10
8.5999803401
 20
-13.1203301256
 30
0.0
 10
8.6
 20
-13.1301123167
 30
0.0
  0
SPLINE
  5
6EC
100
AcDbEntity
  8
0
100
AcDbSpline
 62
250
  6
CONTINUOUS
 70
0
 71
3
 72
12
 73
8
 74
0
 42
0.0000001
 43
0.0000001
 44
0.0000000001
 40
0.0
 40
0.0
 40
0.0
 40
0.0
 40
0.3333333333
 40
0.5
 40
0.6666666667
 40
0.8333333333
 40
1.0
 40
1.0
 40
1.0
 40
1.0
 10
-2.3379716367
 20
-16.7240104723
 30
0.0
 10
-2.3099744202
 20
-16.6978207022
 30
0.0
 10
-2.2620052258
 20
-16.6636725227
 30
0.0
 10
-2.1829989714
 20
-16.6277614229
 30
0.0
 10
-2.1174898773
 20
-16.6073634364
 30
0.0
 10
-2.0462642664
 20
-16.5949842895
 30
0.0
 10
-1.9957032094
 20
-16.5926325246
 30
0.0
 10
-1.9692540664
 20
-16.5926325246
 30
0.0
  0
SPLINE
  5
6ED
100
AcDbEntity
  8
0
100
AcDbSpline
 62
250
  6
CONTINUOUS
 70
0
 71
3
 72
13
 73
9
 74
0
 42
0.0000001
 43
0.0000001
 44
0.0000000001
 40
0.0
 40
0.0
 40
0.0
 40
0.0
 40
0.1666666667
 40
0.3333333333
 40
0.5
 40
0.6666666667
 40
0.8333333333
 40
1.0
 40
1.0
 40
1.0
 40
1.0
 10
-2.498694727
 20
-17.113233031
 30
0.0
 10
-2.4964752167
 20
-17.084984657
 30
0.0
 10
-2.4898559944
 20
-17.0312729893
 30
0.0
 10
-2.4729902682
 20
-16.9551974168
 30
0.0
 10
-2.4491116933
 20
-16.8854342806
 30
0.0
 10
-2.4184415161
 20
-16.8229592452
 30
0.0
 10
-2.381286823
 20
-16.768678252
 30
0.0
 10
-2.3531625247
 20
-16.7382206657
 30
0.0
 10
-2.3379716367
 20
-16.7240104723
 30
0.0
  0
SPLINE
  5
6EE
100
AcDbEntity
  8
0
100
AcDbSpline
 62
250
  6
CONTINUOUS
 70
0
 71
3
 72
15
 73
11
 74
0
 42
0.0000001
 43
0.0000001
 44
0.0000000001
 40
0.0
 40
0.0
 40
0.0
 40
0.0
 40
0.125
 40
0.25
 40
0.375
 40
0.5
 40
0.625
 40
0.75
 40
0.875
 40
1.0
 40
1.0
 40
1.0
 40
1.0
 10
7.4024611841
 20
-12.5009619898
 30
0.0
 10
7.4121957101
 20
-12.5009602093
 30
0.0
 10
7.430619774
 20
-12.5030583496
 30
0.0
 10
7.4570494296
 20
-12.5112431114
 30
0.0
 10
7.4819091331
 20
-12.5244164825
 30
0.0
 10
7.5036716702
 20
-12.5420702658
 30
0.0
 10
7.5213047609
 20
-12.5638560067
 30
0.0
 10
7.5344561873
 20
-12.5887379954
 30
0.0
 10
7.5426150274
 20
-12.6151905708
 30
0.0
 10
7.5446902015
 20
-12.6336324912
 30
0.0
 10
7.5446732442
 20
-12.6433750983
 30
0.0
  0
SPLINE
  5
6EF
100
AcDbEntity
  8
0
100
AcDbSpline
 62
250
  6
CONTINUOUS
 70
0
 71
3
 72
12
 73
8
 74
0
 42
0.0000001
 43
0.0000001
 44
0.0000000001
 40
0.0
 40
0.0
 40
0.0
 40
0.0
 40
0.3333333333
 40
0.5
 40
0.6666666667
 40
0.8333333333
 40
1.0
 40
1.0
 40
1.0
 40
1.0
 10
-2.2042609125
 20
-16.8688945578
 30
0.0
 10
-2.2234379545
 20
-16.8891017636
 30
0.0
 10
-2.2474575502
 20
-16.9243415277
 30
0.0
 10
-2.271333003
 20
-16.9821815825
 30
0.0
 10
-2.2843795478
 20
-17.0299838468
 30
0.0
 10
-2.2919989017
 20
-17.081383065
 30
0.0
 10
-2.2934014042
 20
-17.117640553
 30
0.0
 10
-2.2934013969
 20
-17.1365619549
 30
0.0
  0
SPLINE
  5
6F0
100
AcDbEntity
  8
0
100
AcDbSpline
 62
250
  6
CONTINUOUS
 70
0
 71
3
 72
15
 73
11
 74
0
 42
0.0000001
 43
0.0000001
 44
0.0000000001
 40
0.0
 40
0.0
 40
0.0
 40
0.0
 40
0.125
 40
0.25
 40
0.375
 40
0.5
 40
0.625
 40
0.75
 40
0.875
 40
1.0
 40
1.0
 40
1.0
 40
1.0
 10
6.4009679363
 20
-12.6430359343
 30
0.0
 10
6.400976005
 20
-12.6339578459
 30
0.0
 10
6.4028230248
 20
-12.6166202497
 30
0.0
 10
6.4102753316
 20
-12.5910657717
 30
0.0
 10
6.4229663198
 20
-12.5659584598
 30
0.0
 10
6.4403445224
 20
-12.5437058435
 30
0.0
 10
6.4620001415
 20
-12.5255520942
 30
0.0
 10
6.4867536966
 20
-12.5120490028
 30
0.0
 10
6.5121644091
 20
-12.5037713429
 30
0.0
 10
6.529522734
 20
-12.5013554632
 30
0.0
 10
6.5386545939
 20
-12.5010399977
 30
0.0
  0
SPLINE
  5
6F1
100
AcDbEntity
  8
0
100
AcDbSpline
 62
250
  6
CONTINUOUS
 70
0
 71
3
 72
13
 73
9
 74
0
 42
0.0000001
 43
0.0000001
 44
0.0000000001
 40
0.0
 40
0.0
 40
0.0
 40
0.0
 40
0.1666666667
 40
0.3333333333
 40
0.5
 40
0.6666666667
 40
0.8333333333
 40
1.0
 40
1.0
 40
1.0
 40
1.0
 10
-1.9760071284
 20
-16.7743515416
 30
0.0
 10
-1.990976206
 20
-16.7743515416
 30
0.0
 10
-2.0199415965
 20
-16.776580282
 30
0.0
 10
-2.0627119322
 20
-16.7855639552
 30
0.0
 10
-2.1049924309
 20
-16.8003407854
 30
0.0
 10
-2.1438740156
 20
-16.8200643008
 30
0.0
 10
-2.1768425747
 20
-16.8427410273
 30
0.0
 10
-2.1955410781
 20
-16.8597063061
 30
0.0
 10
-2.2042609125
 20
-16.8688945578
 30
0.0
  0
SPLINE
  5
6F2
100
AcDbEntity
  8
0
100
AcDbSpline
 62
250
  6
CONTINUOUS
 70
0
 71
3
 72
13
 73
9
 74
0
 42
0.0000001
 43
0.0000001
 44
0.0000000001
 40
0.0
 40
0.0
 40
0.0
 40
0.0
 40
0.1666666667
 40
0.3333333333
 40
0.5
 40
0.6666666667
 40
0.8333333333
 40
1.0
 40
1.0
 40
1.0
 40
1.0
 10
-1.7585583041
 20
-16.8615275049
 30
0.0
 10
-1.7676492011
 20
-16.8526995658
 30
0.0
 10
-1.7868486274
 20
-16.836536248
 30
0.0
 10
-1.8196256099
 20
-16.8153660781
 30
0.0
 10
-1.8571868704
 20
-16.7973131459
 30
0.0
 10
-1.897080733
 20
-16.7840614638
 30
0.0
 10
-1.936446626
 20
-16.7762269275
 30
0.0
 10
-1.962634123
 20
-16.7743515416
 30
0.0
 10
-1.9760071284
 20
-16.7743515416
 30
0.0
  0
SPLINE
  5
6F3
100
AcDbEntity
  8
0
100
AcDbSpline
 62
250
  6
CONTINUOUS
 70
0
 71
3
 72
13
 73
9
 74
0
 42
0.0000001
 43
0.0000001
 44
0.0000000001
 40
0.0
 40
0.0
 40
0.0
 40
0.0
 40
0.1666666667
 40
0.3333333333
 40
0.5
 40
0.6666666667
 40
0.8333333333
 40
1.0
 40
1.0
 40
1.0
 40
1.0
 10
-1.6694177473
 20
-17.0862205668
 30
0.0
 10
-1.6694177473
 20
-17.0707975173
 30
0.0
 10
-1.6716300885
 20
-17.041246468
 30
0.0
 10
-1.6803766884
 20
-16.9983796043
 30
0.0
 10
-1.6941557589
 20
-16.9576471794
 30
0.0
 10
-1.7122764282
 20
-16.9204895196
 30
0.0
 10
-1.7336396181
 20
-16.888313934
 30
0.0
 10
-1.7497818399
 20
-16.8700501063
 30
0.0
 10
-1.7585583041
 20
-16.8615275049
 30
0.0
  0
SPLINE
  5
6F4
100
AcDbEntity
  8
0
100
AcDbSpline
 62
250
  6
CONTINUOUS
 70
0
 71
3
 72
12
 73
8
 74
0
 42
0.0000001
 43
0.0000001
 44
0.0000000001
 40
0.0
 40
0.0
 40
0.0
 40
0.0
 40
0.3333333333
 40
0.5
 40
0.6666666667
 40
0.8333333333
 40
1.0
 40
1.0
 40
1.0
 40
1.0
 10
-1.7563675105
 20
-17.3425727746
 30
0.0
 10
-1.7379786973
 20
-17.3130720008
 30
0.0
 10
-1.7143624673
 20
-17.2695860917
 30
0.0
 10
-1.6912861177
 20
-17.2115171886
 30
0.0
 10
-1.6787679239
 20
-17.1686402336
 30
0.0
 10
-1.6711665188
 20
-17.126724913
 30
0.0
 10
-1.6694177473
 20
-17.0996772308
 30
0.0
 10
-1.6694177473
 20
-17.0862205668
 30
0.0
  0
SPLINE
  5
6F5
100
AcDbEntity
  8
0
100
AcDbSpline
 62
250
  6
CONTINUOUS
 70
0
 71
3
 72
12
 73
8
 74
0
 42
0.0000001
 43
0.0000001
 44
0.0000000001
 40
0.0
 40
0.0
 40
0.0
 40
0.0
 40
0.3333333333
 40
0.5
 40
0.6666666667
 40
0.8333333333
 40
1.0
 40
1.0
 40
1.0
 40
1.0
 10
-2.1215618395
 20
-17.7347990816
 30
0.0
 10
-2.0716242267
 20
-17.6895785876
 30
0.0
 10
-2.0002199124
 20
-17.6238473102
 30
0.0
 10
-1.9141601682
 20
-17.5370375286
 30
0.0
 10
-1.8550087308
 20
-17.4722551734
 30
0.0
 10
-1.8015159572
 20
-17.4078305811
 30
0.0
 10
-1.7701617421
 20
-17.3647025609
 30
0.0
 10
-1.7563675105
 20
-17.3425727746
 30
0.0
  0
SPLINE
  5
6F6
100
AcDbEntity
  8
0
100
AcDbSpline
 62
250
  6
CONTINUOUS
 70
0
 71
3
 72
15
 73
11
 74
0
 42
0.0000001
 43
0.0000001
 44
0.0000000001
 40
0.0
 40
0.0
 40
0.0
 40
0.0
 40
0.125
 40
0.25
 40
0.375
 40
0.5
 40
0.625
 40
0.75
 40
0.875
 40
1.0
 40
1.0
 40
1.0
 40
1.0
 10
-6.726287661
 20
-17.4322159582
 30
0.0
 10
-6.7420130317
 20
-17.4322159582
 30
0.0
 10
-6.771934549
 20
-17.4334235576
 30
0.0
 10
-6.814890616
 20
-17.4402486104
 30
0.0
 10
-6.8552058917
 20
-17.4537449467
 30
0.0
 10
-6.891192402
 20
-17.4732955132
 30
0.0
 10
-6.9219010791
 20
-17.4982490868
 30
0.0
 10
-6.9471005889
 20
-17.5273517432
 30
0.0
 10
-6.9664832808
 20
-17.5586033327
 30
0.0
 10
-6.975611917
 20
-17.5805539868
 30
0.0
 10
-6.9792286838
 20
-17.592225
 30
0.0
  0
SPLINE
  5
6F7
100
AcDbEntity
  8
0
100
AcDbSpline
 62
250
  6
CONTINUOUS
 70
0
 71
3
 72
35
 73
31
 74
0
 42
0.0000001
 43
0.0000001
 44
0.0000000001
 40
0.0
 40
0.0
 40
0.0
 40
0.0
 40
0.0166666667
 40
0.0333333333
 40
0.05
 40
0.0666666667
 40
0.1
 40
0.1166666667
 40
0.1333333333
 40
0.15
 40
0.1666666667
 40
0.2
 40
0.2333333333
 40
0.2666666667
 40
0.3
 40
0.3333333333
 40
0.3666666667
 40
0.4
 40
0.4666666667
 40
0.5333333333
 40
0.6
 40
0.6666666667
 40
0.7333333333
 40
0.7666666667
 40
0.8
 40
0.8333333333
 40
0.8666666667
 40
0.9
 40
0.9333333333
 40
1.0
 40
1.0
 40
1.0
 40
1.0
 10
-6.736215161
 20
-18.1884324824
 30
0.0
 10
-6.7274767111
 20
-18.1884324824
 30
0.0
 10
-6.7108354019
 20
-18.1878411417
 30
0.0
 10
-6.6862367867
 20
-18.1851396976
 30
0.0
 10
-6.662681892
 20
-18.1805850597
 30
0.0
 10
-6.6325419413
 20
-18.1718166403
 30
0.0
 10
-6.6050594547
 20
-18.1591800105
 30
0.0
 10
-6.5799397858
 20
-18.1429703484
 30
0.0
 10
-6.5621177138
 20
-18.1290106544
 30
0.0
 10
-6.5452057391
 20
-18.1130088627
 30
0.0
 10
-6.5243267944
 20
-18.0889614469
 30
0.0
 10
-6.5028511441
 20
-18.0552980992
 30
0.0
 10
-6.4856684766
 20
-18.0088409809
 30
0.0
 10
-6.4756554233
 20
-17.9602150743
 30
0.0
 10
-6.4704410585
 20
-17.9134847544
 30
0.0
 10
-6.4673571914
 20
-17.8679031516
 30
0.0
 10
-6.4658101917
 20
-17.8258765968
 30
0.0
 10
-6.465455355
 20
-17.7729012443
 30
0.0
 10
-6.4683457336
 20
-17.7137161551
 30
0.0
 10
-6.47703533
 20
-17.651805679
 30
0.0
 10
-6.4910650185
 20
-17.5958587657
 30
0.0
 10
-6.5122535211
 20
-17.5469499496
 30
0.0
 10
-6.5362671415
 20
-17.5125694232
 30
0.0
 10
-6.5600162094
 20
-17.4882113726
 30
0.0
 10
-6.5797841443
 20
-17.4721560254
 30
0.0
 10
-6.6018212254
 20
-17.45853276
 30
0.0
 10
-6.6256022163
 20
-17.4480678992
 30
0.0
 10
-6.6501457415
 20
-17.4405605609
 30
0.0
 10
-6.683855203
 20
-17.4338914552
 30
0.0
 10
-6.7091391419
 20
-17.4322159582
 30
0.0
 10
-6.726287661
 20
-17.4322159582
 30
0.0
  0
SPLINE
  5
6F8
100
AcDbEntity
  8
0
100
AcDbSpline
 62
250
  6
CONTINUOUS
 70
0
 71
3
 72
15
 73
11
 74
0
 42
0.0000001
 43
0.0000001
 44
0.0000000001
 40
0.0
 40
0.0
 40
0.0
 40
0.0
 40
0.125
 40
0.25
 40
0.375
 40
0.5
 40
0.625
 40
0.75
 40
0.875
 40
1.0
 40
1.0
 40
1.0
 40
1.0
 10
-6.9967736573
 20
-17.940408
 30
0.0
 10
-6.9945930991
 20
-17.9577229966
 30
0.0
 10
-6.9886661348
 20
-17.991662326
 30
0.0
 10
-6.9740805452
 20
-18.0405869255
 30
0.0
 10
-6.9519547424
 20
-18.0866832254
 30
0.0
 10
-6.9206225363
 20
-18.1263548791
 30
0.0
 10
-6.8798581495
 20
-18.1553868049
 30
0.0
 10
-6.8339916425
 20
-18.1747630638
 30
0.0
 10
-6.78587943
 20
-18.1858758276
 30
0.0
 10
-6.7529482456
 20
-18.1884324824
 30
0.0
 10
-6.736215161
 20
-18.1884324824
 30
0.0
  0
SPLINE
  5
6F9
100
AcDbEntity
  8
0
100
AcDbSpline
 62
250
  6
CONTINUOUS
 70
0
 71
3
 72
37
 73
33
 74
0
 42
0.0000001
 43
0.0000001
 44
0.0000000001
 40
0.0
 40
0.0
 40
0.0
 40
0.0
 40
0.0454545455
 40
0.0909090909
 40
0.1363636364
 40
0.1818181818
 40
0.2272727273
 40
0.2727272727
 40
0.2954545455
 40
0.3181818182
 40
0.3409090909
 40
0.3636363636
 40
0.3863636364
 40
0.4090909091
 40
0.4545454545
 40
0.4772727273
 40
0.5
 40
0.5227272727
 40
0.5454545455
 40
0.5681818182
 40
0.5909090909
 40
0.6363636364
 40
0.6818181818
 40
0.7272727273
 40
0.7727272727
 40
0.8181818182
 40
0.8636363636
 40
0.8863636364
 40
0.9090909091
 40
0.9318181818
 40
0.9545454545
 40
1.0
 40
1.0
 40
1.0
 40
1.0
 10
-6.2103454129
 20
-17.8051446551
 30
0.0
 10
-6.2103454129
 20
-17.8348673583
 30
0.0
 10
-6.212338557
 20
-17.8921302107
 30
0.0
 10
-6.2193681294
 20
-17.9735813601
 30
0.0
 10
-6.231156753
 20
-18.0488357678
 30
0.0
 10
-6.2519856071
 20
-18.118996402
 30
0.0
 10
-6.2829147927
 20
-18.1838943836
 30
0.0
 10
-6.3173494537
 20
-18.2328617393
 30
0.0
 10
-6.3507818698
 20
-18.2698246543
 30
0.0
 10
-6.3784816406
 20
-18.2958463373
 30
0.0
 10
-6.4088272248
 20
-18.320160841
 30
0.0
 10
-6.4415714402
 20
-18.3424940501
 30
0.0
 10
-6.4776126722
 20
-18.363018687
 30
0.0
 10
-6.5302023725
 20
-18.3871810381
 30
0.0
 10
-6.586353935
 20
-18.404022974
 30
0.0
 10
-6.6433860598
 20
-18.4136179129
 30
0.0
 10
-6.6876894785
 20
-18.4177230584
 30
0.0
 10
-6.7319748906
 20
-18.4189968752
 30
0.0
 10
-6.7749595941
 20
-18.4180858595
 30
0.0
 10
-6.816993254
 20
-18.4148503942
 30
0.0
 10
-6.8726855432
 20
-18.4068131747
 30
0.0
 10
-6.9380863337
 20
-18.3895097169
 30
0.0
 10
-7.0056812746
 20
-18.3610204489
 30
0.0
 10
-7.0663909362
 20
-18.3250287116
 30
0.0
 10
-7.1187441887
 20
-18.2820397686
 30
0.0
 10
-7.162593523
 20
-18.2306736845
 30
0.0
 10
-7.1925514079
 20
-18.1805437629
 30
0.0
 10
-7.2120859921
 20
-18.1366174609
 30
0.0
 10
-7.2246434527
 20
-18.1013759305
 30
0.0
 10
-7.2348214246
 20
-18.0639612224
 30
0.0
 10
-7.2451936908
 20
-18.0114573076
 30
0.0
 10
-7.2498175875
 20
-17.9698081293
 30
0.0
 10
-7.2521588295
 20
-17.940371
 30
0.0
  0
SPLINE
  5
6FA
100
AcDbEntity
  8
0
100
AcDbSpline
 62
250
  6
CONTINUOUS
 70
0
 71
3
 72
26
 73
22
 74
0
 42
0.0000001
 43
0.0000001
 44
0.0000000001
 40
0.0
 40
0.0
 40
0.0
 40
0.0
 40
0.0357142857
 40
0.0714285714
 40
0.1071428571
 40
0.1428571429
 40
0.1785714286
 40
0.2142857143
 40
0.25
 40
0.2857142857
 40
0.3214285714
 40
0.3571428571
 40
0.4285714286
 40
0.5
 40
0.5714285714
 40
0.6428571429
 40
0.7142857143
 40
0.7857142857
 40
0.8571428571
 40
0.9285714286
 40
1.0
 40
1.0
 40
1.0
 40
1.0
 10
-6.981669
 20
-17.316538999
 30
0.0
 10
-6.9703627826
 20
-17.3046377178
 30
0.0
 10
-6.9459166923
 20
-17.2840165581
 30
0.0
 10
-6.9053288944
 20
-17.2598371114
 30
0.0
 10
-6.8620926776
 20
-17.2414642726
 30
0.0
 10
-6.8176131379
 20
-17.2281470358
 30
0.0
 10
-6.7739777603
 20
-17.2196442973
 30
0.0
 10
-6.730396065
 20
-17.2150841844
 30
0.0
 10
-6.6869710046
 20
-17.2136659819
 30
0.0
 10
-6.6442097771
 20
-17.214825727
 30
0.0
 10
-6.6023332697
 20
-17.218744229
 30
0.0
 10
-6.5479531235
 20
-17.2280718514
 30
0.0
 10
-6.4839795405
 20
-17.2478261976
 30
0.0
 10
-6.4139978031
 20
-17.2865379268
 30
0.0
 10
-6.3534851387
 20
-17.3374685107
 30
0.0
 10
-6.3035168357
 20
-17.4005822913
 30
0.0
 10
-6.2657428939
 20
-17.4690693675
 30
0.0
 10
-6.237801729
 20
-17.5432495313
 30
0.0
 10
-6.2204313357
 20
-17.622969624
 30
0.0
 10
-6.2117511313
 20
-17.7089861437
 30
0.0
 10
-6.2103454129
 20
-17.7722050278
 30
0.0
 10
-6.2103454129
 20
-17.8051446551
 30
0.0
  0
SPLINE
  5
6FB
100
AcDbEntity
  8
0
100
AcDbSpline
 62
250
  6
CONTINUOUS
 70
0
 71
3
 72
13
 73
9
 74
0
 42
0.0000001
 43
0.0000001
 44
0.0000000001
 40
0.0
 40
0.0
 40
0.0
 40
0.0
 40
0.1666666667
 40
0.3333333333
 40
0.5
 40
0.6666666667
 40
0.8333333333
 40
1.0
 40
1.0
 40
1.0
 40
1.0
 10
6.4231440979
 20
-15.3157103876
 30
0.0
 10
6.4231440979
 20
-15.3326518664
 30
0.0
 10
6.4206794523
 20
-15.3659948214
 30
0.0
 10
6.4105706307
 20
-15.4155333127
 30
0.0
 10
6.3934262729
 20
-15.4660438815
 30
0.0
 10
6.3700790565
 20
-15.5134470923
 30
0.0
 10
6.3430325648
 20
-15.5543102194
 30
0.0
 10
6.3223169027
 20
-15.5782830377
 30
0.0
 10
6.3110654996
 20
-15.5895448404
 30
0.0
  0
SPLINE
  5
6FC
100
AcDbEntity
  8
0
100
AcDbSpline
 62
250
  6
CONTINUOUS
 70
0
 71
3
 72
13
 73
9
 74
0
 42
0.0000001
 43
0.0000001
 44
0.0000000001
 40
0.0
 40
0.0
 40
0.0
 40
0.0
 40
0.1666666667
 40
0.3333333333
 40
0.5
 40
0.6666666667
 40
0.8333333333
 40
1.0
 40
1.0
 40
1.0
 40
1.0
 10
6.481866195
 20
-15.7592138265
 30
0.0
 10
6.5004308934
 20
-15.7402322876
 30
0.0
 10
6.5344963159
 20
-15.7000297216
 30
0.0
 10
6.5785349252
 20
-15.6324641017
 30
0.0
 10
6.616348621
 20
-15.5546996669
 30
0.0
 10
6.6437207118
 20
-15.4728144153
 30
0.0
 10
6.6594418243
 20
-15.3941175738
 30
0.0
 10
6.6631689876
 20
-15.3420010175
 30
0.0
 10
6.6631689876
 20
-15.3157103876
 30
0.0
  0
SPLINE
  5
6FD
100
AcDbEntity
  8
0
100
AcDbSpline
 62
250
  6
CONTINUOUS
 70
0
 71
3
 72
13
 73
9
 74
0
 42
0.0000001
 43
0.0000001
 44
0.0000000001
 40
0.0
 40
0.0
 40
0.0
 40
0.0
 40
0.1666666667
 40
0.3333333333
 40
0.5
 40
0.6666666667
 40
0.8333333333
 40
1.0
 40
1.0
 40
1.0
 40
1.0
 10
5.6045809552
 20
-16.7982554261
 30
0.0
 10
5.6045809552
 20
-16.78161097
 30
0.0
 10
5.6069676437
 20
-16.7487622665
 30
0.0
 10
5.6168681317
 20
-16.6996568551
 30
0.0
 10
5.6337843636
 20
-16.6492806976
 30
0.0
 10
5.6569459704
 20
-16.6017079207
 30
0.0
 10
5.6839379757
 20
-16.5603655297
 30
0.0
 10
5.7047456209
 20
-16.5358932928
 30
0.0
 10
5.7160736648
 20
-16.5243553162
 30
0.0
  0
SPLINE
  5
6FE
100
AcDbEntity
  8
0
100
AcDbSpline
 62
250
  6
CONTINUOUS
 70
0
 71
3
 72
29
 73
25
 74
0
 42
0.0000001
 43
0.0000001
 44
0.0000000001
 40
0.0
 40
0.0
 40
0.0
 40
0.0
 40
0.0454545455
 40
0.0909090909
 40
0.1363636364
 40
0.1818181818
 40
0.2272727273
 40
0.2727272727
 40
0.3181818182
 40
0.3636363636
 40
0.4090909091
 40
0.4545454545
 40
0.5
 40
0.5454545455
 40
0.5909090909
 40
0.6363636364
 40
0.6818181818
 40
0.7272727273
 40
0.7727272727
 40
0.8181818182
 40
0.8636363636
 40
0.9090909091
 40
0.9545454545
 40
1.0
 40
1.0
 40
1.0
 40
1.0
 10
5.3578624632
 20
-19.2046471265
 30
0.0
 10
5.3871297803
 20
-19.2109201134
 30
0.0
 10
5.4445945663
 20
-19.2187959652
 30
0.0
 10
5.531199751
 20
-19.2183369666
 30
0.0
 10
5.6168728518
 20
-19.205531072
 30
0.0
 10
5.6994992303
 20
-19.1806826608
 30
0.0
 10
5.7777847859
 20
-19.14417954
 30
0.0
 10
5.8501388951
 20
-19.0968778789
 30
0.0
 10
5.9160066608
 20
-19.0387330429
 30
0.0
 10
5.9728353514
 20
-18.9715399008
 30
0.0
 10
6.018662548
 20
-18.8981364448
 30
0.0
 10
6.0536553775
 20
-18.8188792227
 30
0.0
 10
6.0772172733
 20
-18.7333813908
 30
0.0
 10
6.0879575908
 20
-18.6452585584
 30
0.0
 10
6.0858780667
 20
-18.5581517236
 30
0.0
 10
6.0715630092
 20
-18.4722240173
 30
0.0
 10
6.0444179793
 20
-18.3875194559
 30
0.0
 10
6.0052483074
 20
-18.3081422133
 30
0.0
 10
5.955867466
 20
-18.2372119514
 30
0.0
 10
5.8969517536
 20
-18.1747509761
 30
0.0
 10
5.8302775895
 20
-18.1213241881
 30
0.0
 10
5.7577828796
 20
-18.0776855328
 30
0.0
 10
5.6828162514
 20
-18.045150555
 30
0.0
 10
5.6312759153
 20
-18.0305619852
 30
0.0
 10
5.604581
 20
-18.0251217869
 30
0.0
  0
SPLINE
  5
6FF
100
AcDbEntity
  8
0
100
AcDbSpline
 62
250
  6
CONTINUOUS
 70
0
 71
3
 72
25
 73
21
 74
0
 42
0.0000001
 43
0.0000001
 44
0.0000000001
 40
0.0
 40
0.0
 40
0.0
 40
0.0
 40
0.0555555556
 40
0.1111111111
 40
0.1666666667
 40
0.2222222222
 40
0.2777777778
 40
0.3333333333
 40
0.3888888889
 40
0.4444444444
 40
0.5
 40
0.5555555556
 40
0.6111111111
 40
0.6666666667
 40
0.7222222222
 40
0.7777777778
 40
0.8333333333
 40
0.8888888889
 40
0.9444444444
 40
1.0
 40
1.0
 40
1.0
 40
1.0
 10
5.364556
 20
-18.0251217911
 30
0.0
 10
5.3362104833
 20
-18.0308983692
 30
0.0
 10
5.2817320346
 20
-18.0465853892
 30
0.0
 10
5.2029173679
 20
-18.0818324253
 30
0.0
 10
5.127130922
 20
-18.1293008701
 30
0.0
 10
5.0582265093
 20
-18.1874459024
 30
0.0
 10
4.9987438577
 20
-18.2550204629
 30
0.0
 10
4.9501280978
 20
-18.331472004
 30
0.0
 10
4.912789471
 20
-18.4172048903
 30
0.0
 10
4.8891333121
 20
-18.5081808748
 30
0.0
 10
4.8798675918
 20
-18.5995876886
 30
0.0
 10
4.8842970099
 20
-18.691532941
 30
0.0
 10
4.9032742207
 20
-18.7839610614
 30
0.0
 10
4.9366073964
 20
-18.8722624546
 30
0.0
 10
4.9823250603
 20
-18.9525946751
 30
0.0
 10
5.03954135
 20
-19.025136455
 30
0.0
 10
5.1080578533
 20
-19.088991101
 30
0.0
 10
5.1857311213
 20
-19.1414647217
 30
0.0
 10
5.2688070714
 20
-19.1806172251
 30
0.0
 10
5.32712581
 20
-19.1980592106
 30
0.0
 10
5.3578624632
 20
-19.2046471265
 30
0.0
  0
SPLINE
  5
700
100
AcDbEntity
  8
0
100
AcDbSpline
 62
250
  6
CONTINUOUS
 70
0
 71
3
 72
13
 73
9
 74
0
 42
0.0000001
 43
0.0000001
 44
0.0000000001
 40
0.0
 40
0.0
 40
0.0
 40
0.0
 40
0.1666666667
 40
0.3333333333
 40
0.5
 40
0.6666666667
 40
0.8333333333
 40
1.0
 40
1.0
 40
1.0
 40
1.0
 10
5.254363467
 20
-17.4511864413
 30
0.0
 10
5.2655045452
 20
-17.4626376969
 30
0.0
 10
5.2859982053
 20
-17.486928394
 30
0.0
 10
5.3126485748
 20
-17.5280293473
 30
0.0
 10
5.3355569096
 20
-17.5753945167
 30
0.0
 10
5.3523241132
 20
-17.62564218
 30
0.0
 10
5.3621726888
 20
-17.6747681494
 30
0.0
 10
5.3645560656
 20
-17.7077242969
 30
0.0
 10
5.3645560656
 20
-17.7244384241
 30
0.0
  0
SPLINE
  5
701
100
AcDbEntity
  8
0
100
AcDbSpline
 62
250
  6
CONTINUOUS
 70
0
 71
3
 72
13
 73
9
 74
0
 42
0.0000001
 43
0.0000001
 44
0.0000000001
 40
0.0
 40
0.0
 40
0.0
 40
0.0
 40
0.1666666667
 40
0.3333333333
 40
0.5
 40
0.6666666667
 40
0.8333333333
 40
1.0
 40
1.0
 40
1.0
 40
1.0
 10
4.2929232024
 20
-16.2295007963
 30
0.0
 10
4.2929232024
 20
-16.2556095179
 30
0.0
 10
4.2965956799
 20
-16.3073542461
 30
0.0
 10
4.3120692933
 20
-16.3853954243
 30
0.0
 10
4.3389658489
 20
-16.4664896579
 30
0.0
 10
4.3760975833
 20
-16.5434869049
 30
0.0
 10
4.4193388881
 20
-16.6104218791
 30
0.0
 10
4.4527669609
 20
-16.650271116
 30
0.0
 10
4.4709726205
 20
-16.6690986478
 30
0.0
  0
SPLINE
  5
702
100
AcDbEntity
  8
0
100
AcDbSpline
 62
250
  6
CONTINUOUS
 70
0
 71
3
 72
27
 73
23
 74
0
 42
0.0000001
 43
0.0000001
 44
0.0000000001
 40
0.0
 40
0.0
 40
0.0
 40
0.0
 40
0.05
 40
0.1
 40
0.15
 40
0.2
 40
0.25
 40
0.3
 40
0.35
 40
0.4
 40
0.45
 40
0.5
 40
0.55
 40
0.6
 40
0.65
 40
0.7
 40
0.75
 40
0.8
 40
0.85
 40
0.9
 40
0.95
 40
1.0
 40
1.0
 40
1.0
 40
1.0
 10
4.5479973728
 20
-14.9801720029
 30
0.0
 10
4.5275765931
 20
-14.9729096689
 30
0.0
 10
4.4869310349
 20
-14.9621652465
 30
0.0
 10
4.4237197857
 20
-14.9553732599
 30
0.0
 10
4.3574735137
 20
-14.9589741671
 30
0.0
 10
4.292803323
 20
-14.9734951155
 30
0.0
 10
4.2350266441
 20
-14.9967150574
 30
0.0
 10
4.1814380514
 20
-15.0284305158
 30
0.0
 10
4.1308079726
 20
-15.0704592833
 30
0.0
 10
4.0878292346
 20
-15.120383733
 30
0.0
 10
4.0540864933
 20
-15.1753419042
 30
0.0
 10
4.0296503989
 20
-15.2350719648
 30
0.0
 10
4.0151604638
 20
-15.2979658113
 30
0.0
 10
4.0107430557
 20
-15.3622619827
 30
0.0
 10
4.016822044
 20
-15.4274760373
 30
0.0
 10
4.0333193169
 20
-15.4905835879
 30
0.0
 10
4.058648118
 20
-15.5479974504
 30
0.0
 10
4.0924522101
 20
-15.6004199578
 30
0.0
 10
4.1350673465
 20
-15.6476193147
 30
0.0
 10
4.1840966871
 20
-15.6874719023
 30
0.0
 10
4.2363758619
 20
-15.7184409479
 30
0.0
 10
4.2733815691
 20
-15.7335459058
 30
0.0
 10
4.292923
 20
-15.7396673304
 30
0.0
  0
SPLINE
  5
703
100
AcDbEntity
  8
0
100
AcDbSpline
 62
250
  6
CONTINUOUS
 70
0
 71
3
 72
13
 73
9
 74
0
 42
0.0000001
 43
0.0000001
 44
0.0000000001
 40
0.0
 40
0.0
 40
0.0
 40
0.0
 40
0.1666666667
 40
0.3333333333
 40
0.5
 40
0.6666666667
 40
0.8333333333
 40
1.0
 40
1.0
 40
1.0
 40
1.0
 10
4.6333571876
 20
-16.4916831819
 30
0.0
 10
4.6228599379
 20
-16.4798463439
 30
0.0
 10
4.6036601812
 20
-16.455054527
 30
0.0
 10
4.5791378283
 20
-16.4142361962
 30
0.0
 10
4.5584701206
 20
-16.3684142163
 30
0.0
 10
4.5435692745
 20
-16.3206659305
 30
0.0
 10
4.5349660518
 20
-16.2746066755
 30
0.0
 10
4.5329480921
 20
-16.2441687003
 30
0.0
 10
4.5329480921
 20
-16.2288485547
 30
0.0
  0
SPLINE
  5
704
100
AcDbEntity
  8
ASSI
100
AcDbSpline
 62
250
  6
CONTINUOUS
 70
0
 71
3
 72
18
 73
14
 74
0
 42
0.0000001
 43
0.0000001
 44
0.0000000001
 40
0.0
 40
0.0
 40
0.0
 40
0.0
 40
0.0048670998
 40
0.019279818
 40
0.0431061074
 40
0.076175106
 40
0.1181388981
 40
0.168570477
 40
0.2929518899
 40
0.4444305816
 40
0.6172744629
 40
0.8050710333
 40
1.0
 40
1.0
 40
1.0
 40
1.0
 10
-85.5184535879
 20
-22.3349016357
 30
0.0
 10
-85.5181296363
 20
-22.3349186133
 30
0.0
 10
-85.5187575141
 20
-22.3369414759
 30
0.0
 10
-85.5181988605
 20
-22.3391084792
 30
0.0
 10
-85.518690819
 20
-22.3442572916
 30
0.0
 10
-85.5187818617
 20
-22.350668046
 30
0.0
 10
-85.5191769259
 20
-22.3590896973
 30
0.0
 10
-85.5197692829
 20
-22.3734942916
 30
0.0
 10
-85.5207779059
 20
-22.3952384722
 30
0.0
 10
-85.5221976962
 20
-22.4251030935
 30
0.0
 10
-85.5238830422
 20
-22.4591973147
 30
0.0
 10
-85.5257565428
 20
-22.4961782167
 30
0.0
 10
-85.5270772979
 20
-22.5216531728
 30
0.0
 10
-85.5277572328
 20
-22.5346275426
 30
0.0
  0
SPLINE
  5
705
100
AcDbEntity
  8
ASSI
100
AcDbSpline
 62
250
  6
CONTINUOUS
 70
0
 71
3
 72
21
 73
17
 74
0
 42
0.0000001
 43
0.0000001
 44
0.0000000001
 40
0.0
 40
0.0
 40
0.0
 40
0.0
 40
0.1949124532
 40
0.3827012534
 40
0.5555434534
 40
0.7070243812
 40
0.7729452143
 40
0.8314100879
 40
0.8818438824
 40
0.9238097136
 40
0.9568805271
 40
0.980708108
 40
0.9891007065
 40
0.9951218643
 40
0.9987554112
 40
1.0
 40
1.0
 40
1.0
 40
1.0
 10
-83.5248483672
 20
-24.2456323968
 30
0.0
 10
-83.5247538705
 20
-24.2618755425
 30
0.0
 10
-83.5245864092
 20
-24.2937682802
 30
0.0
 10
-83.5243968389
 20
-24.3400652655
 30
0.0
 10
-83.524278279
 20
-24.382742883
 30
0.0
 10
-83.5242393162
 20
-24.415264926
 30
0.0
 10
-83.5242517043
 20
-24.4382543453
 30
0.0
 10
-83.5242789051
 20
-24.4528244379
 30
0.0
 10
-83.5243278921
 20
-24.4653934086
 30
0.0
 10
-83.5243861814
 20
-24.4758595977
 30
0.0
 10
-83.5244833141
 20
-24.4840720566
 30
0.0
 10
-83.5245354266
 20
-24.4895675512
 30
0.0
 10
-83.524663848
 20
-24.4926790632
 30
0.0
 10
-83.5246478074
 20
-24.4943052181
 30
0.0
 10
-83.5248339672
 20
-24.4949925358
 30
0.0
 10
-83.5247446486
 20
-24.4956275626
 30
0.0
 10
-83.5248483672
 20
-24.495628166
 30
0.0
  0
SPLINE
  5
706
100
AcDbEntity
  8
ASSI
100
AcDbSpline
 62
250
  6
CONTINUOUS
 70
0
 71
3
 72
21
 73
17
 74
0
 42
0.0000001
 43
0.0000001
 44
0.0000000001
 40
0.0
 40
0.0
 40
0.0
 40
0.0
 40
0.1949123348
 40
0.3827008264
 40
0.5555428574
 40
0.7070237704
 40
0.7729446196
 40
0.8314094602
 40
0.8818433255
 40
0.9238092683
 40
0.9568801175
 40
0.9807078189
 40
0.989100514
 40
0.9951217658
 40
0.9987553837
 40
1.0
 40
1.0
 40
1.0
 40
1.0
 10
-86.5277572328
 20
-24.2369056521
 30
0.0
 10
-86.5278517294
 20
-24.2531487879
 30
0.0
 10
-86.5280191907
 20
-24.28504149
 30
0.0
 10
-86.5282087607
 20
-24.3313384255
 30
0.0
 10
-86.5283273208
 20
-24.374016002
 30
0.0
 10
-86.5283662836
 20
-24.406538031
 30
0.0
 10
-86.528353896
 20
-24.4295274476
 30
0.0
 10
-86.5283266953
 20
-24.4440975447
 30
0.0
 10
-86.5282777087
 20
-24.4566665278
 30
0.0
 10
-86.5282194201
 20
-24.4671327351
 30
0.0
 10
-86.5281222866
 20
-24.4753452163
 30
0.0
 10
-86.5280701739
 20
-24.4808407322
 30
0.0
 10
-86.5279417515
 20
-24.4839522694
 30
0.0
 10
-86.5279577942
 20
-24.4855784482
 30
0.0
 10
-86.5277716298
 20
-24.4862657774
 30
0.0
 10
-86.5278609537
 20
-24.4869008179
 30
0.0
 10
-86.5277572328
 20
-24.4869014213
 30
0.0
  0
SPLINE
  5
707
100
AcDbEntity
  8
ASSI
100
AcDbSpline
 62
250
  6
CONTINUOUS
 70
0
 71
3
 72
21
 73
17
 74
0
 42
0.0000001
 43
0.0000001
 44
0.0000000001
 40
0.0
 40
0.0
 40
0.0
 40
0.0
 40
0.1950694374
 40
0.3829250863
 40
0.5557693138
 40
0.7072109875
 40
0.7731036939
 40
0.8315383474
 40
0.8819422862
 40
0.9238803969
 40
0.95692727
 40
0.9807361155
 40
0.9891213685
 40
0.9951363816
 40
0.9987644268
 40
1.0
 40
1.0
 40
1.0
 40
1.0
 10
-86.5277572328
 20
-23.8443375673
 30
0.0
 10
-86.5358617534
 20
-23.8302996508
 30
0.0
 10
-86.5517575806
 20
-23.8027351593
 30
0.0
 10
-86.5747884377
 20
-23.7627055466
 30
0.0
 10
-86.5959692217
 20
-23.7257941849
 30
0.0
 10
-86.6120676651
 20
-23.6976506397
 30
0.0
 10
-86.6234152702
 20
-23.6777428949
 30
0.0
 10
-86.6305916737
 20
-23.6651195756
 30
0.0
 10
-86.6367622145
 20
-23.6542196577
 30
0.0
 10
-86.6418886478
 20
-23.6451370692
 30
0.0
 10
-86.6458679459
 20
-23.637986855
 30
0.0
 10
-86.648549745
 20
-23.6332116975
 30
0.0
 10
-86.6499801604
 20
-23.6304601706
 30
0.0
 10
-86.6508111072
 20
-23.6290664731
 30
0.0
 10
-86.6509822428
 20
-23.6283808203
 30
0.0
 10
-86.6513917157
 20
-23.6278825518
 30
0.0
 10
-86.6513028
 20
-23.6278312164
 30
0.0
  0
SPLINE
  5
708
100
AcDbEntity
  8
ASSI
100
AcDbSpline
 62
250
  6
CONTINUOUS
 70
0
 71
3
 72
21
 73
17
 74
0
 42
0.0000001
 43
0.0000001
 44
0.0000000001
 40
0.0
 40
0.0
 40
0.0
 40
0.0
 40
0.1950694221
 40
0.3829250263
 40
0.5557692238
 40
0.7072108922
 40
0.7731036003
 40
0.8315382477
 40
0.8819421971
 40
0.9238803247
 40
0.9569272028
 40
0.9807360678
 40
0.9891213366
 40
0.9951363653
 40
0.9987644222
 40
1.0
 40
1.0
 40
1.0
 40
1.0
 10
-83.5248483672
 20
-23.8443375673
 30
0.0
 10
-83.5167438473
 20
-23.8302996519
 30
0.0
 10
-83.5008480225
 20
-23.8027351647
 30
0.0
 10
-83.4778171692
 20
-23.7627055585
 30
0.0
 10
-83.4566363884
 20
-23.7257942026
 30
0.0
 10
-83.4405379464
 20
-23.6976506598
 30
0.0
 10
-83.4291903417
 20
-23.6777429158
 30
0.0
 10
-83.4220139379
 20
-23.665119596
 30
0.0
 10
-83.4158433961
 20
-23.6542196766
 30
0.0
 10
-83.4107169615
 20
-23.6451370858
 30
0.0
 10
-83.4067376617
 20
-23.6379868685
 30
0.0
 10
-83.404055861
 20
-23.6332117082
 30
0.0
 10
-83.4026254437
 20
-23.6304601776
 30
0.0
 10
-83.4017944947
 20
-23.6290664769
 30
0.0
 10
-83.4016233587
 20
-23.628380822
 30
0.0
 10
-83.401213884
 20
-23.627882552
 30
0.0
 10
-83.4013028
 20
-23.6278312164
 30
0.0
  0
SPLINE
  5
709
100
AcDbEntity
  8
ASSI
100
AcDbSpline
 62
250
  6
CONTINUOUS
 70
0
 71
3
 72
21
 73
17
 74
0
 42
0.0000001
 43
0.0000001
 44
0.0000000001
 40
0.0
 40
0.0
 40
0.0
 40
0.0
 40
0.0012446163
 40
0.0048782342
 40
0.010899486
 40
0.0192921811
 40
0.0431198825
 40
0.0761907317
 40
0.1181566745
 40
0.1685905398
 40
0.2270553804
 40
0.2929762296
 40
0.4444571426
 40
0.6172991736
 40
0.8050876652
 40
1.0
 40
1.0
 40
1.0
 40
1.0
 10
-86.5277572328
 20
24.4869014213
 30
0.0
 10
-86.5278609537
 20
24.4869008179
 30
0.0
 10
-86.5277716298
 20
24.4862657774
 30
0.0
 10
-86.5279577942
 20
24.4855784482
 30
0.0
 10
-86.5279417515
 20
24.4839522694
 30
0.0
 10
-86.5280701739
 20
24.4808407322
 30
0.0
 10
-86.5281222866
 20
24.4753452163
 30
0.0
 10
-86.5282194201
 20
24.4671327351
 30
0.0
 10
-86.5282777087
 20
24.4566665278
 30
0.0
 10
-86.5283266953
 20
24.4440975447
 30
0.0
 10
-86.528353896
 20
24.4295274476
 30
0.0
 10
-86.5283662836
 20
24.406538031
 30
0.0
 10
-86.5283273208
 20
24.374016002
 30
0.0
 10
-86.5282087607
 20
24.3313384255
 30
0.0
 10
-86.5280191907
 20
24.28504149
 30
0.0
 10
-86.5278517294
 20
24.2531487879
 30
0.0
 10
-86.5277572328
 20
24.2369056521
 30
0.0
  0
SPLINE
  5
70A
100
AcDbEntity
  8
ASSI
100
AcDbSpline
 62
250
  6
CONTINUOUS
 70
0
 71
3
 72
21
 73
17
 74
0
 42
0.0000001
 43
0.0000001
 44
0.0000000001
 40
0.0
 40
0.0
 40
0.0
 40
0.0
 40
0.1950694374
 40
0.3829250863
 40
0.5557693138
 40
0.7072109875
 40
0.7731036939
 40
0.8315383474
 40
0.8819422862
 40
0.9238803969
 40
0.95692727
 40
0.9807361155
 40
0.9891213685
 40
0.9951363816
 40
0.9987644268
 40
1.0
 40
1.0
 40
1.0
 40
1.0
 10
-83.5248483672
 20
23.8443375673
 30
0.0
 10
-83.5167438466
 20
23.8302996508
 30
0.0
 10
-83.5008480194
 20
23.8027351593
 30
0.0
 10
-83.4778171623
 20
23.7627055466
 30
0.0
 10
-83.4566363783
 20
23.7257941849
 30
0.0
 10
-83.4405379349
 20
23.6976506397
 30
0.0
 10
-83.4291903298
 20
23.6777428949
 30
0.0
 10
-83.4220139263
 20
23.6651195756
 30
0.0
 10
-83.4158433855
 20
23.6542196577
 30
0.0
 10
-83.4107169522
 20
23.6451370692
 30
0.0
 10
-83.4067376541
 20
23.637986855
 30
0.0
 10
-83.404055855
 20
23.6332116975
 30
0.0
 10
-83.4026254396
 20
23.6304601706
 30
0.0
 10
-83.4017944928
 20
23.6290664731
 30
0.0
 10
-83.4016233572
 20
23.6283808203
 30
0.0
 10
-83.4012138843
 20
23.6278825518
 30
0.0
 10
-83.4013028
 20
23.6278312164
 30
0.0
  0
SPLINE
  5
70B
100
AcDbEntity
  8
ASSI
100
AcDbSpline
 62
250
  6
CONTINUOUS
 70
0
 71
3
 72
22
 73
18
 74
0
 42
0.0000001
 43
0.0000001
 44
0.0000000001
 40
0.0
 40
0.0
 40
0.0
 40
0.0
 40
0.1959382607
 40
0.3839986729
 40
0.5568375919
 40
0.7081347682
 40
0.7738582707
 40
0.832135106
 40
0.8824065519
 40
0.9241899824
 40
0.9571207302
 40
0.9701557685
 40
0.9808559551
 40
0.9892048862
 40
0.9951876987
 40
0.9987898754
 40
1.0
 40
1.0
 40
1.0
 40
1.0
 10
-91.2103397385
 20
-21.1361579495
 30
0.0
 10
-91.242074007
 20
-21.1409451004
 30
0.0
 10
-91.304264311
 20
-21.1503424306
 30
0.0
 10
-91.394439559
 20
-21.1640162125
 30
0.0
 10
-91.4773782341
 20
-21.1766424749
 30
0.0
 10
-91.5405001592
 20
-21.1862978123
 30
0.0
 10
-91.5850685088
 20
-21.1931503963
 30
0.0
 10
-91.6132779614
 20
-21.1975065749
 30
0.0
 10
-91.637612118
 20
-21.2012822029
 30
0.0
 10
-91.6578316598
 20
-21.2044488324
 30
0.0
 10
-91.6720431605
 20
-21.2066834977
 30
0.0
 10
-91.6811845267
 20
-21.2081666298
 30
0.0
 10
-91.6864202009
 20
-21.2089816635
 30
0.0
 10
-91.6903390575
 20
-21.2097252984
 30
0.0
 10
-91.6935206198
 20
-21.2100552291
 30
0.0
 10
-91.6947560504
 20
-21.2106639426
 30
0.0
 10
-91.6960524064
 20
-21.2105214509
 30
0.0
 10
-91.6960228483
 20
-21.2107174445
 30
0.0
  0
SPLINE
  5
70C
100
AcDbEntity
  8
ASSI
100
AcDbSpline
 62
250
  6
CONTINUOUS
 70
0
 71
3
 72
21
 73
17
 74
0
 42
0.0000001
 43
0.0000001
 44
0.0000000001
 40
0.0
 40
0.0
 40
0.0
 40
0.0
 40
0.1949343736
 40
0.3825034456
 40
0.5552324298
 40
0.7066747772
 40
0.772527893
 40
0.8309544672
 40
0.8813839557
 40
0.9233243819
 40
0.9564059712
 40
0.9802858074
 40
0.9887098926
 40
0.9947782318
 40
0.9984993436
 40
1.0
 40
1.0
 40
1.0
 40
1.0
 10
-90.7423864383
 20
-21.5608980638
 30
0.0
 10
-90.7440894532
 20
-21.5933364185
 30
0.0
 10
-90.7473197837
 20
-21.6569933816
 30
0.0
 10
-90.7516855952
 20
-21.7494121232
 30
0.0
 10
-90.7553607099
 20
-21.8346072564
 30
0.0
 10
-90.7578325086
 20
-21.8995530008
 30
0.0
 10
-90.7593321284
 20
-21.9454732305
 30
0.0
 10
-90.7601560515
 20
-21.9745757853
 30
0.0
 10
-90.7607262673
 20
-21.9996936196
 30
0.0
 10
-90.7610403709
 20
-22.0206074212
 30
0.0
 10
-90.7610984356
 20
-22.0370592389
 30
0.0
 10
-90.7609388581
 20
-22.0480158898
 30
0.0
 10
-90.7606384979
 20
-22.0543218669
 30
0.0
 10
-90.7603718372
 20
-22.057483436
 30
0.0
 10
-90.7601001525
 20
-22.0590939296
 30
0.0
 10
-90.7597895893
 20
-22.0602148554
 30
0.0
 10
-90.7595398691
 20
-22.0602279426
 30
0.0
  0
SPLINE
  5
70D
100
AcDbEntity
  8
ASSI
100
AcDbSpline
 62
250
  6
CONTINUOUS
 70
0
 71
3
 72
18
 73
14
 74
0
 42
0.0000001
 43
0.0000001
 44
0.0000000001
 40
0.0
 40
0.0
 40
0.0
 40
0.0
 40
0.0048670998
 40
0.0192798179
 40
0.0431061073
 40
0.0761751059
 40
0.1181388979
 40
0.1685704768
 40
0.2929518895
 40
0.4444305812
 40
0.6172744626
 40
0.8050710332
 40
1.0
 40
1.0
 40
1.0
 40
1.0
 10
-85.5184535879
 20
22.3349016357
 30
0.0
 10
-85.5181296363
 20
22.3349186133
 30
0.0
 10
-85.5187575143
 20
22.3369414759
 30
0.0
 10
-85.5181988606
 20
22.3391084791
 30
0.0
 10
-85.5186908192
 20
22.3442572916
 30
0.0
 10
-85.5187818619
 20
22.350668046
 30
0.0
 10
-85.5191769261
 20
22.3590896973
 30
0.0
 10
-85.5197692831
 20
22.3734942915
 30
0.0
 10
-85.520777906
 20
22.3952384721
 30
0.0
 10
-85.5221976963
 20
22.4251030935
 30
0.0
 10
-85.5238830423
 20
22.4591973147
 30
0.0
 10
-85.5257565429
 20
22.4961782167
 30
0.0
 10
-85.5270772979
 20
22.5216531728
 30
0.0
 10
-85.5277572328
 20
22.5346275426
 30
0.0
  0
SPLINE
  5
70E
100
AcDbEntity
  8
ASSI
100
AcDbSpline
 62
250
  6
CONTINUOUS
 70
0
 71
3
 72
22
 73
18
 74
0
 42
0.0000001
 43
0.0000001
 44
0.0000000001
 40
0.0
 40
0.0
 40
0.0
 40
0.0
 40
0.1959382124
 40
0.3839985938
 40
0.5568375026
 40
0.7081346874
 40
0.7738581997
 40
0.8321350472
 40
0.8824065063
 40
0.9241899501
 40
0.95712071
 40
0.9701557535
 40
0.9808559447
 40
0.9892048797
 40
0.9951876953
 40
0.9987898742
 40
1.0
 40
1.0
 40
1.0
 40
1.0
 10
-91.2103397385
 20
21.1361579495
 30
0.0
 10
-91.2420740193
 20
21.1409451022
 30
0.0
 10
-91.3042643499
 20
21.1503424363
 30
0.0
 10
-91.3944396405
 20
21.1640162245
 30
0.0
 10
-91.4773783629
 20
21.176642494
 30
0.0
 10
-91.5405003294
 20
21.1862978375
 30
0.0
 10
-91.5850687122
 20
21.1931504265
 30
0.0
 10
-91.6132781883
 20
21.1975066087
 30
0.0
 10
-91.6376123666
 20
21.20128224
 30
0.0
 10
-91.6578319274
 20
21.2044488725
 30
0.0
 10
-91.672043442
 20
21.2066835398
 30
0.0
 10
-91.6811848177
 20
21.2081666734
 30
0.0
 10
-91.6864204972
 20
21.208981708
 30
0.0
 10
-91.6903393588
 20
21.2097253438
 30
0.0
 10
-91.6935209231
 20
21.2100552746
 30
0.0
 10
-91.6947563581
 20
21.2106639893
 30
0.0
 10
-91.696052713
 20
21.2105214968
 30
0.0
 10
-91.6960231561
 20
21.2107174909
 30
0.0
  0
SPLINE
  5
70F
100
AcDbEntity
  8
ASSI
100
AcDbSpline
 62
250
  6
CONTINUOUS
 70
0
 71
3
 72
21
 73
17
 74
0
 42
0.0000001
 43
0.0000001
 44
0.0000000001
 40
0.0
 40
0.0
 40
0.0
 40
0.0
 40
0.1949450157
 40
0.3825243125
 40
0.5552624448
 40
0.7067120294
 40
0.7725678573
 40
0.8309964148
 40
0.8814270009
 40
0.9233674229
 40
0.9564475826
 40
0.9803238836
 40
0.9887448385
 40
0.9948083862
 40
0.9985211305
 40
1.0
 40
1.0
 40
1.0
 40
1.0
 10
-90.7420980942
 20
21.5609131753
 30
0.0
 10
-90.7437976082
 20
21.593351714
 30
0.0
 10
-90.7470249521
 20
21.6570088215
 30
0.0
 10
-90.7513880543
 20
21.7494276394
 30
0.0
 10
-90.7550740814
 20
21.8346220407
 30
0.0
 10
-90.7575766473
 20
21.8995662128
 30
0.0
 10
-90.7591073266
 20
21.9454848637
 30
0.0
 10
-90.75995605
 20
21.9745861386
 30
0.0
 10
-90.7605534374
 20
21.9997022694
 30
0.0
 10
-90.760897651
 20
22.0206149341
 30
0.0
 10
-90.7609858755
 20
22.0370634016
 30
0.0
 10
-90.7608574544
 20
22.0480214338
 30
0.0
 10
-90.7605790719
 20
22.0543220514
 30
0.0
 10
-90.7603351676
 20
22.0574889432
 30
0.0
 10
-90.7600689178
 20
22.0590837095
 30
0.0
 10
-90.7597859504
 20
22.0602150461
 30
0.0
 10
-90.7595398691
 20
22.0602279426
 30
0.0
  0
SPLINE
  5
710
100
AcDbEntity
  8
ASSI
100
AcDbSpline
 62
7
  6
CONTINUOUS
 70
0
 71
3
 72
10
 73
6
 74
0
 42
0.0000001
 43
0.0000001
 44
0.0000000001
 40
0.0
 40
0.0
 40
0.0
 40
0.0
 40
0.0872234861
 40
0.4713616388
 40
1.0
 40
1.0
 40
1.0
 40
1.0
 10
-85.7763028
 20
23.1226497308
 30
0.0
 10
-85.769129707
 20
23.1269370009
 30
0.0
 10
-85.7302951287
 20
23.1499854503
 30
0.0
 10
-85.6472619144
 20
23.1977854189
 30
0.0
 10
-85.5716182933
 20
23.2416634602
 30
0.0
 10
-85.5277572328
 20
23.2669872981
 30
0.0
  0
SPLINE
  5
711
100
AcDbEntity
  8
ASSI
100
AcDbSpline
 62
250
  6
CONTINUOUS
 70
0
 71
3
 72
21
 73
17
 74
0
 42
0.0000001
 43
0.0000001
 44
0.0000000001
 40
0.0
 40
0.0
 40
0.0
 40
0.0
 40
0.1950694221
 40
0.3829250263
 40
0.5557692238
 40
0.7072108922
 40
0.7731036003
 40
0.8315382477
 40
0.8819421971
 40
0.9238803247
 40
0.9569272028
 40
0.9807360678
 40
0.9891213366
 40
0.9951363653
 40
0.9987644222
 40
1.0
 40
1.0
 40
1.0
 40
1.0
 10
-86.5277572328
 20
23.8443375673
 30
0.0
 10
-86.5358617527
 20
23.8302996519
 30
0.0
 10
-86.5517575775
 20
23.8027351647
 30
0.0
 10
-86.5747884308
 20
23.7627055585
 30
0.0
 10
-86.5959692116
 20
23.7257942026
 30
0.0
 10
-86.6120676536
 20
23.6976506598
 30
0.0
 10
-86.6234152583
 20
23.6777429158
 30
0.0
 10
-86.6305916621
 20
23.665119596
 30
0.0
 10
-86.6367622039
 20
23.6542196766
 30
0.0
 10
-86.6418886385
 20
23.6451370858
 30
0.0
 10
-86.6458679383
 20
23.6379868685
 30
0.0
 10
-86.648549739
 20
23.6332117082
 30
0.0
 10
-86.6499801563
 20
23.6304601776
 30
0.0
 10
-86.6508111053
 20
23.6290664769
 30
0.0
 10
-86.6509822413
 20
23.628380822
 30
0.0
 10
-86.651391716
 20
23.627882552
 30
0.0
 10
-86.6513028
 20
23.6278312164
 30
0.0
  0
LINE
  5
712
100
AcDbEntity
  8
ASSI
100
AcDbLine
 62
7
  6
CONTINUOUS
 10
-84.2263028
 20
18.491183651
 11
-84.2763028
 21
18.5
  0
LINE
  5
713
100
AcDbEntity
  8
ASSI
100
AcDbLine
 62
7
  6
CONTINUOUS
 10
-84.2763028
 20
-18.5
 11
-84.2263028
 21
-18.491183651
  0
SPLINE
  5
714
100
AcDbEntity
  8
ASSI
100
AcDbSpline
 62
250
  6
CONTINUOUS
 70
0
 71
3
 72
21
 73
17
 74
0
 42
0.0000001
 43
0.0000001
 44
0.0000000001
 40
0.0
 40
0.0
 40
0.0
 40
0.0
 40
0.0012445888
 40
0.0048781357
 40
0.0108992935
 40
0.019291892
 40
0.0431194729
 40
0.0761902864
 40
0.1181561176
 40
0.1685899121
 40
0.2270547857
 40
0.2929756188
 40
0.4444565466
 40
0.6172987466
 40
0.8050875468
 40
1.0
 40
1.0
 40
1.0
 40
1.0
 10
-83.5248483672
 20
24.495628166
 30
0.0
 10
-83.5247446486
 20
24.4956275626
 30
0.0
 10
-83.5248339672
 20
24.4949925358
 30
0.0
 10
-83.5246478074
 20
24.4943052181
 30
0.0
 10
-83.524663848
 20
24.4926790632
 30
0.0
 10
-83.5245354266
 20
24.4895675512
 30
0.0
 10
-83.5244833141
 20
24.4840720566
 30
0.0
 10
-83.5243861814
 20
24.4758595977
 30
0.0
 10
-83.5243278921
 20
24.4653934086
 30
0.0
 10
-83.5242789051
 20
24.4528244379
 30
0.0
 10
-83.5242517043
 20
24.4382543453
 30
0.0
 10
-83.5242393162
 20
24.415264926
 30
0.0
 10
-83.524278279
 20
24.382742883
 30
0.0
 10
-83.5243968389
 20
24.3400652655
 30
0.0
 10
-83.5245864092
 20
24.2937682802
 30
0.0
 10
-83.5247538705
 20
24.2618755425
 30
0.0
 10
-83.5248483672
 20
24.2456323968
 30
0.0
  0
SPLINE
  5
715
100
AcDbEntity
  8
0
100
AcDbSpline
 62
250
  6
CONTINUOUS
 70
0
 71
3
 72
20
 73
16
 74
0
 42
0.0000001
 43
0.0000001
 44
0.0000000001
 40
0.0
 40
0.0
 40
0.0
 40
0.0
 40
0.081444458
 40
0.162888916
 40
0.244333374
 40
0.325777832
 40
0.40722229
 40
0.488666748
 40
0.570111206
 40
0.6515556641
 40
0.7330001221
 40
0.8144445801
 40
0.8958890381
 40
0.9773334961
 40
1.0
 40
1.0
 40
1.0
 40
1.0
 10
-91.9755000404
 20
-19.2046471265
 30
0.0
 10
-91.974697964
 20
-19.2109201134
 30
0.0
 10
-91.9736898061
 20
-19.2187959652
 30
0.0
 10
-91.9737486037
 20
-19.2183369666
 30
0.0
 10
-91.9753876403
 20
-19.205531072
 30
0.0
 10
-91.9785626761
 20
-19.1806826608
 30
0.0
 10
-91.9832140301
 20
-19.14417954
 30
0.0
 10
-91.9892187808
 20
-19.0968778789
 30
0.0
 10
-91.9965650158
 20
-19.0387330429
 30
0.0
 10
-92.0050058117
 20
-18.9715399008
 30
0.0
 10
-92.0141675256
 20
-18.8981364448
 30
0.0
 10
-92.0239913501
 20
-18.8188792227
 30
0.0
 10
-92.0345081398
 20
-18.7333813908
 30
0.0
 10
-92.0426730119
 20
-18.6664577901
 30
0.0
 10
-92.0471965968
 20
-18.6291851681
 30
0.0
 10
-92.0481786653
 20
-18.621084066
 30
0.0
  0
LINE
  5
716
100
AcDbEntity
  8
0
100
AcDbLine
 62
250
  6
CONTINUOUS
 10
-92.11354898
 20
-18.0674981329
 11
-92.0996637108
 21
-18.187585
  0
SPLINE
  5
717
100
AcDbEntity
  8
0
100
AcDbSpline
 62
250
  6
CONTINUOUS
 70
0
 71
3
 72
35
 73
31
 74
0
 42
0.0000001
 43
0.0000001
 44
0.0000000001
 40
0.0
 40
0.0
 40
0.0
 40
0.0
 40
0.0166666667
 40
0.0333333333
 40
0.05
 40
0.0666666667
 40
0.1
 40
0.1166666667
 40
0.1333333333
 40
0.15
 40
0.1666666667
 40
0.2
 40
0.2333333333
 40
0.2666666667
 40
0.3
 40
0.3333333333
 40
0.3666666667
 40
0.4
 40
0.4666666667
 40
0.5333333333
 40
0.6
 40
0.6666666667
 40
0.7333333333
 40
0.7666666667
 40
0.8
 40
0.8333333333
 40
0.8666666667
 40
0.9
 40
0.9333333333
 40
1.0
 40
1.0
 40
1.0
 40
1.0
 10
-92.0995651382
 20
-18.1884324824
 30
0.0
 10
-92.0995651382
 20
-18.1884324824
 30
0.0
 10
-92.0996339244
 20
-18.1878411417
 30
0.0
 10
-92.0999481071
 20
-18.1851396976
 30
0.0
 10
-92.1004776365
 20
-18.1805850597
 30
0.0
 10
-92.1014965082
 20
-18.1718166403
 30
0.0
 10
-92.1029634311
 20
-18.1591800105
 30
0.0
 10
-92.1048417676
 20
-18.1429703484
 30
0.0
 10
-92.1064573185
 20
-18.1290106544
 30
0.0
 10
-92.1083065044
 20
-18.1130088627
 30
0.0
 10
-92.1110807527
 20
-18.0889614469
 30
0.0
 10
-92.1149540802
 20
-18.0552980992
 30
0.0
 10
-92.120276337
 20
-18.0088409809
 30
0.0
 10
-92.1258198942
 20
-17.9602150743
 30
0.0
 10
-92.1311219246
 20
-17.9134847544
 30
0.0
 10
-92.1362696741
 20
-17.8679031516
 30
0.0
 10
-92.1409949398
 20
-17.8258765968
 30
0.0
 10
-92.1469268726
 20
-17.7729012443
 30
0.0
 10
-92.1535142288
 20
-17.7137161551
 30
0.0
 10
-92.1603592351
 20
-17.651805679
 30
0.0
 10
-92.1665078145
 20
-17.5958587657
 30
0.0
 10
-92.1718535754
 20
-17.5469499496
 30
0.0
 10
-92.1755939633
 20
-17.5125694232
 30
0.0
 10
-92.1782364722
 20
-17.4882113726
 30
0.0
 10
-92.1799750929
 20
-17.4721560254
 30
0.0
 10
-92.1814480411
 20
-17.45853276
 30
0.0
 10
-92.1825780582
 20
-17.4480678992
 30
0.0
 10
-92.1833879708
 20
-17.4405605609
 30
0.0
 10
-92.1841069817
 20
-17.4338914552
 30
0.0
 10
-92.1842874734
 20
-17.4322159582
 30
0.0
 10
-92.1842874734
 20
-17.4322159582
 30
0.0
  0
SPLINE
  5
718
100
AcDbEntity
  8
0
100
AcDbSpline
 62
250
  6
CONTINUOUS
 70
0
 71
3
 72
37
 73
33
 74
0
 42
0.0000001
 43
0.0000001
 44
0.0000000001
 40
0.0
 40
0.0
 40
0.0
 40
0.0
 40
0.0454545455
 40
0.0909090909
 40
0.1363636364
 40
0.1818181818
 40
0.2272727273
 40
0.2727272727
 40
0.2954545455
 40
0.3181818182
 40
0.3409090909
 40
0.3636363636
 40
0.3863636364
 40
0.4090909091
 40
0.4545454545
 40
0.4772727273
 40
0.5
 40
0.5227272727
 40
0.5454545455
 40
0.5681818182
 40
0.5909090909
 40
0.6363636364
 40
0.6818181818
 40
0.7272727273
 40
0.7727272727
 40
0.8181818182
 40
0.8636363636
 40
0.8863636364
 40
0.9090909091
 40
0.9318181818
 40
0.9545454545
 40
1.0
 40
1.0
 40
1.0
 40
1.0
 10
-92.1433156977
 20
-17.8051446551
 30
0.0
 10
-92.1399875027
 20
-17.8348673583
 30
0.0
 10
-92.1335458923
 20
-17.8921302107
 30
0.0
 10
-92.1243060191
 20
-17.9735813601
 30
0.0
 10
-92.1157020957
 20
-18.0488357678
 30
0.0
 10
-92.1076230717
 20
-18.118996402
 30
0.0
 10
-92.1001000692
 20
-18.1838943836
 30
0.0
 10
-92.0943895414
 20
-18.2328617393
 30
0.0
 10
-92.0900616537
 20
-18.2698246543
 30
0.0
 10
-92.0870068527
 20
-18.2958463373
 30
0.0
 10
-92.0841455233
 20
-18.320160841
 30
0.0
 10
-92.0815114347
 20
-18.3424940501
 30
0.0
 10
-92.0790856759
 20
-18.363018687
 30
0.0
 10
-92.0762245421
 20
-18.3871810381
 30
0.0
 10
-92.0742250109
 20
-18.404022974
 30
0.0
 10
-92.0730847446
 20
-18.4136179129
 30
0.0
 10
-92.0725966152
 20
-18.4177230584
 30
0.0
 10
-92.0724451151
 20
-18.4189968752
 30
0.0
 10
-92.0725534673
 20
-18.4180858595
 30
0.0
 10
-92.0729382058
 20
-18.4148503942
 30
0.0
 10
-92.0738935326
 20
-18.4068131747
 30
0.0
 10
-92.0759483065
 20
-18.3895097169
 30
0.0
 10
-92.0793232737
 20
-18.3610204489
 30
0.0
 10
-92.0835737916
 20
-18.3250287116
 30
0.0
 10
-92.0886314764
 20
-18.2820397686
 30
0.0
 10
-92.0946475272
 20
-18.2306736845
 30
0.0
 10
-92.1004869615
 20
-18.1805437629
 30
0.0
 10
-92.1055790829
 20
-18.1366174609
 30
0.0
 10
-92.1096508409
 20
-18.1013759305
 30
0.0
 10
-92.1139582668
 20
-18.0639612224
 30
0.0
 10
-92.1199798575
 20
-18.0114573076
 30
0.0
 10
-92.1247289314
 20
-17.9698081293
 30
0.0
 10
-92.128070225
 20
-17.940371
 30
0.0
  0
SPLINE
  5
719
100
AcDbEntity
  8
0
100
AcDbSpline
 62
250
  6
CONTINUOUS
 70
0
 71
3
 72
27
 73
23
 74
0
 42
0.0000001
 43
0.0000001
 44
0.0000000001
 40
0.0
 40
0.0
 40
0.0
 40
0.0
 40
0.05
 40
0.1
 40
0.15
 40
0.2
 40
0.25
 40
0.3
 40
0.35
 40
0.4
 40
0.45
 40
0.5
 40
0.55
 40
0.6
 40
0.65
 40
0.7
 40
0.75
 40
0.8
 40
0.85
 40
0.9
 40
0.95
 40
1.0
 40
1.0
 40
1.0
 40
1.0
 10
-92.4146170654
 20
-14.9801720029
 30
0.0
 10
-92.4151991196
 20
-14.9729096689
 30
0.0
 10
-92.4160586428
 20
-14.9621652465
 30
0.0
 10
-92.4166011341
 20
-14.9553732599
 30
0.0
 10
-92.4163136142
 20
-14.9589741671
 30
0.0
 10
-92.4151526114
 20
-14.9734951155
 30
0.0
 10
-92.4132910095
 20
-14.9967150574
 30
0.0
 10
-92.4107387432
 20
-15.0284305158
 30
0.0
 10
-92.40733912
 20
-15.0704592833
 30
0.0
 10
-92.4032744097
 20
-15.120383733
 30
0.0
 10
-92.3987672544
 20
-15.1753419042
 30
0.0
 10
-92.3938301832
 20
-15.2350719648
 30
0.0
 10
-92.3885878011
 20
-15.2979658113
 30
0.0
 10
-92.3831824305
 20
-15.3622619827
 30
0.0
 10
-92.3776521285
 20
-15.4274760373
 30
0.0
 10
-92.3722539837
 20
-15.4905835879
 30
0.0
 10
-92.3673036946
 20
-15.5479974504
 30
0.0
 10
-92.3627516368
 20
-15.6004199578
 30
0.0
 10
-92.3586264406
 20
-15.6476193147
 30
0.0
 10
-92.3551235122
 20
-15.6874719023
 30
0.0
 10
-92.3523890551
 20
-15.7184409479
 30
0.0
 10
-92.3510508224
 20
-15.7335459058
 30
0.0
 10
-92.3505079975
 20
-15.7396673304
 30
0.0
  0
SPLINE
  5
71A
100
AcDbEntity
  8
CURVE
100
AcDbSpline
 62
250
  6
CONTINUOUS
 70
0
 71
3
 72
9
 73
5
 74
0
 42
0.0000001
 43
0.0000001
 44
0.0000000001
 40
0.0
 40
0.0
 40
0.0
 40
0.0
 40
0.1738893459
 40
1.0
 40
1.0
 40
1.0
 40
1.0
 10
-75.1371428874
 20
-2.2018127306
 30
0.0
 10
-75.3267953359
 20
-2.2601630555
 30
0.0
 10
-76.4632876801
 20
-2.4721418002
 30
0.0
 10
-77.7255419922
 20
-1.2328093804
 30
0.0
 10
-77.7255419922
 20
-0.2900000008
 30
0.0
  0
SPLINE
  5
71B
100
AcDbEntity
  8
CURVE
100
AcDbSpline
 62
250
  6
CONTINUOUS
 70
0
 71
3
 72
9
 73
5
 74
0
 42
0.0000001
 43
0.0000001
 44
0.0000000001
 40
0.0
 40
0.0
 40
0.0
 40
0.0
 40
0.9790475391
 40
1.0
 40
1.0
 40
1.0
 40
1.0
 10
-77.2256174271
 20
-0.2900000008
 30
0.0
 10
-77.2256174271
 20
-0.832985952
 30
0.0
 10
-76.8282221548
 20
-1.447853976
 30
0.0
 10
-76.3203888232
 20
-1.6675219371
 30
0.0
 10
-76.3097027581
 20
-1.6719467352
 30
0.0
  0
SPLINE
  5
71C
100
AcDbEntity
  8
CURVE
100
AcDbSpline
 62
250
  6
CONTINUOUS
 70
0
 71
3
 72
10
 73
6
 74
0
 42
0.0000001
 43
0.0000001
 44
0.0000000001
 40
0.0
 40
0.0
 40
0.0
 40
0.0
 40
0.2641273634
 40
0.7505516486
 40
1.0
 40
1.0
 40
1.0
 40
1.0
 10
-74.6681645624
 20
-1.3536291216
 30
0.0
 10
-74.3967069651
 20
-1.0821301737
 30
0.0
 10
-73.8632219297
 20
0.0300583709
 30
0.0
 10
-75.3562759934
 20
1.6124516243
 30
0.0
 10
-76.4910240827
 20
0.9976204935
 30
0.0
 10
-76.775507798
 20
0.7001243152
 30
0.0
  0
SPLINE
  5
71D
100
AcDbEntity
  8
CURVE
100
AcDbSpline
 62
250
  6
CONTINUOUS
 70
0
 71
3
 72
8
 73
4
 74
0
 42
0.0000001
 43
0.0000001
 44
0.0000000001
 40
0.0
 40
0.0
 40
0.0
 40
0.0
 40
1.0
 40
1.0
 40
1.0
 40
1.0
 10
-73.7261508537
 20
-0.2900000008
 30
0.0
 10
-73.7261508537
 20
-0.7480019928
 30
0.0
 10
-73.902378693
 20
-1.2306421209
 30
0.0
 10
-74.1980086247
 20
-1.580416534
 30
0.0
  0
SPLINE
  5
71E
100
AcDbEntity
  8
CURVE
100
AcDbSpline
 62
250
  6
CONTINUOUS
 70
0
 71
3
 72
8
 73
4
 74
0
 42
0.0000001
 43
0.0000001
 44
0.0000000001
 40
0.0
 40
0.0
 40
0.0
 40
0.0
 40
1.0
 40
1.0
 40
1.0
 40
1.0
 10
-73.2778442597
 20
-2.0240457986
 30
0.0
 10
-72.9269033091
 20
-1.5293593862
 30
0.0
 10
-72.7263028
 20
-0.8965572705
 30
0.0
 10
-72.7263028
 20
-0.2900000008
 30
0.0
  0
SPLINE
  5
71F
100
AcDbEntity
  8
CURVE
100
AcDbSpline
 62
250
  6
CONTINUOUS
 70
0
 71
3
 72
9
 73
5
 74
0
 42
0.0000001
 43
0.0000001
 44
0.0000000001
 40
0.0
 40
0.0
 40
0.0
 40
0.0
 40
0.6975631748
 40
1.0
 40
1.0
 40
1.0
 40
1.0
 10
-78.7253889694
 20
-0.2900000008
 30
0.0
 10
-78.7253889694
 20
-1.7042135628
 30
0.0
 10
-76.5207847975
 20
-3.8707016056
 30
0.0
 10
-74.4726935011
 20
-3.0845494863
 30
0.0
 10
-73.9751685703
 20
-2.7262962353
 30
0.0
  0
SPLINE
  5
720
100
AcDbEntity
  8
CURVE
100
AcDbSpline
 62
250
  6
CONTINUOUS
 70
0
 71
3
 72
69
 73
65
 74
0
 42
0.0000001
 43
0.0000001
 44
0.0000000001
 40
0.0
 40
0.0
 40
0.0
 40
0.0
 40
0.03125
 40
0.046875
 40
0.0625
 40
0.078125
 40
0.09375
 40
0.109375
 40
0.125
 40
0.140625
 40
0.15625
 40
0.171875
 40
0.1875
 40
0.203125
 40
0.21875
 40
0.234375
 40
0.25
 40
0.265625
 40
0.28125
 40
0.296875
 40
0.3125
 40
0.328125
 40
0.34375
 40
0.359375
 40
0.375
 40
0.390625
 40
0.40625
 40
0.421875
 40
0.4375
 40
0.453125
 40
0.46875
 40
0.484375
 40
0.5
 40
0.515625
 40
0.53125
 40
0.546875
 40
0.5625
 40
0.578125
 40
0.59375
 40
0.609375
 40
0.625
 40
0.640625
 40
0.65625
 40
0.671875
 40
0.6875
 40
0.703125
 40
0.71875
 40
0.734375
 40
0.75
 40
0.765625
 40
0.78125
 40
0.796875
 40
0.8125
 40
0.828125
 40
0.84375
 40
0.859375
 40
0.875
 40
0.890625
 40
0.90625
 40
0.921875
 40
0.9375
 40
0.953125
 40
0.96875
 40
1.0
 40
1.0
 40
1.0
 40
1.0
 10
-75.7258398864
 20
0.209993
 30
0.0
 10
-75.7420235847
 20
0.2084059328
 30
0.0
 10
-75.7663416482
 20
0.2062389598
 30
0.0
 10
-75.7985956689
 20
0.2024951511
 30
0.0
 10
-75.8232113443
 20
0.2018235732
 30
0.0
 10
-75.8462114122
 20
0.1930341366
 30
0.0
 10
-75.8697008617
 20
0.1865567041
 30
0.0
 10
-75.8928483926
 20
0.1789491141
 30
0.0
 10
-75.916874216
 20
0.1735501497
 30
0.0
 10
-75.9377287881
 20
0.1604468405
 30
0.0
 10
-75.9595056133
 20
0.1495405844
 30
0.0
 10
-75.9807646777
 20
0.1375504608
 30
0.0
 10
-76.0031725322
 20
0.1276987544
 30
0.0
 10
-76.0215029869
 20
0.1103772464
 30
0.0
 10
-76.0410419485
 20
0.0951543287
 30
0.0
 10
-76.0598242822
 20
0.0790068517
 30
0.0
 10
-76.0804246203
 20
0.0644590215
 30
0.0
 10
-76.0945095691
 20
0.0444371633
 30
0.0
 10
-76.1104633658
 20
0.0259642781
 30
0.0
 10
-76.12545716
 20
0.0067695291
 30
0.0
 10
-76.1424221164
 20
-0.0110867375
 30
0.0
 10
-76.1524624266
 20
-0.0335750701
 30
0.0
 10
-76.164494867
 20
-0.0547654348
 30
0.0
 10
-76.1754834328
 20
-0.0765156053
 30
0.0
 10
-76.188655367
 20
-0.0973245201
 30
0.0
 10
-76.1941377021
 20
-0.1213386521
 30
0.0
 10
-76.2018255423
 20
-0.1444514161
 30
0.0
 10
-76.208380961
 20
-0.167964435
 30
0.0
 10
-76.2172605604
 20
-0.1907778021
 30
0.0
 10
-76.2179758587
 20
-0.2159895213
 30
0.0
 10
-76.221029402
 20
-0.2405719864
 30
0.0
 10
-76.2228942661
 20
-0.2652731156
 30
0.0
 10
-76.2271756022
 20
-0.2901288426
 30
0.0
 10
-76.2229797296
 20
-0.3142475142
 30
0.0
 10
-76.2212004545
 20
-0.3385925728
 30
0.0
 10
-76.218231998
 20
-0.3627691386
 30
0.0
 10
-76.2176036696
 20
-0.3873932888
 30
0.0
 10
-76.2088040105
 20
-0.4103955942
 30
0.0
 10
-76.2023306623
 20
-0.433888961
 30
0.0
 10
-76.194723401
 20
-0.4570399271
 30
0.0
 10
-76.1893254813
 20
-0.4810694346
 30
0.0
 10
-76.1762241082
 20
-0.501927177
 30
0.0
 10
-76.1653195291
 20
-0.5237073211
 30
0.0
 10
-76.1533312273
 20
-0.5449696234
 30
0.0
 10
-76.1434810225
 20
-0.5673808914
 30
0.0
 10
-76.1261621524
 20
-0.5857141383
 30
0.0
 10
-76.1109415533
 20
-0.6052560762
 30
0.0
 10
-76.0947965356
 20
-0.6240412711
 30
0.0
 10
-76.0802509211
 20
-0.6446447471
 30
0.0
 10
-76.0602321124
 20
-0.6587318414
 30
0.0
 10
-76.0417620407
 20
-0.6746880683
 30
0.0
 10
-76.0225702151
 20
-0.6896841466
 30
0.0
 10
-76.0047166681
 20
-0.7066516869
 30
0.0
 10
-75.9822317606
 20
-0.7166935277
 30
0.0
 10
-75.9610446234
 20
-0.7287277967
 30
0.0
 10
-75.9392977653
 20
-0.7397180523
 30
0.0
 10
-75.9184920205
 20
-0.7528919334
 30
0.0
 10
-75.8944815436
 20
-0.758375326
 30
0.0
 10
-75.8713723084
 20
-0.7660635072
 30
0.0
 10
-75.8478628387
 20
-0.7726230223
 30
0.0
 10
-75.8250530653
 20
-0.7814924133
 30
0.0
 10
-75.7998447412
 20
-0.7822509668
 30
0.0
 10
-75.7670752392
 20
-0.7861082794
 30
0.0
 10
-75.7423087534
 20
-0.7883609345
 30
0.0
 10
-75.7258398427
 20
-0.790005
 30
0.0
  0
SPLINE
  5
721
100
AcDbEntity
  8
CURVE
100
AcDbSpline
 62
250
  6
CONTINUOUS
 70
0
 71
3
 72
69
 73
65
 74
0
 42
0.0000001
 43
0.0000001
 44
0.0000000001
 40
0.0
 40
0.0
 40
0.0
 40
0.0
 40
0.03125
 40
0.046875
 40
0.0625
 40
0.078125
 40
0.09375
 40
0.109375
 40
0.125
 40
0.140625
 40
0.15625
 40
0.171875
 40
0.1875
 40
0.203125
 40
0.21875
 40
0.234375
 40
0.25
 40
0.265625
 40
0.28125
 40
0.296875
 40
0.3125
 40
0.328125
 40
0.34375
 40
0.359375
 40
0.375
 40
0.390625
 40
0.40625
 40
0.421875
 40
0.4375
 40
0.453125
 40
0.46875
 40
0.484375
 40
0.5
 40
0.515625
 40
0.53125
 40
0.546875
 40
0.5625
 40
0.578125
 40
0.59375
 40
0.609375
 40
0.625
 40
0.640625
 40
0.65625
 40
0.671875
 40
0.6875
 40
0.703125
 40
0.71875
 40
0.734375
 40
0.75
 40
0.765625
 40
0.78125
 40
0.796875
 40
0.8125
 40
0.828125
 40
0.84375
 40
0.859375
 40
0.875
 40
0.890625
 40
0.90625
 40
0.921875
 40
0.9375
 40
0.953125
 40
0.96875
 40
1.0
 40
1.0
 40
1.0
 40
1.0
 10
-75.7258398864
 20
-0.790005
 30
0.0
 10
-75.7096561881
 20
-0.7884179328
 30
0.0
 10
-75.6853381246
 20
-0.7862509598
 30
0.0
 10
-75.6530841039
 20
-0.7825071511
 30
0.0
 10
-75.6284684285
 20
-0.7818355732
 30
0.0
 10
-75.6054683605
 20
-0.7730461366
 30
0.0
 10
-75.5819789111
 20
-0.7665687041
 30
0.0
 10
-75.5588313802
 20
-0.7589611141
 30
0.0
 10
-75.5348055568
 20
-0.7535621497
 30
0.0
 10
-75.5139509846
 20
-0.7404588405
 30
0.0
 10
-75.4921741594
 20
-0.7295525844
 30
0.0
 10
-75.4709150951
 20
-0.7175624608
 30
0.0
 10
-75.4485072405
 20
-0.7077107544
 30
0.0
 10
-75.4301767859
 20
-0.6903892464
 30
0.0
 10
-75.4106378243
 20
-0.6751663287
 30
0.0
 10
-75.3918554905
 20
-0.6590188517
 30
0.0
 10
-75.3712551525
 20
-0.6444710215
 30
0.0
 10
-75.3571702037
 20
-0.6244491633
 30
0.0
 10
-75.341216407
 20
-0.6059762781
 30
0.0
 10
-75.3262226128
 20
-0.5867815291
 30
0.0
 10
-75.3092576564
 20
-0.5689252625
 30
0.0
 10
-75.2992173462
 20
-0.5464369299
 30
0.0
 10
-75.2871849057
 20
-0.5252465652
 30
0.0
 10
-75.27619634
 20
-0.5034963947
 30
0.0
 10
-75.2630244057
 20
-0.4826874799
 30
0.0
 10
-75.2575420707
 20
-0.4586733479
 30
0.0
 10
-75.2498542305
 20
-0.4355605839
 30
0.0
 10
-75.2432988118
 20
-0.412047565
 30
0.0
 10
-75.2344192124
 20
-0.3892341979
 30
0.0
 10
-75.2337039141
 20
-0.3640224787
 30
0.0
 10
-75.2306503707
 20
-0.3394400136
 30
0.0
 10
-75.2287855066
 20
-0.3147388844
 30
0.0
 10
-75.2245041705
 20
-0.2898831574
 30
0.0
 10
-75.2287000431
 20
-0.2657644858
 30
0.0
 10
-75.2304793182
 20
-0.2414194272
 30
0.0
 10
-75.2334477747
 20
-0.2172428614
 30
0.0
 10
-75.2340761032
 20
-0.1926187112
 30
0.0
 10
-75.2428757623
 20
-0.1696164058
 30
0.0
 10
-75.2493491105
 20
-0.146123039
 30
0.0
 10
-75.2569563718
 20
-0.1229720729
 30
0.0
 10
-75.2623542915
 20
-0.0989425654
 30
0.0
 10
-75.2754556646
 20
-0.078084823
 30
0.0
 10
-75.2863602436
 20
-0.0563046789
 30
0.0
 10
-75.2983485454
 20
-0.0350423766
 30
0.0
 10
-75.3081987502
 20
-0.0126311086
 30
0.0
 10
-75.3255176203
 20
0.0057021383
 30
0.0
 10
-75.3407382195
 20
0.0252440762
 30
0.0
 10
-75.3568832372
 20
0.0440292711
 30
0.0
 10
-75.3714288516
 20
0.0646327471
 30
0.0
 10
-75.3914476604
 20
0.0787198414
 30
0.0
 10
-75.4099177321
 20
0.0946760683
 30
0.0
 10
-75.4291095577
 20
0.1096721466
 30
0.0
 10
-75.4469631047
 20
0.1266396869
 30
0.0
 10
-75.4694480122
 20
0.1366815277
 30
0.0
 10
-75.4906351494
 20
0.1487157967
 30
0.0
 10
-75.5123820075
 20
0.1597060523
 30
0.0
 10
-75.5331877523
 20
0.1728799334
 30
0.0
 10
-75.5571982291
 20
0.178363326
 30
0.0
 10
-75.5803074644
 20
0.1860515072
 30
0.0
 10
-75.6038169341
 20
0.1926110223
 30
0.0
 10
-75.6266267075
 20
0.2014804133
 30
0.0
 10
-75.6518350315
 20
0.2022389668
 30
0.0
 10
-75.6846045336
 20
0.2060962794
 30
0.0
 10
-75.7093710194
 20
0.2083489345
 30
0.0
 10
-75.7258399301
 20
0.209993
 30
0.0
  0
SPLINE
  5
722
100
AcDbEntity
  8
CURVE
100
AcDbSpline
 62
250
  6
CONTINUOUS
 70
0
 71
3
 72
9
 73
5
 74
0
 42
0.0000001
 43
0.0000001
 44
0.0000000001
 40
0.0
 40
0.0
 40
0.0
 40
0.0
 40
0.728257811
 40
1.0
 40
1.0
 40
1.0
 40
1.0
 10
-77.4192923877
 20
11.1551101322
 30
0.0
 10
-77.5734618908
 20
11.0138639557
 30
0.0
 10
-77.8630675417
 20
10.9047002907
 30
0.0
 10
-78.1482690441
 20
10.8833098474
 30
0.0
 10
-78.2262835645
 20
10.8833098474
 30
0.0
  0
SPLINE
  5
723
100
AcDbEntity
  8
CURVE
100
AcDbSpline
 62
250
  6
CONTINUOUS
 70
0
 71
3
 72
8
 73
4
 74
0
 42
0.0000001
 43
0.0000001
 44
0.0000000001
 40
0.0
 40
0.0
 40
0.0
 40
0.0
 40
1.0
 40
1.0
 40
1.0
 40
1.0
 10
-77.1715972159
 20
11.7579507336
 30
0.0
 10
-77.1715972159
 20
11.5406980947
 30
0.0
 10
-77.2591177105
 20
11.3018580965
 30
0.0
 10
-77.4192923877
 20
11.1551101322
 30
0.0
  0
SPLINE
  5
724
100
AcDbEntity
  8
CURVE
100
AcDbSpline
 62
250
  6
CONTINUOUS
 70
0
 71
3
 72
8
 73
4
 74
0
 42
0.0000001
 43
0.0000001
 44
0.0000000001
 40
0.0
 40
0.0
 40
0.0
 40
0.0
 40
1.0
 40
1.0
 40
1.0
 40
1.0
 10
-77.4192923877
 20
12.3579267794
 30
0.0
 10
-77.2597774505
 20
12.211765553
 30
0.0
 10
-77.1715972159
 20
11.9743204908
 30
0.0
 10
-77.1715972159
 20
11.7579507336
 30
0.0
  0
SPLINE
  5
725
100
AcDbEntity
  8
CURVE
100
AcDbSpline
 62
250
  6
CONTINUOUS
 70
0
 71
3
 72
9
 73
5
 74
0
 42
0.0000001
 43
0.0000001
 44
0.0000000001
 40
0.0
 40
0.0
 40
0.0
 40
0.0
 40
0.7700722265
 40
1.0
 40
1.0
 40
1.0
 40
1.0
 10
-78.2262835645
 20
12.6297219488
 30
0.0
 10
-78.0048263729
 20
12.6297219488
 30
0.0
 10
-77.7055732189
 20
12.5688615623
 30
0.0
 10
-77.4680475618
 20
12.4026004392
 30
0.0
 10
-77.4192923877
 20
12.3579267794
 30
0.0
  0
SPLINE
  5
726
100
AcDbEntity
  8
CURVE
100
AcDbSpline
 62
250
  6
CONTINUOUS
 70
0
 71
3
 72
9
 73
5
 74
0
 42
0.0000001
 43
0.0000001
 44
0.0000000001
 40
0.0
 40
0.0
 40
0.0
 40
0.0
 40
0.7282512758
 40
1.0
 40
1.0
 40
1.0
 40
1.0
 10
-79.0332900848
 20
12.3579267794
 30
0.0
 10
-78.8791257233
 20
12.4991806499
 30
0.0
 10
-78.5895061857
 20
12.6083365493
 30
0.0
 10
-78.3043011856
 20
12.6297219488
 30
0.0
 10
-78.2262835645
 20
12.6297219488
 30
0.0
  0
SPLINE
  5
727
100
AcDbEntity
  8
CURVE
100
AcDbSpline
 62
250
  6
CONTINUOUS
 70
0
 71
3
 72
8
 73
4
 74
0
 42
0.0000001
 43
0.0000001
 44
0.0000000001
 40
0.0
 40
0.0
 40
0.0
 40
0.0
 40
1.0
 40
1.0
 40
1.0
 40
1.0
 10
-79.2809852566
 20
11.7579507336
 30
0.0
 10
-79.2809852566
 20
11.9743204908
 30
0.0
 10
-79.1928074443
 20
12.2117681975
 30
0.0
 10
-79.0332900848
 20
12.3579267794
 30
0.0
  0
SPLINE
  5
728
100
AcDbEntity
  8
CURVE
100
AcDbSpline
 62
250
  6
CONTINUOUS
 70
0
 71
3
 72
8
 73
4
 74
0
 42
0.0000001
 43
0.0000001
 44
0.0000000001
 40
0.0
 40
0.0
 40
0.0
 40
0.0
 40
1.0
 40
1.0
 40
1.0
 40
1.0
 10
-79.0332900848
 20
11.1551101322
 30
0.0
 10
-79.193462501
 20
11.3018605651
 30
0.0
 10
-79.2809852566
 20
11.5406980947
 30
0.0
 10
-79.2809852566
 20
11.7579507336
 30
0.0
  0
SPLINE
  5
729
100
AcDbEntity
  8
CURVE
100
AcDbSpline
 62
250
  6
CONTINUOUS
 70
0
 71
3
 72
9
 73
5
 74
0
 42
0.0000001
 43
0.0000001
 44
0.0000000001
 40
0.0
 40
0.0
 40
0.0
 40
0.0
 40
0.7700703141
 40
1.0
 40
1.0
 40
1.0
 40
1.0
 10
-78.2262835645
 20
10.8833098474
 30
0.0
 10
-78.4477444206
 20
10.8833098474
 30
0.0
 10
-78.7470040012
 20
10.9441703424
 30
0.0
 10
-78.9845330307
 20
11.1104358475
 30
0.0
 10
-79.0332900848
 20
11.1551101322
 30
0.0
  0
SPLINE
  5
72A
100
AcDbEntity
  8
CURVE
100
AcDbSpline
 62
250
  6
CONTINUOUS
 70
0
 71
3
 72
9
 73
5
 74
0
 42
0.0000001
 43
0.0000001
 44
0.0000000001
 40
0.0
 40
0.0
 40
0.0
 40
0.0
 40
0.5032851617
 40
1.0
 40
1.0
 40
1.0
 40
1.0
 10
-79.7404615905
 20
11.7566003002
 30
0.0
 10
-79.7404615905
 20
11.5633482973
 30
0.0
 10
-79.6736629358
 20
11.1735136202
 30
0.0
 10
-79.4394533073
 20
10.8482565506
 30
0.0
 10
-79.2942471518
 20
10.7246185849
 30
0.0
  0
SPLINE
  5
72B
100
AcDbEntity
  8
CURVE
100
AcDbSpline
 62
250
  6
CONTINUOUS
 70
0
 71
3
 72
9
 73
5
 74
0
 42
0.0000001
 43
0.0000001
 44
0.0000000001
 40
0.0
 40
0.0
 40
0.0
 40
0.0
 40
0.4967142059
 40
1.0
 40
1.0
 40
1.0
 40
1.0
 10
-79.2942471518
 20
12.7884285572
 30
0.0
 10
-79.4394331967
 20
12.6648028171
 30
0.0
 10
-79.673661493
 20
12.3396257875
 30
0.0
 10
-79.7404615905
 20
11.9498292442
 30
0.0
 10
-79.7404615905
 20
11.7566003002
 30
0.0
  0
SPLINE
  5
72C
100
AcDbEntity
  8
CURVE
100
AcDbSpline
 62
250
  6
CONTINUOUS
 70
0
 71
3
 72
9
 73
5
 74
0
 42
0.0000001
 43
0.0000001
 44
0.0000000001
 40
0.0
 40
0.0
 40
0.0
 40
0.0
 40
0.7594862769
 40
1.0
 40
1.0
 40
1.0
 40
1.0
 10
-78.2265648619
 20
13.1507078752
 30
0.0
 10
-78.5153261679
 20
13.1507078752
 30
0.0
 10
-78.907095425
 20
13.0605454353
 30
0.0
 10
-79.2246188404
 20
12.8477169794
 30
0.0
 10
-79.2942471518
 20
12.7884285572
 30
0.0
  0
SPLINE
  5
72D
100
AcDbEntity
  8
CURVE
100
AcDbSpline
 62
250
  6
CONTINUOUS
 70
0
 71
3
 72
9
 73
5
 74
0
 42
0.0000001
 43
0.0000001
 44
0.0000000001
 40
0.0
 40
0.0
 40
0.0
 40
0.0
 40
0.7410185991
 40
1.0
 40
1.0
 40
1.0
 40
1.0
 10
-77.1588876866
 20
12.7884285572
 30
0.0
 10
-77.3731858875
 20
12.9708876609
 30
0.0
 10
-77.7501511645
 20
13.11972182
 30
0.0
 10
-78.1282055456
 20
13.1507078752
 30
0.0
 10
-78.2265648619
 20
13.1507078752
 30
0.0
  0
SPLINE
  5
72E
100
AcDbEntity
  8
CURVE
100
AcDbSpline
 62
250
  6
CONTINUOUS
 70
0
 71
3
 72
9
 73
5
 74
0
 42
0.0000001
 43
0.0000001
 44
0.0000000001
 40
0.0
 40
0.0
 40
0.0
 40
0.0
 40
0.5032865907
 40
1.0
 40
1.0
 40
1.0
 40
1.0
 10
-76.7126681334
 20
11.7566003002
 30
0.0
 10
-76.7126681334
 20
11.9498301032
 30
0.0
 10
-76.7794686591
 20
12.339626309
 30
0.0
 10
-77.0136962586
 20
12.6648087708
 30
0.0
 10
-77.1588876866
 20
12.7884285572
 30
0.0
  0
SPLINE
  5
72F
100
AcDbEntity
  8
CURVE
100
AcDbSpline
 62
250
  6
CONTINUOUS
 70
0
 71
3
 72
9
 73
5
 74
0
 42
0.0000001
 43
0.0000001
 44
0.0000000001
 40
0.0
 40
0.0
 40
0.0
 40
0.0
 40
0.4967189073
 40
1.0
 40
1.0
 40
1.0
 40
1.0
 10
-77.1588876866
 20
10.7246185849
 30
0.0
 10
-77.0136862215
 20
10.8482640074
 30
0.0
 10
-76.7794820131
 20
11.1735179292
 30
0.0
 10
-76.7126681334
 20
11.5633501642
 30
0.0
 10
-76.7126681334
 20
11.7566003002
 30
0.0
  0
SPLINE
  5
730
100
AcDbEntity
  8
CURVE
100
AcDbSpline
 62
250
  6
CONTINUOUS
 70
0
 71
3
 72
9
 73
5
 74
0
 42
0.0000001
 43
0.0000001
 44
0.0000000001
 40
0.0
 40
0.0
 40
0.0
 40
0.0
 40
0.7594903071
 40
1.0
 40
1.0
 40
1.0
 40
1.0
 10
-78.2265648619
 20
10.3623239211
 30
0.0
 10
-77.9378021162
 20
10.3623239211
 30
0.0
 10
-77.5460362081
 20
10.4525007128
 30
0.0
 10
-77.2285132584
 20
10.6653293537
 30
0.0
 10
-77.1588876866
 20
10.7246185849
 30
0.0
  0
SPLINE
  5
731
100
AcDbEntity
  8
CURVE
100
AcDbSpline
 62
250
  6
CONTINUOUS
 70
0
 71
3
 72
9
 73
5
 74
0
 42
0.0000001
 43
0.0000001
 44
0.0000000001
 40
0.0
 40
0.0
 40
0.0
 40
0.0
 40
0.7410181606
 40
1.0
 40
1.0
 40
1.0
 40
1.0
 10
-79.2942471518
 20
10.7246185849
 30
0.0
 10
-79.0799561303
 20
10.5421472169
 30
0.0
 10
-78.7029823074
 20
10.3933122893
 30
0.0
 10
-78.3249252706
 20
10.3623239211
 30
0.0
 10
-78.2265648619
 20
10.3623239211
 30
0.0
  0
SPLINE
  5
732
100
AcDbEntity
  8
CURVE
100
AcDbSpline
 62
250
  6
CONTINUOUS
 70
0
 71
3
 72
10
 73
6
 74
0
 42
0.0000001
 43
0.0000001
 44
0.0000000001
 40
0.0
 40
0.0
 40
0.0
 40
0.0
 40
0.2929210355
 40
0.5275938042
 40
1.0
 40
1.0
 40
1.0
 40
1.0
 10
-78.8442535717
 20
-5.4627200261
 30
0.0
 10
-78.7726947094
 20
-5.4616156828
 30
0.0
 10
-78.6397204973
 20
-5.4770528399
 30
0.0
 10
-78.4340586396
 20
-5.6287671311
 30
0.0
 10
-78.3962946651
 20
-5.8174861236
 30
0.0
 10
-78.3937173236
 20
-5.9328946758
 30
0.0
  0
SPLINE
  5
733
100
AcDbEntity
  8
CURVE
100
AcDbSpline
 62
250
  6
CONTINUOUS
 70
0
 71
3
 72
9
 73
5
 74
0
 42
0.0000001
 43
0.0000001
 44
0.0000000001
 40
0.0
 40
0.0
 40
0.0
 40
0.0
 40
0.5013510385
 40
1.0
 40
1.0
 40
1.0
 40
1.0
 10
-79.2066740348
 20
-5.804625691
 30
0.0
 10
-79.1963764554
 20
-5.7159162323
 30
0.0
 10
-79.1182667858
 20
-5.5364909894
 30
0.0
 10
-78.9330531854
 20
-5.4641091071
 30
0.0
 10
-78.8442535717
 20
-5.4627200261
 30
0.0
  0
SPLINE
  5
734
100
AcDbEntity
  8
CURVE
100
AcDbSpline
 62
250
  6
CONTINUOUS
 70
0
 71
3
 72
9
 73
5
 74
0
 42
0.0000001
 43
0.0000001
 44
0.0000000001
 40
0.0
 40
0.0
 40
0.0
 40
0.0
 40
0.2703953699
 40
1.0
 40
1.0
 40
1.0
 40
1.0
 10
-79.1896074443
 20
-6.2788012718
 30
0.0
 10
-79.1968148551
 20
-6.2365559395
 30
0.0
 10
-79.2205194548
 20
-6.0798317107
 30
0.0
 10
-79.2200048548
 20
-5.9194921387
 30
0.0
 10
-79.2066740348
 20
-5.804625691
 30
0.0
  0
SPLINE
  5
735
100
AcDbEntity
  8
CURVE
100
AcDbSpline
 62
250
  6
CONTINUOUS
 70
0
 71
3
 72
9
 73
5
 74
0
 42
0.0000001
 43
0.0000001
 44
0.0000000001
 40
0.0
 40
0.0
 40
0.0
 40
0.0
 40
0.2957417834
 40
1.0
 40
1.0
 40
1.0
 40
1.0
 10
-79.6191202619
 20
-5.3678501192
 30
0.0
 10
-79.6694872266
 20
-5.5072850092
 30
0.0
 10
-79.7515883811
 20
-6.0084690297
 30
0.0
 10
-79.7010224532
 20
-6.5122819938
 30
0.0
 10
-79.6496444568
 20
-6.8615673444
 30
0.0
  0
SPLINE
  5
736
100
AcDbEntity
  8
CURVE
100
AcDbSpline
 62
250
  6
CONTINUOUS
 70
0
 71
3
 72
17
 73
13
 74
0
 42
0.0000001
 43
0.0000001
 44
0.0000000001
 40
0.0
 40
0.0
 40
0.0
 40
0.0
 40
0.0559780952
 40
0.1687540387
 40
0.321006234
 40
0.4122750837
 40
0.516613223
 40
0.6013931059
 40
0.6776022439
 40
0.8103422694
 40
0.9200404832
 40
1.0
 40
1.0
 40
1.0
 40
1.0
 10
-78.1547633158
 20
-5.30544429
 30
0.0
 10
-78.1590763776
 20
-5.2720129691
 30
0.0
 10
-78.2259932654
 20
-5.1870348741
 30
0.0
 10
-78.3535555215
 20
-5.0461085976
 30
0.0
 10
-78.5499178099
 20
-4.942341904
 30
0.0
 10
-78.7547681231
 20
-4.8961162199
 30
0.0
 10
-78.9247896068
 20
-4.8917734095
 30
0.0
 10
-79.0835882935
 20
-4.9146605038
 30
0.0
 10
-79.252324286
 20
-4.970130962
 30
0.0
 10
-79.4176892371
 20
-5.0743158343
 30
0.0
 10
-79.5470089729
 20
-5.2214167671
 30
0.0
 10
-79.6027833905
 20
-5.3225578116
 30
0.0
 10
-79.6191202619
 20
-5.3678501192
 30
0.0
  0
SPLINE
  5
737
100
AcDbEntity
  8
CURVE
100
AcDbSpline
 62
250
  6
CONTINUOUS
 70
0
 71
3
 72
9
 73
5
 74
0
 42
0.0000001
 43
0.0000001
 44
0.0000000001
 40
0.0
 40
0.0
 40
0.0
 40
0.0
 40
0.2426586216
 40
1.0
 40
1.0
 40
1.0
 40
1.0
 10
-77.5689987965
 20
-4.9565587397
 30
0.0
 10
-77.6216823476
 20
-4.9709135121
 30
0.0
 10
-77.8344313659
 20
-5.0257465269
 30
0.0
 10
-78.074510203
 20
-5.1471222466
 30
0.0
 10
-78.1376315027
 20
-5.30544429
 30
0.0
  0
SPLINE
  5
738
100
AcDbEntity
  8
CURVE
100
AcDbSpline
 62
250
  6
CONTINUOUS
 70
0
 71
3
 72
9
 73
5
 74
0
 42
0.0000001
 43
0.0000001
 44
0.0000000001
 40
0.0
 40
0.0
 40
0.0
 40
0.0
 40
0.1980141723
 40
1.0
 40
1.0
 40
1.0
 40
1.0
 10
-76.7843052287
 20
-4.7496410148
 30
0.0
 10
-76.8359960615
 20
-4.7636822371
 30
0.0
 10
-77.0976289513
 20
-4.8324077287
 30
0.0
 10
-77.3596884387
 20
-4.8995245534
 30
0.0
 10
-77.5689987965
 20
-4.9565587397
 30
0.0
  0
SPLINE
  5
739
100
AcDbEntity
  8
CURVE
100
AcDbSpline
 62
250
  6
CONTINUOUS
 70
0
 71
3
 72
9
 73
5
 74
0
 42
0.0000001
 43
0.0000001
 44
0.0000000001
 40
0.0
 40
0.0
 40
0.0
 40
0.0
 40
0.5586214172
 40
1.0
 40
1.0
 40
1.0
 40
1.0
 10
-77.6634411775
 20
-5.5965120355
 30
0.0
 10
-77.5034003354
 20
-5.5363777493
 30
0.0
 10
-77.2070498712
 20
-5.4572958168
 30
0.0
 10
-76.9141272076
 20
-5.3691717641
 30
0.0
 10
-76.7843052287
 20
-5.3318417383
 30
0.0
  0
SPLINE
  5
73A
100
AcDbEntity
  8
CURVE
100
AcDbSpline
 62
250
  6
CONTINUOUS
 70
0
 71
3
 72
9
 73
5
 74
0
 42
0.0000001
 43
0.0000001
 44
0.0000000001
 40
0.0
 40
0.0
 40
0.0
 40
0.0
 40
0.3559141631
 40
1.0
 40
1.0
 40
1.0
 40
1.0
 10
-77.9188965129
 20
-5.9341993273
 30
0.0
 10
-77.9188965129
 20
-5.881454293
 30
0.0
 10
-77.8869625858
 20
-5.7297209739
 30
0.0
 10
-77.7527925752
 20
-5.6300496388
 30
0.0
 10
-77.6634411775
 20
-5.5965120355
 30
0.0
  0
SPLINE
  5
73B
100
AcDbEntity
  8
CURVE
100
AcDbSpline
 62
250
  6
CONTINUOUS
 70
0
 71
3
 72
8
 73
4
 74
0
 42
0.0000001
 43
0.0000001
 44
0.0000000001
 40
0.0
 40
0.0
 40
0.0
 40
0.0
 40
1.0
 40
1.0
 40
1.0
 40
1.0
 10
-76.775507798
 20
0.7001243152
 30
0.0
 10
-77.0457673276
 20
0.4175029459
 30
0.0
 10
-77.2256174271
 20
0.0544879182
 30
0.0
 10
-77.2256174271
 20
-0.2900000008
 30
0.0
  0
ELLIPSE
  5
73C
100
AcDbEntity
  8
ASSI
100
AcDbEllipse
 62
7
  6
CONTINUOUS
 10
-4.3099543016
 20
7.4999543016
 30
0.0
 11
-0.2121966568
 21
0.2121966568
 31
0.0
 40
0.9996954599
 41
-0.7852458701
 42
0.7852458701
  0
ELLIPSE
  5
73D
100
AcDbEntity
  8
ASSI
100
AcDbEllipse
 62
7
  6
CONTINUOUS
 10
-4.3099543016
 20
1.9000456984
 30
0.0
 11
0.2121966568
 21
0.2121966568
 31
0.0
 40
0.9996954599
 41
2.3563467834
 42
3.9268385237
  0
ELLIPSE
  5
73E
100
AcDbEntity
  8
ASSI
100
AcDbEllipse
 62
7
  6
CONTINUOUS
 10
8.5899543016
 20
1.9000456984
 30
0.0
 11
0.2121966568
 21
-0.2121966568
 31
0.0
 40
0.9996954599
 41
-0.7852458701
 42
0.7852458701
  0
ELLIPSE
  5
73F
100
AcDbEntity
  8
ASSI
100
AcDbEllipse
 62
7
  6
CONTINUOUS
 10
8.5899543016
 20
7.4999543016
 30
0.0
 11
0.2121966568
 21
0.2121966568
 31
0.0
 40
0.9996954599
 41
-0.7852458701
 42
0.7852458701
  0
ELLIPSE
  5
740
100
AcDbEntity
  8
ASSI
100
AcDbEllipse
 62
7
  6
CONTINUOUS
 10
-7.0499966153
 20
-22.6002744692
 30
0.0
 11
0.0220972656
 21
-0.1990550872
 31
0.0
 40
0.9986126811
 41
9.3143719601
 42
10.8848638081
  0
ELLIPSE
  5
741
100
AcDbEntity
  8
ASSI
100
AcDbEllipse
 62
7
  6
CONTINUOUS
 10
-10.3500033847
 20
-22.6002744692
 30
0.0
 11
0.0220972656
 21
0.1990550872
 31
0.0
 40
0.9986126811
 41
4.8230994598
 42
6.3935913078
  0
ELLIPSE
  5
742
100
AcDbEntity
  8
ASSI
100
AcDbEllipse
 62
7
  6
CONTINUOUS
 10
10.3500033847
 20
-22.6002744692
 30
0.0
 11
0.0220972656
 21
-0.1990550872
 31
0.0
 40
0.9986126811
 41
9.3143719601
 42
10.8848638081
  0
ELLIPSE
  5
743
100
AcDbEntity
  8
ASSI
100
AcDbEllipse
 62
7
  6
CONTINUOUS
 10
7.0499966153
 20
-22.6002744692
 30
0.0
 11
0.0220972656
 21
0.1990550872
 31
0.0
 40
0.9986126811
 41
4.8230994598
 42
6.3935913078
  0
ELLIPSE
  5
744
100
AcDbEntity
  8
ASSI
100
AcDbEllipse
 62
7
  6
CONTINUOUS
 10
-10.3500033847
 20
22.6002744692
 30
0.0
 11
-0.0220972656
 21
0.1990550872
 31
0.0
 40
0.9986126811
 41
9.3143719601
 42
10.8848638081
  0
ELLIPSE
  5
745
100
AcDbEntity
  8
ASSI
100
AcDbEllipse
 62
7
  6
CONTINUOUS
 10
-7.0499966153
 20
22.6002744692
 30
0.0
 11
-0.0220972656
 21
-0.1990550872
 31
0.0
 40
0.9986126811
 41
4.8230994598
 42
6.3935913078
  0
ELLIPSE
  5
746
100
AcDbEntity
  8
ASSI
100
AcDbEllipse
 62
7
  6
CONTINUOUS
 10
7.0499966153
 20
22.6002744692
 30
0.0
 11
-0.0220972656
 21
0.1990550872
 31
0.0
 40
0.9986126811
 41
9.3143719601
 42
10.8848638081
  0
ELLIPSE
  5
747
100
AcDbEntity
  8
ASSI
100
AcDbEllipse
 62
7
  6
CONTINUOUS
 10
10.3500033847
 20
22.6002744692
 30
0.0
 11
-0.0220972656
 21
-0.1990550872
 31
0.0
 40
0.9986126811
 41
4.8230994598
 42
6.3935913078
  0
ELLIPSE
  5
748
100
AcDbEntity
  8
ASSI
100
AcDbEllipse
 62
7
  6
CONTINUOUS
 10
-1.2
 20
22.3842776662
 30
0.0
 11
0.2
 21
0.0
 31
0.0
 40
0.0524077793
 41
-1.5707963268
 42
0.0
  0
ELLIPSE
  5
749
100
AcDbEntity
  8
ASSI
100
AcDbEllipse
 62
7
  6
CONTINUOUS
 10
1.2
 20
22.3842776662
 30
0.0
 11
0.2
 21
-0.0
 31
0.0
 40
0.0524077793
 41
3.1415926536
 42
4.7123889804
  0
ELLIPSE
  5
74A
100
AcDbEntity
  8
ASSI
100
AcDbEllipse
 62
7
  6
CONTINUOUS
 10
-1.2
 20
-22.3842776662
 30
0.0
 11
0.2
 21
-0.0
 31
0.0
 40
0.0524077793
 41
0.0
 42
1.5707963268
  0
ELLIPSE
  5
74B
100
AcDbEntity
  8
ASSI
100
AcDbEllipse
 62
7
  6
CONTINUOUS
 10
1.2
 20
-22.3842776662
 30
0.0
 11
0.2
 21
-0.0
 31
0.0
 40
0.0524077793
 41
1.5707963268
 42
3.1415926536
  0
ELLIPSE
  5
74C
100
AcDbEntity
  8
ASSI
100
AcDbEllipse
 62
7
  6
CONTINUOUS
 10
-72.7763028
 20
-21.9537669705
 30
0.0
 11
0.3546425507
 21
0.3568377408
 31
0.0
 40
0.9877342685
 41
-0.2563081296
 42
0.7710302454
  0
ELLIPSE
  5
74D
100
AcDbEntity
  8
ASSI
100
AcDbEllipse
 62
7
  6
CONTINUOUS
 10
-72.7763028
 20
21.9537669705
 30
0.0
 11
-0.3546425507
 21
0.3568377408
 31
0.0
 40
0.9877342685
 41
-3.912622899
 42
-2.8852845239
  0
ELLIPSE
  5
74E
100
AcDbEntity
  8
ASSI
100
AcDbEllipse
 62
7
  6
CONTINUOUS
 10
-6.9278731239
 20
-23.15
 30
0.0
 11
85.9426996401
 21
-0.0
 31
0.0
 40
0.0058178298
 41
2.5196231925
 42
2.6905658418
  0
ELLIPSE
  5
74F
100
AcDbEntity
  8
ASSI
100
AcDbEllipse
 62
7
  6
CONTINUOUS
 10
-6.9278731239
 20
-23.15
 30
0.0
 11
85.9426996401
 21
-0.0
 31
0.0
 40
0.0058178298
 41
-2.6791265753
 42
-2.5196231925
  0
ELLIPSE
  5
750
100
AcDbEntity
  8
ASSI
100
AcDbEllipse
 62
7
  6
CONTINUOUS
 10
-6.9278731239
 20
23.15
 30
0.0
 11
85.9426996401
 21
-0.0
 31
0.0
 40
0.0058178298
 41
2.5196231925
 42
2.6791265753
  0
ELLIPSE
  5
751
100
AcDbEntity
  8
ASSI
100
AcDbEllipse
 62
7
  6
CONTINUOUS
 10
-6.9278731239
 20
23.15
 30
0.0
 11
85.9426996401
 21
-0.0
 31
0.0
 40
0.0058178298
 41
-2.6905658418
 42
-2.5196231925
  0
ELLIPSE
  5
752
100
AcDbEntity
  8
0
100
AcDbEllipse
 62
250
  6
CONTINUOUS
 10
-2.7022911198
 20
-7.79
 30
0.0
 11
0.0
 21
90.0
 31
0.0
 40
1.0
 41
1.6769094101
 42
1.6912774153
  0
ELLIPSE
  5
753
100
AcDbEntity
  8
0
100
AcDbEllipse
 62
250
  6
CONTINUOUS
 10
-2.7022911198
 20
-7.79
 30
0.0
 11
-0.0
 21
90.0
 31
0.0
 40
1.0
 41
-4.6570235992
 42
-4.6462886338
  0
ELLIPSE
  5
754
100
AcDbEntity
  8
0
100
AcDbEllipse
 62
250
  6
CONTINUOUS
 10
-2.7022911198
 20
-7.79
 30
0.0
 11
0.0
 21
90.0
 31
0.0
 40
1.0
 41
-4.6256185299
 42
-4.6151875987
  0
ENDSEC
  0
SECTION
  2
OBJECTS
  0
DICTIONARY
  5
C
100
AcDbDictionary
280
0
281
1
  3
ACAD_GROUP
350
D
  3
ACAD_MLINESTYLE
350
17
  3
ACAD_LAYOUT
350
1A
  3
ACAD_PLOTSETTINGS
350
19
  3
ACAD_PLOTSTYLENAME
350
E
  0
DICTIONARY
  5
D
102
{ACAD_REACTORS
330
C
102
}
100
AcDbDictionary
280
0
281
1
  0
ACDBDICTIONARYWDFLT
  5
E
102
{ACAD_REACTORS
330
C
102
}
100
AcDbDictionary
281
1
  3
Normal
350
F
100
AcDbDictionaryWithDefault
340
F
  0
DICTIONARY
  5
17
102
{ACAD_REACTORS
330
C
102
}
100
AcDbDictionary
280
0
281
1
  3
Standard
350
18
  0
DICTIONARY
  5
19
102
{ACAD_REACTORS
330
C
102
}
100
AcDbDictionary
281
1
  0
DICTIONARY
  5
1A
102
{ACAD_REACTORS
330
C
102
}
100
AcDbDictionary
281
1
  3
Model
350
755
  3
Layout1
350
756
  0
ACDBPLACEHOLDER
  5
F
102
{ACAD_REACTORS
330
E
102
}
  0
MLINESTYLE
  5
18
102
{ACAD_REACTORS
330
17
102
}
100
AcDbMlineStyle
  2
STANDARD
 70
0
  3

 62
256
 51
90.0
 52
90.0
 71
2
 49
0.5
 62
256
  6
BYLAYER
 49
-0.5
 62
256
  6
BYLAYER
  0
LAYOUT
  5
755
102
{ACAD_REACTORS
330
1A
102
}
100
AcDbPlotSettings
  1

  2
none_device
  4

  6

 40
0.0
 41
0.0
 42
0.0
 43
0.0
 44
210.0
 45
297.0
 46
0.0
 47
0.0
 48
0.0
 49
0.0
140
0.0
141
0.0
142
1.0
143
1.0
 70
1024
 72
1
 73
0
 74
0
  7

 75
0
147
1.0
148
0.0
149
0.0
100
AcDbLayout
  1
Model
 70
0
 71
0
 10
0.0
 20
0.0
 11
210.0
 21
297.0
 12
0.0
 22
0.0
 32
0.0
 14
0.0
 24
0.0
 34
0.0
 15
0.0
 25
0.0
 35
0.0
146
0.0
 13
0.0
 23
0.0
 33
0.0
 16
1.0
 26
0.0
 36
0.0
 17
0.0
 27
1.0
 37
0.0
 76
0
330
305
345
0
346
0
  0
LAYOUT
  5
756
102
{ACAD_REACTORS
330
1A
102
}
100
AcDbPlotSettings
  1

  2
none_device
  4

  6

 40
0.0
 41
0.0
 42
0.0
 43
0.0
 44
210.0
 45
297.0
 46
0.0
 47
0.0
 48
0.0
 49
0.0
140
0.0
141
0.0
142
1.0
143
1.0
 70
0
 72
1
 73
0
 74
0
  7

 75
0
147
1.0
148
0.0
149
0.0
100
AcDbLayout
  1
Layout1
 70
0
 71
1
 10
0.0
 20
0.0
 11
210.0
 21
297.0
 12
0.0
 22
0.0
 32
0.0
 14
0.0
 24
0.0
 34
0.0
 15
0.0
 25
0.0
 35
0.0
146
0.0
 13
0.0
 23
0.0
 33
0.0
 16
1.0
 26
0.0
 36
0.0
 17
0.0
 27
1.0
 37
0.0
 76
0
330
306
345
0
346
0
  0
ENDSEC
  0
EOF
