0
SECTION
2
HEADER
9
$ACADVER
1
AC1014
9
$HANDSEED
5
       3DB
9
$EXTMAX
10
297.0000000000
20
210.0000000000
9
$EXTMIN
10
0.0000000000
20
0.0000000000
9
$LIMMIN
10
0.0000000000
20
0.0000000000
9
$LIMMAX
10
297.0000000000
20
210.0000000000
9
$VIEWCTR
10
148.5000000000
20
105.0000000000
9
$VIEWSIZE
40
210.0000000000
9
$CLAYER
8
0
9
$LTSCALE
40
16.3350000000
9
$CELTYPE
6
BYLAYER
9
$DIMSCALE
40
1
9
$DIMASZ
40
3.0000000000
9
$DIMEXO
40
1.8562500000
9
$DIMDLI
40
11.2860000000
9
$DIMEXE
40
5.3460000000
9
$DIMCEN
40
2.6730000000
9
$DIMLFAC
40
1.0000000000
9
$DIMTXT
40
3.0000000000
9
$DIMTOL
70
1
9
$DIMLIM
70
0
9
$DIMTFAC
40
1.0000000000
9
$DIMTP
40
0.0100000000
9
$DIMTM
40
0.0100000000
9
$MEASUREMENT
70
1
0
ENDSEC
0
SECTION
2
CLASSES
0
ENDSEC
0
SECTION
2
TABLES
0
TABLE
2
VPORT
5
8
100
AcDbSymbolTable
70
2
0
VPORT
5
1F4
100
AcDbSymbolTableRecord
100
AcDbViewportTableRecord
2
*ACTIVE
70
0
10
0.0
20
0.0
11
1.0
21
1.0
12
148.5000000000
22
105.0000000000
13
0.0
23
0.0
14
1.0
24
1.0
15
0.0
25
0.0
16
0.0
26
0.0
36
1.0
17
0.0
27
0.0
37
0.0
40
210.0000000000
41
1.4142857143
42
50.0
43
0.0
44
0.0
50
0.0
51
0.0
71
0
72
100
73
1
74
1
75
0
76
0
77
0
78
0
0
ENDTAB
0
TABLE
2
LTYPE
5
5
100
AcDbSymbolTable
70
6
0
LTYPE
5
14
100
AcDbSymbolTableRecord
100
AcDbLinetypeTableRecord
2
BYBLOCK
70
0
3

72
65
73
0
40
0.0
0
LTYPE
5
15
100
AcDbSymbolTableRecord
100
AcDbLinetypeTableRecord
2
BYLAYER
70
0
3

72
65
73
0
40
0.0
0
LTYPE
5
16
100
AcDbSymbolTableRecord
100
AcDbLinetypeTableRecord
2
CONTINUOUS
70
64
3
Solid line
72
65
73
0
40
0
0
LTYPE
5
1F5
100
AcDbSymbolTableRecord
100
AcDbLinetypeTableRecord
2
CENTER
70
64
3
____ _ ____ _ ____ _ ____ _ ____ _ ____ _ ____
72
65
73
4
40
0.6
49
0.375
74
0
49
-0.075
74
0
49
0.075
74
0
49
-0.075
74
0
0
LTYPE
5
1F6
100
AcDbSymbolTableRecord
100
AcDbLinetypeTableRecord
2
HIDDEN
70
64
3
- - - - - - - - - - - - - - - - - - - -
72
65
73
2
40
0.2
49
0.1
74
0
49
-0.1
74
0
0
LTYPE
5
1F7
100
AcDbSymbolTableRecord
100
AcDbLinetypeTableRecord
2
PHANTOM
70
64
3
_____ _ _ _____ _ _ _____ _ _ _____
72
65
73
6
40
0.8
49
0.45
74
0
49
-0.05
74
0
49
0.1
74
0
49
-0.05
74
0
49
0.1
74
0
49
-0.05
74
0
0
LTYPE
5
1F8
100
AcDbSymbolTableRecord
100
AcDbLinetypeTableRecord
2
DOT
70
64
3
. . . . . . . . . . . . . . . . . . . .
72
65
73
2
40
0.2
49
0.1
74
0
49
-0.1
74
0
0
LTYPE
5
1F9
100
AcDbSymbolTableRecord
100
AcDbLinetypeTableRecord
2
DASHED
70
64
3
- - - - - - - - - - - - - - - - - - - -
72
65
73
2
40
0.2
49
0.1
74
0
49
-0.1
74
0
0
ENDTAB
0
TABLE
2
LAYER
5
2
100
AcDbSymbolTable
70
36
0
LAYER
5
10
100
AcDbSymbolTableRecord
100
AcDbLayerTableRecord
2
0
70
0
62
7
6
CONTINUOUS
0
LAYER
5
1FA
100
AcDbSymbolTableRecord
100
AcDbLayerTableRecord
2
DEFAULT_1
70
0
62
7
6
CENTER
0
LAYER
5
1FB
100
AcDbSymbolTableRecord
100
AcDbLayerTableRecord
2
DEFAULT_2
70
0
62
8
6
HIDDEN
0
LAYER
5
1FC
100
AcDbSymbolTableRecord
100
AcDbLayerTableRecord
2
DEFAULT_3
70
0
62
7
6
PHANTOM
0
LAYER
5
1FD
100
AcDbSymbolTableRecord
100
AcDbLayerTableRecord
2
_BLACK_HOLE
70
0
62
7
6
CONTINUOUS
0
LAYER
5
1FE
100
AcDbSymbolTableRecord
100
AcDbLayerTableRecord
2
ASSI
70
0
62
7
6
CONTINUOUS
0
LAYER
5
1FF
100
AcDbSymbolTableRecord
100
AcDbLayerTableRecord
2
COLOR6
70
0
62
7
6
CONTINUOUS
0
LAYER
5
200
100
AcDbSymbolTableRecord
100
AcDbLayerTableRecord
2
COORDINATE
70
0
62
7
6
CONTINUOUS
0
LAYER
5
201
100
AcDbSymbolTableRecord
100
AcDbLayerTableRecord
2
COORD_ORIGINE
70
0
62
7
6
CONTINUOUS
0
LAYER
5
202
100
AcDbSymbolTableRecord
100
AcDbLayerTableRecord
2
COPY
70
0
62
7
6
CONTINUOUS
0
LAYER
5
203
100
AcDbSymbolTableRecord
100
AcDbLayerTableRecord
2
COPY_AGGANCI
70
0
62
7
6
CONTINUOUS
0
LAYER
5
204
100
AcDbSymbolTableRecord
100
AcDbLayerTableRecord
2
COPY_PLACCA
70
0
62
7
6
CONTINUOUS
0
LAYER
5
205
100
AcDbSymbolTableRecord
100
AcDbLayerTableRecord
2
COPY_PUB
70
0
62
7
6
CONTINUOUS
0
LAYER
5
206
100
AcDbSymbolTableRecord
100
AcDbLayerTableRecord
2
COPY_SUPPORTO
70
0
62
7
6
CONTINUOUS
0
LAYER
5
207
100
AcDbSymbolTableRecord
100
AcDbLayerTableRecord
2
CURVE
70
0
62
7
6
CONTINUOUS
0
LAYER
5
208
100
AcDbSymbolTableRecord
100
AcDbLayerTableRecord
2
DRAFT
70
0
62
7
6
CONTINUOUS
0
LAYER
5
209
100
AcDbSymbolTableRecord
100
AcDbLayerTableRecord
2
IMPORT_SCRITTE
70
0
62
7
6
CONTINUOUS
0
LAYER
5
20A
100
AcDbSymbolTableRecord
100
AcDbLayerTableRecord
2
NOTE
70
0
62
7
6
CONTINUOUS
0
LAYER
5
20B
100
AcDbSymbolTableRecord
100
AcDbLayerTableRecord
2
PIANI
70
0
62
7
6
CONTINUOUS
0
LAYER
5
20C
100
AcDbSymbolTableRecord
100
AcDbLayerTableRecord
2
PIANI_ORIGINE
70
0
62
7
6
CONTINUOUS
0
LAYER
5
20D
100
AcDbSymbolTableRecord
100
AcDbLayerTableRecord
2
PUNTI
70
0
62
7
6
CONTINUOUS
0
LAYER
5
20E
100
AcDbSymbolTableRecord
100
AcDbLayerTableRecord
2
RACCORDO
70
0
62
7
6
CONTINUOUS
0
LAYER
5
20F
100
AcDbSymbolTableRecord
100
AcDbLayerTableRecord
2
SMUSSO
70
0
62
7
6
CONTINUOUS
0
LAYER
5
210
100
AcDbSymbolTableRecord
100
AcDbLayerTableRecord
2
SNAPLINE
70
0
62
7
6
CONTINUOUS
0
LAYER
5
211
100
AcDbSymbolTableRecord
100
AcDbLayerTableRecord
2
SUPERFICI
70
0
62
7
6
CONTINUOUS
0
LAYER
5
212
100
AcDbSymbolTableRecord
100
AcDbLayerTableRecord
2
SUP_SUPP
70
0
62
7
6
CONTINUOUS
0
LAYER
5
213
100
AcDbSymbolTableRecord
100
AcDbLayerTableRecord
2
TRASH
70
0
62
7
6
CONTINUOUS
0
LAYER
5
214
100
AcDbSymbolTableRecord
100
AcDbLayerTableRecord
2
XSEC_DATUMS
70
0
62
7
6
CONTINUOUS
0
ENDTAB
0
TABLE
2
STYLE
5
3
100
AcDbSymbolTable
70
1
0
STYLE
5
11
100
AcDbSymbolTableRecord
100
AcDbTextStyleTableRecord
2
STANDARD
70
0
40
0.0
41
0.8000000000
50
0.0
71
0
42
0.2
3
txt
4

0
ENDTAB
0
TABLE
2
VIEW
5
6
100
AcDbSymbolTable
70
0
0
ENDTAB
0
TABLE
2
UCS
5
7
100
AcDbSymbolTable
70
0
0
ENDTAB
0
TABLE
2
APPID
5
9
100
AcDbSymbolTable
70
1
0
APPID
5
215
100
AcDbSymbolTableRecord
100
AcDbRegAppTableRecord
2
ACAD
70
0
0
ENDTAB
0
TABLE
2
DIMSTYLE
5
A
100
AcDbSymbolTable
70
1
0
DIMSTYLE
105
216
100
AcDbSymbolTableRecord
100
AcDbDimStyleTableRecord
2
STANDARD
70
0
3

4

5

6

7

40
1.0
41
3.0000000000
42
0.0625
43
0.38
44
0.18
45
0.0
46
0.0
47
0.0100000000
48
0.0100000000
140
3.0000000000
141
0.09
142
0.0
143
25.4
144
1.0000000000
145
0.0
146
1.0000000000
147
0.09
71
1
72
0
73
0
74
0
75
0
76
0
77
1
78
8
170
0
171
2
172
0
173
0
174
0
175
0
176
0
177
0
178
0
270
2
271
2
272
2
273
2
274
2
340
11
275
0
280
0
281
0
282
0
283
1
284
8
285
0
286
0
287
3
288
0
0
DIMSTYLE
105
217
100
AcDbSymbolTableRecord
100
AcDbDimStyleTableRecord
2
DIMSTYLE_1
70
0
3

4

5

6

7

40
1.0
41
3.0000000000
42
0.0625
43
0.38
44
0.18
45
0.0
46
0.0
47
0.0000000000
48
0.0000000000
140
3.0000000000
141
0.09
142
0.0
143
25.4
144
1.0000000000
145
0.0
146
1.0000000000
147
0.09
71
0
72
0
73
0
74
0
75
0
76
0
77
1
78
8
170
0
171
2
172
0
173
0
174
0
175
0
176
0
177
0
178
0
270
2
271
2
272
2
273
2
274
2
340
11
275
0
280
0
281
0
282
0
283
1
284
8
285
0
286
0
287
3
288
0
0
ENDTAB
0
TABLE
2
BLOCK_RECORD
5
1
100
AcDbSymbolTable
70
0
0
BLOCK_RECORD
5
1B
100
AcDbSymbolTableRecord
100
AcDbBlockTableRecord
2
*MODEL_SPACE
0
BLOCK_RECORD
5
1C
100
AcDbSymbolTableRecord
100
AcDbBlockTableRecord
2
*PAPER_SPACE
0
BLOCK_RECORD
5
218
100
AcDbSymbolTableRecord
100
AcDbBlockTableRecord
2
*D0
0
BLOCK_RECORD
5
219
100
AcDbSymbolTableRecord
100
AcDbBlockTableRecord
2
*D1
0
BLOCK_RECORD
5
21A
100
AcDbSymbolTableRecord
100
AcDbBlockTableRecord
2
*D2
0
ENDTAB
0
ENDSEC
0
SECTION
2
BLOCKS
0
BLOCK
5
1E
100
AcDbEntity
8
0
100
AcDbBlockBegin
2
*MODEL_SPACE
70
0
10
0.0
20
0.0
30
0.0
3
*MODEL_SPACE
1

0
ENDBLK
5
1F
100
AcDbEntity
8
0
100
AcDbBlockEnd
0
BLOCK
5
20
100
AcDbEntity
8
0
100
AcDbBlockBegin
2
*PAPER_SPACE
70
0
10
0.0
20
0.0
30
0.0
3
*PAPER_SPACE
1

0
ENDBLK
5
21
100
AcDbEntity
8
0
100
AcDbBlockEnd
0
BLOCK
5
21B
100
AcDbEntity
8
0
100
AcDbBlockBegin
62
7
6
CONTINUOUS
2
*D0
70
65
10
0.0000000000
20
0.0000000000
3
*D0
1

0
TEXT
5
21C
100
AcDbEntity
8
0
100
AcDbText
62
7
6
CONTINUOUS
10
-12.5693590826
20
52.9951405329
7
STANDARD
40
3.0000000000
1
8,9
41
0.7142857143
72
0
100
AcDbText
0
LINE
5
21D
100
AcDbEntity
8
0
100
AcDbLine
62
7
6
CONTINUOUS
10
-23.9084140141
20
42.6842506452
11
-23.9084140141
21
53.7451405329
0
LINE
5
21E
100
AcDbEntity
8
0
100
AcDbLine
62
7
6
CONTINUOUS
10
-15.0084140141
20
42.3951405329
11
-15.0084140141
21
53.7451405329
0
LINE
5
21F
100
AcDbEntity
8
0
100
AcDbLine
62
7
6
CONTINUOUS
10
-23.9084140141
20
52.2451405329
11
-19.4584140141
21
52.2451405329
0
LINE
5
220
100
AcDbEntity
8
0
100
AcDbLine
62
7
6
CONTINUOUS
10
-15.0084140141
20
52.2451405329
11
-19.4584140141
21
52.2451405329
0
LINE
5
221
100
AcDbEntity
8
0
100
AcDbLine
62
7
6
CONTINUOUS
10
-19.4584140141
20
52.2451405329
11
-6.1407876540
21
52.2451405329
0
SOLID
5
222
100
AcDbEntity
8
0
100
AcDbTrace
62
7
6
CONTINUOUS
10
-20.9084140141
20
53.1951405329
11
-23.9084140141
21
52.2451405329
12
-20.9084140141
22
51.2951405329
13
-20.9084140141
23
51.2951405329
0
SOLID
5
223
100
AcDbEntity
8
0
100
AcDbTrace
62
7
6
CONTINUOUS
10
-18.0084140141
20
51.2951405329
11
-15.0084140141
21
52.2451405329
12
-18.0084140141
22
53.1951405329
13
-18.0084140141
23
53.1951405329
0
ENDBLK
5
224
100
AcDbEntity
8
0
100
AcDbBlockEnd
0
BLOCK
5
225
100
AcDbEntity
8
0
100
AcDbBlockBegin
62
7
6
CONTINUOUS
2
*D1
70
65
10
0.0000000000
20
0.0000000000
3
*D1
1

0
TEXT
5
226
100
AcDbEntity
8
0
100
AcDbText
62
7
6
CONTINUOUS
10
87.0578391656
20
52.9951405329
7
STANDARD
40
3.0000000000
1
142,3
41
0.6857142857
72
0
100
AcDbText
0
LINE
5
227
100
AcDbEntity
8
0
100
AcDbLine
62
7
6
CONTINUOUS
10
19.1013872937
20
41.9029808602
11
19.1013872937
21
53.7451405329
0
LINE
5
228
100
AcDbEntity
8
0
100
AcDbLine
62
7
6
CONTINUOUS
10
161.4013872937
20
41.9029808602
11
161.4013872937
21
53.7451405329
0
LINE
5
229
100
AcDbEntity
8
0
100
AcDbLine
62
7
6
CONTINUOUS
10
19.1013872937
20
52.2451405329
11
90.2513872937
21
52.2451405329
0
LINE
5
22A
100
AcDbEntity
8
0
100
AcDbLine
62
7
6
CONTINUOUS
10
161.4013872937
20
52.2451405329
11
90.2513872937
21
52.2451405329
0
SOLID
5
22B
100
AcDbEntity
8
0
100
AcDbTrace
62
7
6
CONTINUOUS
10
22.1013872937
20
53.1951405329
11
19.1013872937
21
52.2451405329
12
22.1013872937
22
51.2951405329
13
22.1013872937
23
51.2951405329
0
SOLID
5
22C
100
AcDbEntity
8
0
100
AcDbTrace
62
7
6
CONTINUOUS
10
158.4013872937
20
51.2951405329
11
161.4013872937
21
52.2451405329
12
158.4013872937
22
53.1951405329
13
158.4013872937
23
53.1951405329
0
ENDBLK
5
22D
100
AcDbEntity
8
0
100
AcDbBlockEnd
0
BLOCK
5
22E
100
AcDbEntity
8
0
100
AcDbBlockBegin
62
7
6
CONTINUOUS
2
*D2
70
65
10
0.0000000000
20
0.0000000000
3
*D2
1

0
TEXT
5
22F
100
AcDbEntity
8
0
100
AcDbText
62
7
6
CONTINUOUS
10
169.6013872937
20
-4.6105441476
7
STANDARD
40
3.0000000000
1
84,8
50
90.0000000000
41
0.7321428571
72
0
100
AcDbText
0
LINE
5
230
100
AcDbEntity
8
0
100
AcDbLine
62
7
6
CONTINUOUS
10
160.0039197539
20
43.2951234589
11
171.8513872937
21
43.2951234589
0
LINE
5
231
100
AcDbEntity
8
0
100
AcDbLine
62
7
6
CONTINUOUS
10
160.0039197539
20
-41.5048423931
11
171.8513872937
21
-41.5048423931
0
LINE
5
232
100
AcDbEntity
8
0
100
AcDbLine
62
7
6
CONTINUOUS
10
170.3513872937
20
43.2951234589
11
170.3513872937
21
0.8951405329
0
LINE
5
233
100
AcDbEntity
8
0
100
AcDbLine
62
7
6
CONTINUOUS
10
170.3513872937
20
-41.5048423931
11
170.3513872937
21
0.8951405329
0
SOLID
5
234
100
AcDbEntity
8
0
100
AcDbTrace
62
7
6
CONTINUOUS
10
171.3013872937
20
40.2951234589
11
170.3513872937
21
43.2951234589
12
169.4013872937
22
40.2951234589
13
169.4013872937
23
40.2951234589
0
SOLID
5
235
100
AcDbEntity
8
0
100
AcDbTrace
62
7
6
CONTINUOUS
10
169.4013872937
20
-38.5048423931
11
170.3513872937
21
-41.5048423931
12
171.3013872937
22
-38.5048423931
13
171.3013872937
23
-38.5048423931
0
ENDBLK
5
236
100
AcDbEntity
8
0
100
AcDbBlockEnd
0
ENDSEC
0
SECTION
2
ENTITIES
0
DIMENSION
5
237
100
AcDbEntity
8
0
100
AcDbDimension
62
7
6
CONTINUOUS
2
*D0
10
-15.0084140141
20
52.2451405329
11
-9.3550733683
21
54.4951405329
70
160
3
DIMSTYLE_1
100
AcDbAlignedDimension
13
-23.9084140141
23
42.6842506452
14
-15.0084140141
24
42.3951405329
100
AcDbRotatedDimension
0
DIMENSION
5
238
100
AcDbEntity
8
0
100
AcDbDimension
62
7
6
CONTINUOUS
2
*D1
10
161.4013872937
20
52.2451405329
11
92.2006963084
21
54.4951405329
70
160
3
DIMSTYLE_1
100
AcDbAlignedDimension
13
19.1013872937
23
41.9029808602
14
161.4013872937
24
41.9029808602
100
AcDbRotatedDimension
0
DIMENSION
5
239
100
AcDbEntity
8
0
100
AcDbDimension
62
7
6
CONTINUOUS
2
*D2
10
170.3513872937
20
-41.5048423931
11
168.1013872937
21
-0.2176870047
70
160
3
DIMSTYLE_1
100
AcDbAlignedDimension
13
160.0039197539
23
43.2951234589
14
160.0039197539
24
-41.5048423931
50
270.000000
100
AcDbRotatedDimension
0
LINE
5
23A
100
AcDbEntity
8
0
100
AcDbLine
62
7
6
CONTINUOUS
10
19.1013872937
20
41.4029807963
11
19.1013872937
21
-39.6126997305
0
LINE
5
23B
100
AcDbEntity
8
0
100
AcDbLine
62
9
6
CONTINUOUS
10
19.3177499640
20
41.1872071223
11
19.3177499640
21
-39.3969260565
0
LINE
5
23C
100
AcDbEntity
8
0
100
AcDbLine
62
9
6
CONTINUOUS
10
20.1698058711
20
41.1872071223
11
20.1698058711
21
-39.3969260565
0
LINE
5
23D
100
AcDbEntity
8
0
100
AcDbLine
62
9
6
CONTINUOUS
10
45.1556352853
20
23.6630461884
11
45.1439465316
21
24.1413456641
0
LINE
5
23E
100
AcDbEntity
8
0
100
AcDbLine
62
9
6
CONTINUOUS
10
45.3553611923
20
23.7475698407
11
45.3436724385
21
24.2258693164
0
LINE
5
23F
100
AcDbEntity
8
0
100
AcDbLine
62
9
6
CONTINUOUS
10
43.0400610440
20
-23.6322694801
11
43.0400610440
21
25.4225505460
0
LINE
5
240
100
AcDbEntity
8
0
100
AcDbLine
62
7
6
CONTINUOUS
10
43.1435535946
20
-23.6322694801
11
43.1435535946
21
25.4225505460
0
LINE
5
241
100
AcDbEntity
8
0
100
AcDbLine
62
7
6
CONTINUOUS
10
43.1513872937
20
25.4152666135
11
43.1513872937
21
-23.6249855499
0
LINE
5
242
100
AcDbEntity
8
0
100
AcDbLine
62
9
6
CONTINUOUS
10
43.2609784460
20
25.4098563868
11
43.2609784460
21
-23.6195753210
0
LINE
5
243
100
AcDbEntity
8
0
100
AcDbLine
62
9
6
CONTINUOUS
10
43.3569148518
20
-23.5305495140
11
43.3569148518
21
25.3208305798
0
LINE
5
244
100
AcDbEntity
8
0
100
AcDbLine
62
9
6
CONTINUOUS
10
43.4533123080
20
-23.5305495140
11
43.4533123080
21
25.3208305798
0
LINE
5
245
100
AcDbEntity
8
0
100
AcDbLine
62
9
6
CONTINUOUS
10
44.9375094460
20
25.0429281552
11
44.9375094460
21
-23.2526486810
0
LINE
5
246
100
AcDbEntity
8
0
100
AcDbLine
62
9
6
CONTINUOUS
10
45.1439465316
20
24.1413456641
11
45.1439465316
21
-22.3510645983
0
LINE
5
247
100
AcDbEntity
8
0
100
AcDbLine
62
7
6
CONTINUOUS
10
45.2513872937
20
23.1954146259
11
45.2513872937
21
-21.4051335602
0
LINE
5
248
100
AcDbEntity
8
0
100
AcDbLine
62
9
6
CONTINUOUS
10
45.1556352853
20
-21.8727651226
11
45.1439465316
21
-22.3510645983
0
LINE
5
249
100
AcDbEntity
8
0
100
AcDbLine
62
9
6
CONTINUOUS
10
45.3553611923
20
-21.9572887749
11
45.3436724385
21
-22.4355882506
0
LINE
5
24A
100
AcDbEntity
8
0
100
AcDbLine
62
9
6
CONTINUOUS
10
21.1690880643
20
-40.3928587809
11
159.3336865231
21
-40.3928587809
0
LINE
5
24B
100
AcDbEntity
8
0
100
AcDbLine
62
9
6
CONTINUOUS
10
160.3329687162
20
-39.3969260565
11
161.1850246234
21
-39.3969260565
0
LINE
5
24C
100
AcDbEntity
8
0
100
AcDbLine
62
9
6
CONTINUOUS
10
20.1698058711
20
-39.3969260565
11
19.3177499641
21
-39.3969260774
0
LINE
5
24D
100
AcDbEntity
8
0
100
AcDbLine
62
7
6
CONTINUOUS
10
94.5725282937
20
-24.2062864671
11
94.1195082937
21
-24.2062864671
0
LINE
5
24E
100
AcDbEntity
8
0
100
AcDbLine
62
7
6
CONTINUOUS
10
93.3644752937
20
-24.2062864671
11
92.9617902937
21
-24.2062864671
0
LINE
5
24F
100
AcDbEntity
8
0
100
AcDbLine
62
7
6
CONTINUOUS
10
92.6429982937
20
-24.2062864671
11
92.2403142937
21
-24.2062864671
0
LINE
5
250
100
AcDbEntity
8
0
100
AcDbLine
62
7
6
CONTINUOUS
10
91.3510522937
20
-24.2062864671
11
90.9483672937
21
-24.2062864671
0
LINE
5
251
100
AcDbEntity
8
0
100
AcDbLine
62
7
6
CONTINUOUS
10
90.6295752937
20
-24.2062864671
11
90.2268912937
21
-24.2062864671
0
LINE
5
252
100
AcDbEntity
8
0
100
AcDbLine
62
7
6
CONTINUOUS
10
89.8409852937
20
-24.2062864671
11
89.4383002937
21
-24.2062864671
0
LINE
5
253
100
AcDbEntity
8
0
100
AcDbLine
62
7
6
CONTINUOUS
10
89.0523942937
20
-24.2062864671
11
88.6497102937
21
-24.2062864671
0
LINE
5
254
100
AcDbEntity
8
0
100
AcDbLine
62
7
6
CONTINUOUS
10
88.2973612937
20
-24.2062864671
11
87.8946762937
21
-24.2062864671
0
LINE
5
255
100
AcDbEntity
8
0
100
AcDbLine
62
7
6
CONTINUOUS
10
86.9383002937
20
-24.2062864671
11
86.5523942937
21
-24.2062864671
0
LINE
5
256
100
AcDbEntity
8
0
100
AcDbLine
62
7
6
CONTINUOUS
10
92.1060852937
20
-23.8565364671
11
91.4685022937
21
-23.8565364671
0
LINE
5
257
100
AcDbEntity
8
0
100
AcDbLine
62
9
6
CONTINUOUS
10
137.4627135434
20
-23.6322694802
11
137.3592209928
21
-23.6322694802
0
LINE
5
258
100
AcDbEntity
8
0
100
AcDbLine
62
9
6
CONTINUOUS
10
43.0400610440
20
-23.6322694801
11
43.1435535946
21
-23.6322694801
0
LINE
5
259
100
AcDbEntity
8
0
100
AcDbLine
62
9
6
CONTINUOUS
10
137.3513872937
20
-23.6195753210
11
137.2462205102
21
-23.6195753210
0
LINE
5
25A
100
AcDbEntity
8
0
100
AcDbLine
62
9
6
CONTINUOUS
10
43.1513872937
20
-23.6195753210
11
43.2565540794
21
-23.6195753210
0
LINE
5
25B
100
AcDbEntity
8
0
100
AcDbLine
62
9
6
CONTINUOUS
10
137.1458597356
20
-23.5305495140
11
137.0494622794
21
-23.5305495140
0
LINE
5
25C
100
AcDbEntity
8
0
100
AcDbLine
62
9
6
CONTINUOUS
10
43.3569148518
20
-23.5305495140
11
43.4533123080
21
-23.5305495140
0
LINE
5
25D
100
AcDbEntity
8
0
100
AcDbLine
62
7
6
CONTINUOUS
10
93.7168242937
20
-23.5219934671
11
93.3644752937
21
-23.5219934671
0
LINE
5
25E
100
AcDbEntity
8
0
100
AcDbLine
62
7
6
CONTINUOUS
10
91.6027302937
20
-23.5219934671
11
91.9886362937
21
-23.5219934671
0
LINE
5
25F
100
AcDbEntity
8
0
100
AcDbLine
62
7
6
CONTINUOUS
10
93.3476962937
20
-23.1874504671
11
93.8510526683
21
-23.1874505002
0
LINE
5
260
100
AcDbEntity
8
0
100
AcDbLine
62
7
6
CONTINUOUS
10
93.8510520029
20
-22.7312554702
11
93.3476962937
21
-22.7312554671
0
LINE
5
261
100
AcDbEntity
8
0
100
AcDbLine
62
9
6
CONTINUOUS
10
19.3177499640
20
-39.3969260565
11
19.1013872937
21
-39.6126997305
0
LINE
5
262
100
AcDbEntity
8
0
100
AcDbLine
62
9
6
CONTINUOUS
10
21.2126902302
20
-41.2916220525
11
20.9988548334
21
-41.5048594014
0
LINE
5
263
100
AcDbEntity
8
0
100
AcDbLine
62
7
6
CONTINUOUS
10
85.8980322937
20
-22.3967124671
11
86.3007172937
21
-22.3967124671
0
LINE
5
264
100
AcDbEntity
8
0
100
AcDbLine
62
7
6
CONTINUOUS
10
87.1899782937
20
-22.3967124671
11
87.5926632937
21
-22.3967124671
0
LINE
5
265
100
AcDbEntity
8
0
100
AcDbLine
62
7
6
CONTINUOUS
10
87.8946762937
20
-22.3967124671
11
88.2973612937
21
-22.3967124671
0
LINE
5
266
100
AcDbEntity
8
0
100
AcDbLine
62
7
6
CONTINUOUS
10
88.6497102937
20
-22.3967124671
11
89.2705152937
21
-22.3967124671
0
LINE
5
267
100
AcDbEntity
8
0
100
AcDbLine
62
7
6
CONTINUOUS
10
90.0255492937
20
-22.3967124671
11
90.6295752937
21
-22.3967124671
0
LINE
5
268
100
AcDbEntity
8
0
100
AcDbLine
62
7
6
CONTINUOUS
10
91.5859512937
20
-22.3967124671
11
91.9886362937
21
-22.3967124671
0
LINE
5
269
100
AcDbEntity
8
0
100
AcDbLine
62
7
6
CONTINUOUS
10
92.9617902937
20
-22.3967124671
11
93.9013880107
21
-22.3967124483
0
LINE
5
26A
100
AcDbEntity
8
0
100
AcDbLine
62
9
6
CONTINUOUS
10
45.3553611923
20
-21.9572887749
11
135.1474133951
21
-21.9572887749
0
LINE
5
26B
100
AcDbEntity
8
0
100
AcDbLine
62
9
6
CONTINUOUS
10
45.3866895293
20
-21.6692831384
11
135.1160850581
21
-21.6692831384
0
LINE
5
26C
100
AcDbEntity
8
0
100
AcDbLine
62
7
6
CONTINUOUS
10
135.0516613867
20
-21.6048594671
11
45.4511132006
21
-21.6048594671
0
LINE
5
26D
100
AcDbEntity
8
0
100
AcDbLine
62
9
6
CONTINUOUS
10
19.1013872937
20
41.4029807963
11
19.3177499640
21
41.1872071223
0
LINE
5
26E
100
AcDbEntity
8
0
100
AcDbLine
62
9
6
CONTINUOUS
10
20.9988548334
20
43.2951404672
11
21.2126902302
21
43.0819031183
0
LINE
5
26F
100
AcDbEntity
8
0
100
AcDbLine
62
9
6
CONTINUOUS
10
45.2513872937
20
-21.4051335602
11
45.1869636224
21
-21.4695572315
0
LINE
5
270
100
AcDbEntity
8
0
100
AcDbLine
62
9
6
CONTINUOUS
10
45.4511132006
20
-21.6048594671
11
45.3866895293
21
-21.6692831384
0
LINE
5
271
100
AcDbEntity
8
0
100
AcDbLine
62
9
6
CONTINUOUS
10
43.1513872937
20
-23.6249855499
11
43.1435535946
21
-23.6322694801
0
LINE
5
272
100
AcDbEntity
8
0
100
AcDbLine
62
9
6
CONTINUOUS
10
44.1711453113
20
-24.7223243340
11
44.1632707829
21
-24.7296335159
0
LINE
5
273
100
AcDbEntity
8
0
100
AcDbLine
62
9
6
CONTINUOUS
10
43.2609784460
20
-23.6195753210
11
43.3569148518
21
-23.5305495140
0
LINE
5
274
100
AcDbEntity
8
0
100
AcDbLine
62
9
6
CONTINUOUS
10
44.1870372869
20
-24.6135463687
11
44.2826031005
21
-24.5250077870
0
LINE
5
275
100
AcDbEntity
8
0
100
AcDbLine
62
9
6
CONTINUOUS
10
44.1870372869
20
26.4038274345
11
44.2826031005
21
26.3152888528
0
LINE
5
276
100
AcDbEntity
8
0
100
AcDbLine
62
9
6
CONTINUOUS
10
43.2609784460
20
25.4098563868
11
43.3569148518
21
25.3208305798
0
LINE
5
277
100
AcDbEntity
8
0
100
AcDbLine
62
9
6
CONTINUOUS
10
44.1711453112
20
26.5126053998
11
44.1632707828
21
26.5199145818
0
LINE
5
278
100
AcDbEntity
8
0
100
AcDbLine
62
9
6
CONTINUOUS
10
43.1513872937
20
25.4152666135
11
43.1435535946
21
25.4225505460
0
LINE
5
279
100
AcDbEntity
8
0
100
AcDbLine
62
9
6
CONTINUOUS
10
45.2513872937
20
23.1954146259
11
45.1869636224
21
23.2598382973
0
LINE
5
27A
100
AcDbEntity
8
0
100
AcDbLine
62
9
6
CONTINUOUS
10
45.4511132006
20
23.3951405329
11
45.3866895293
21
23.4595642042
0
LINE
5
27B
100
AcDbEntity
8
0
100
AcDbLine
62
7
6
CONTINUOUS
10
86.5523942937
20
-24.2062864671
11
85.8980322937
21
-22.3967124671
0
LINE
5
27C
100
AcDbEntity
8
0
100
AcDbLine
62
7
6
CONTINUOUS
10
86.3007172937
20
-22.3967124671
11
86.7369582937
21
-23.6588524671
0
LINE
5
27D
100
AcDbEntity
8
0
100
AcDbLine
62
7
6
CONTINUOUS
10
94.1362871282
20
-23.4763741901
11
94.5725282937
21
-24.2062864671
0
LINE
5
27E
100
AcDbEntity
8
0
100
AcDbLine
62
7
6
CONTINUOUS
10
94.1195082937
20
-24.2062864671
11
93.7168242937
21
-23.5219934671
0
LINE
5
27F
100
AcDbEntity
8
0
100
AcDbLine
62
7
6
CONTINUOUS
10
92.2403142937
20
-24.2062864671
11
92.1060852937
21
-23.8565364671
0
LINE
5
280
100
AcDbEntity
8
0
100
AcDbLine
62
7
6
CONTINUOUS
10
91.9886362937
20
-22.3967124671
11
92.6429982937
21
-24.2062864671
0
LINE
5
281
100
AcDbEntity
8
0
100
AcDbLine
62
7
6
CONTINUOUS
10
91.9886362937
20
-23.5219934671
11
91.7872942937
21
-22.9593534671
0
LINE
5
282
100
AcDbEntity
8
0
100
AcDbLine
62
7
6
CONTINUOUS
10
89.4383002937
20
-24.2062864671
11
89.0523942937
21
-23.0201794671
0
LINE
5
283
100
AcDbEntity
8
0
100
AcDbLine
62
7
6
CONTINUOUS
10
89.2705152937
20
-22.3967124671
11
89.6396432937
21
-23.5828194671
0
LINE
5
284
100
AcDbEntity
8
0
100
AcDbLine
62
7
6
CONTINUOUS
10
87.8946762937
20
-24.2062864671
11
87.8946762937
21
-22.3967124671
0
LINE
5
285
100
AcDbEntity
8
0
100
AcDbLine
62
7
6
CONTINUOUS
10
88.2973612937
20
-22.3967124671
11
88.2973612937
21
-24.2062864671
0
LINE
5
286
100
AcDbEntity
8
0
100
AcDbLine
62
7
6
CONTINUOUS
10
88.6497102937
20
-24.2062864671
11
88.6497102937
21
-22.3967124671
0
LINE
5
287
100
AcDbEntity
8
0
100
AcDbLine
62
7
6
CONTINUOUS
10
89.0523942937
20
-23.0201794671
11
89.0523942937
21
-24.2062864671
0
LINE
5
288
100
AcDbEntity
8
0
100
AcDbLine
62
7
6
CONTINUOUS
10
90.2268912937
20
-24.2062864671
11
90.2268912937
21
-23.0201794671
0
LINE
5
289
100
AcDbEntity
8
0
100
AcDbLine
62
7
6
CONTINUOUS
10
90.6295752937
20
-22.3967124671
11
90.6295752937
21
-24.2062864671
0
LINE
5
28A
100
AcDbEntity
8
0
100
AcDbLine
62
7
6
CONTINUOUS
10
92.9617902937
20
-24.2062864671
11
92.9617902937
21
-22.3967124671
0
LINE
5
28B
100
AcDbEntity
8
0
100
AcDbLine
62
7
6
CONTINUOUS
10
93.3476962937
20
-22.7312554671
11
93.3476962937
21
-23.1874504671
0
LINE
5
28C
100
AcDbEntity
8
0
100
AcDbLine
62
7
6
CONTINUOUS
10
93.3644752937
20
-23.5219934671
11
93.3644752937
21
-24.2062864671
0
LINE
5
28D
100
AcDbEntity
8
0
100
AcDbLine
62
7
6
CONTINUOUS
10
86.7369582937
20
-23.6588524671
11
87.1899782937
21
-22.3967124671
0
LINE
5
28E
100
AcDbEntity
8
0
100
AcDbLine
62
7
6
CONTINUOUS
10
87.5926632937
20
-22.3967124671
11
86.9383002937
21
-24.2062864671
0
LINE
5
28F
100
AcDbEntity
8
0
100
AcDbLine
62
7
6
CONTINUOUS
10
89.6396432937
20
-23.5828194671
11
90.0255492937
21
-22.3967124671
0
LINE
5
290
100
AcDbEntity
8
0
100
AcDbLine
62
7
6
CONTINUOUS
10
90.2268912937
20
-23.0201794671
11
89.8409852937
21
-24.2062864671
0
LINE
5
291
100
AcDbEntity
8
0
100
AcDbLine
62
7
6
CONTINUOUS
10
91.7872942937
20
-22.9593534671
11
91.6027302937
21
-23.5219934671
0
LINE
5
292
100
AcDbEntity
8
0
100
AcDbLine
62
7
6
CONTINUOUS
10
91.4685022937
20
-23.8565364671
11
91.3510522937
21
-24.2062864671
0
LINE
5
293
100
AcDbEntity
8
0
100
AcDbLine
62
7
6
CONTINUOUS
10
90.9483672937
20
-24.2062864671
11
91.5859512937
21
-22.3967124671
0
LINE
5
294
100
AcDbEntity
8
0
100
AcDbLine
62
9
6
CONTINUOUS
10
136.3316292761
20
26.5126053998
11
136.3395038045
21
26.5199145817
0
LINE
5
295
100
AcDbEntity
8
0
100
AcDbLine
62
9
6
CONTINUOUS
10
136.2201714869
20
26.3152888528
11
136.3157373005
21
26.4038274345
0
LINE
5
296
100
AcDbEntity
8
0
100
AcDbLine
62
9
6
CONTINUOUS
10
136.3157373005
20
-24.6135463687
11
136.2201714869
21
-24.5250077870
0
LINE
5
297
100
AcDbEntity
8
0
100
AcDbLine
62
9
6
CONTINUOUS
10
136.3316292762
20
-24.7223243340
11
136.3395038046
21
-24.7296335160
0
LINE
5
298
100
AcDbEntity
8
0
100
AcDbLine
62
9
6
CONTINUOUS
10
135.0516613867
20
23.3951405329
11
135.1160850581
21
23.4595642042
0
LINE
5
299
100
AcDbEntity
8
0
100
AcDbLine
62
9
6
CONTINUOUS
10
135.2513872937
20
23.1954146259
11
135.3158109650
21
23.2598382973
0
LINE
5
29A
100
AcDbEntity
8
0
100
AcDbLine
62
9
6
CONTINUOUS
10
159.2900843572
20
43.0819031183
11
159.5039197539
21
43.2951404672
0
LINE
5
29B
100
AcDbEntity
8
0
100
AcDbLine
62
9
6
CONTINUOUS
10
137.3513872937
20
25.4152666157
11
137.3592209928
21
25.4225505459
0
LINE
5
29C
100
AcDbEntity
8
0
100
AcDbLine
62
9
6
CONTINUOUS
10
137.1458597356
20
25.3208305798
11
137.2417961414
21
25.4098563868
0
LINE
5
29D
100
AcDbEntity
8
0
100
AcDbLine
62
9
6
CONTINUOUS
10
137.2417961414
20
-23.6195753210
11
137.1458597356
21
-23.5305495140
0
LINE
5
29E
100
AcDbEntity
8
0
100
AcDbLine
62
9
6
CONTINUOUS
10
137.3513872937
20
-23.6249855477
11
137.3592209928
21
-23.6322694802
0
LINE
5
29F
100
AcDbEntity
8
0
100
AcDbLine
62
9
6
CONTINUOUS
10
159.5039197539
20
-41.5048594014
11
159.2900843572
21
-41.2916220525
0
LINE
5
2A0
100
AcDbEntity
8
0
100
AcDbLine
62
9
6
CONTINUOUS
10
135.0516613867
20
-21.6048594671
11
135.1160850581
21
-21.6692831384
0
LINE
5
2A1
100
AcDbEntity
8
0
100
AcDbLine
62
9
6
CONTINUOUS
10
135.2513872937
20
-21.4051335602
11
135.3158109650
21
-21.4695572315
0
LINE
5
2A2
100
AcDbEntity
8
0
100
AcDbLine
62
9
6
CONTINUOUS
10
161.1850246234
20
41.1872071223
11
161.4013872937
21
41.4029807963
0
LINE
5
2A3
100
AcDbEntity
8
0
100
AcDbLine
62
7
6
CONTINUOUS
10
45.4511132006
20
23.3951405329
11
135.0516613867
21
23.3951405329
0
LINE
5
2A4
100
AcDbEntity
8
0
100
AcDbLine
62
9
6
CONTINUOUS
10
135.1160850581
20
23.4595642042
11
45.3866895293
21
23.4595642042
0
LINE
5
2A5
100
AcDbEntity
8
0
100
AcDbLine
62
9
6
CONTINUOUS
10
135.1474133951
20
23.7475698407
11
45.3553611923
21
23.7475698407
0
LINE
5
2A6
100
AcDbEntity
8
0
100
AcDbLine
62
9
6
CONTINUOUS
10
137.1458597356
20
25.3208305798
11
137.0494622794
21
25.3208305798
0
LINE
5
2A7
100
AcDbEntity
8
0
100
AcDbLine
62
9
6
CONTINUOUS
10
43.3569148518
20
25.3208305798
11
43.4533123080
21
25.3208305798
0
LINE
5
2A8
100
AcDbEntity
8
0
100
AcDbLine
62
9
6
CONTINUOUS
10
137.3513872937
20
25.4098563868
11
137.2462205089
21
25.4098563868
0
LINE
5
2A9
100
AcDbEntity
8
0
100
AcDbLine
62
9
6
CONTINUOUS
10
43.1513872937
20
25.4098563868
11
43.2565540772
21
25.4098563868
0
LINE
5
2AA
100
AcDbEntity
8
0
100
AcDbLine
62
9
6
CONTINUOUS
10
137.4627135434
20
25.4225505459
11
137.3592209928
21
25.4225505459
0
LINE
5
2AB
100
AcDbEntity
8
0
100
AcDbLine
62
9
6
CONTINUOUS
10
43.0400610440
20
25.4225505460
11
43.1435535946
21
25.4225505460
0
LINE
5
2AC
100
AcDbEntity
8
0
100
AcDbLine
62
9
6
CONTINUOUS
10
161.4013872937
20
-39.6126997305
11
161.1850246234
21
-39.3969260565
0
LINE
5
2AD
100
AcDbEntity
8
0
100
AcDbLine
62
9
6
CONTINUOUS
10
160.3329687162
20
41.1872071223
11
161.1850246233
21
41.1872071432
0
LINE
5
2AE
100
AcDbEntity
8
0
100
AcDbLine
62
9
6
CONTINUOUS
10
20.1698058711
20
41.1872071223
11
19.3177499640
21
41.1872071223
0
LINE
5
2AF
100
AcDbEntity
8
0
100
AcDbLine
62
9
6
CONTINUOUS
10
159.3336865231
20
42.1831398467
11
21.1690880643
21
42.1831398467
0
LINE
5
2B0
100
AcDbEntity
8
0
100
AcDbLine
62
9
6
CONTINUOUS
10
135.1474133951
20
-21.9572887749
11
135.1591021489
21
-22.4355882506
0
LINE
5
2B1
100
AcDbEntity
8
0
100
AcDbLine
62
9
6
CONTINUOUS
10
135.3471393021
20
-21.8727651226
11
135.3588280558
21
-22.3510645983
0
LINE
5
2B2
100
AcDbEntity
8
0
100
AcDbLine
62
7
6
CONTINUOUS
10
135.2513872937
20
23.1954146259
11
135.2513872937
21
-21.4051335602
0
LINE
5
2B3
100
AcDbEntity
8
0
100
AcDbLine
62
9
6
CONTINUOUS
10
135.3588280558
20
-22.3510645983
11
135.3588280558
21
24.1413456641
0
LINE
5
2B4
100
AcDbEntity
8
0
100
AcDbLine
62
9
6
CONTINUOUS
10
135.5652651414
20
-23.2526470279
11
135.5652651414
21
25.0429296854
0
LINE
5
2B5
100
AcDbEntity
8
0
100
AcDbLine
62
9
6
CONTINUOUS
10
137.0494622794
20
25.3208305798
11
137.0494622794
21
-23.5305495140
0
LINE
5
2B6
100
AcDbEntity
8
0
100
AcDbLine
62
9
6
CONTINUOUS
10
137.1458597356
20
25.3208305798
11
137.1458597356
21
-23.5305495140
0
LINE
5
2B7
100
AcDbEntity
8
0
100
AcDbLine
62
9
6
CONTINUOUS
10
137.2417961414
20
-23.6195753210
11
137.2417961414
21
25.4098563868
0
LINE
5
2B8
100
AcDbEntity
8
0
100
AcDbLine
62
7
6
CONTINUOUS
10
137.3513872937
20
25.4152666157
11
137.3513872937
21
-23.6249855477
0
LINE
5
2B9
100
AcDbEntity
8
0
100
AcDbLine
62
7
6
CONTINUOUS
10
137.3592209928
20
25.4225505459
11
137.3592209928
21
-23.6322694802
0
LINE
5
2BA
100
AcDbEntity
8
0
100
AcDbLine
62
9
6
CONTINUOUS
10
137.4627135434
20
25.4225505459
11
137.4627135434
21
-23.6322694802
0
LINE
5
2BB
100
AcDbEntity
8
0
100
AcDbLine
62
9
6
CONTINUOUS
10
135.1474133951
20
23.7475698407
11
135.1591021489
21
24.2258693164
0
LINE
5
2BC
100
AcDbEntity
8
0
100
AcDbLine
62
9
6
CONTINUOUS
10
135.3471393021
20
23.6630461884
11
135.3588280558
21
24.1413456641
0
LINE
5
2BD
100
AcDbEntity
8
0
100
AcDbLine
62
9
6
CONTINUOUS
10
160.3329687162
20
-39.3969260565
11
160.3329687162
21
41.1872071223
0
LINE
5
2BE
100
AcDbEntity
8
0
100
AcDbLine
62
9
6
CONTINUOUS
10
161.1850246234
20
-39.3969260565
11
161.1850246234
21
41.1872071223
0
LINE
5
2BF
100
AcDbEntity
8
0
100
AcDbLine
62
7
6
CONTINUOUS
10
161.4013872937
20
41.4029807963
11
161.4013872937
21
-39.6126997305
0
LINE
5
2C0
100
AcDbEntity
8
0
100
AcDbLine
62
9
6
CONTINUOUS
10
-17.2084708071
20
-41.5048594014
11
-21.2883874060
21
-41.2916220525
0
LINE
5
2C1
100
AcDbEntity
8
0
100
AcDbLine
62
7
6
CONTINUOUS
10
-23.0555163747
20
-41.2927361607
11
-19.0084140141
21
-41.5048358079
0
LINE
5
2C2
100
AcDbEntity
8
0
100
AcDbLine
62
9
6
CONTINUOUS
10
-23.9084140141
20
-40.3939695794
11
-22.1401066092
21
-40.3928587809
0
LINE
5
2C3
100
AcDbEntity
8
0
100
AcDbLine
62
9
6
CONTINUOUS
10
-15.0084140141
20
-39.6048594671
11
-17.1084140141
21
-39.6048594671
0
LINE
5
2C4
100
AcDbEntity
8
0
100
AcDbLine
62
9
6
CONTINUOUS
10
-22.0885443629
20
-39.3969260565
11
-21.2368597004
21
-39.3969260565
0
LINE
5
2C5
100
AcDbEntity
8
0
100
AcDbLine
62
9
6
CONTINUOUS
10
-17.1084140141
20
-39.6126997305
11
-21.2368597004
21
-39.3969260565
0
LINE
5
2C6
100
AcDbEntity
8
0
100
AcDbLine
62
7
6
CONTINUOUS
10
-15.5084140141
20
-40.6048594671
11
-17.1208781518
21
-40.5203538025
0
LINE
5
2C7
100
AcDbEntity
8
0
100
AcDbLine
62
7
6
CONTINUOUS
10
-23.9136474896
20
-26.1997696337
11
-23.7757574221
21
-26.2069961459
0
LINE
5
2C8
100
AcDbEntity
8
0
100
AcDbLine
62
9
6
CONTINUOUS
10
-23.0828230615
20
-23.6322694802
11
-23.0828842028
21
-23.6322694802
0
LINE
5
2C9
100
AcDbEntity
8
0
100
AcDbLine
62
9
6
CONTINUOUS
10
-23.1025710629
20
-23.5305495140
11
-23.1972774009
21
-23.5305495140
0
LINE
5
2CA
100
AcDbEntity
8
0
100
AcDbLine
62
7
6
CONTINUOUS
10
-24.0084140141
20
27.8736416302
11
-24.0084140141
21
26.6083462676
0
LINE
5
2CB
100
AcDbEntity
8
0
100
AcDbLine
62
7
6
CONTINUOUS
10
-24.0084140141
20
-24.8180652017
11
-24.0084140141
21
-26.0833667782
0
LINE
5
2CC
100
AcDbEntity
8
0
100
AcDbLine
62
9
6
CONTINUOUS
10
-23.2480386301
20
-23.2397329822
11
-23.2479260596
21
-23.2526470279
0
LINE
5
2CD
100
AcDbEntity
8
0
100
AcDbLine
62
7
6
CONTINUOUS
10
-23.9084140141
20
42.1842506451
11
-23.9084140141
21
28.2895276486
0
LINE
5
2CE
100
AcDbEntity
8
0
100
AcDbLine
62
7
6
CONTINUOUS
10
-23.9084140141
20
-26.4991777049
11
-23.9084140141
21
-40.3939695794
0
LINE
5
2CF
100
AcDbEntity
8
0
100
AcDbLine
62
7
6
CONTINUOUS
10
-23.2480386911
20
-23.2402601128
11
-23.2480386911
21
25.0304809863
0
LINE
5
2D0
100
AcDbEntity
8
0
100
AcDbLine
62
9
6
CONTINUOUS
10
-23.2479260596
20
-23.2526470279
11
-23.2480386911
21
-23.2402601128
0
LINE
5
2D1
100
AcDbEntity
8
0
100
AcDbLine
62
9
6
CONTINUOUS
10
-23.2480386911
20
25.0304809863
11
-23.2479260596
21
25.0429296854
0
LINE
5
2D2
100
AcDbEntity
8
0
100
AcDbLine
62
9
6
CONTINUOUS
10
-23.1972774009
20
25.3208305798
11
-23.1972774009
21
-23.5305495140
0
LINE
5
2D3
100
AcDbEntity
8
0
100
AcDbLine
62
9
6
CONTINUOUS
10
-23.1025710629
20
25.3208305798
11
-23.1025710629
21
-23.5305495140
0
LINE
5
2D4
100
AcDbEntity
8
0
100
AcDbLine
62
7
6
CONTINUOUS
10
-23.0828842028
20
25.4225505459
11
-23.0828842028
21
-23.6322694802
0
LINE
5
2D5
100
AcDbEntity
8
0
100
AcDbLine
62
9
6
CONTINUOUS
10
-22.0885443629
20
-39.3969260565
11
-22.0885443629
21
41.1872071223
0
LINE
5
2D6
100
AcDbEntity
8
0
100
AcDbLine
62
9
6
CONTINUOUS
10
-21.2368597004
20
-39.3969260565
11
-21.2368597004
21
41.1872071223
0
LINE
5
2D7
100
AcDbEntity
8
0
100
AcDbLine
62
9
6
CONTINUOUS
10
-23.2480386827
20
25.0304894376
11
-23.2479260596
21
25.0429296854
0
LINE
5
2D8
100
AcDbEntity
8
0
100
AcDbLine
62
7
6
CONTINUOUS
10
-15.0084140141
20
-2.9575134285
11
-17.1084140141
21
-2.5872267690
0
LINE
5
2D9
100
AcDbEntity
8
0
100
AcDbLine
62
7
6
CONTINUOUS
10
-17.1084140141
20
41.4029807963
11
-17.1084140141
21
-39.6126997305
0
LINE
5
2DA
100
AcDbEntity
8
0
100
AcDbLine
62
7
6
CONTINUOUS
10
-17.0084140141
20
4.3682747496
11
-17.0084140141
21
-2.5779936838
0
LINE
5
2DB
100
AcDbEntity
8
0
100
AcDbLine
62
7
6
CONTINUOUS
10
-15.5084140141
20
42.3951405329
11
-15.5084140141
21
4.6596310040
0
LINE
5
2DC
100
AcDbEntity
8
0
100
AcDbLine
62
7
6
CONTINUOUS
10
-15.5084140141
20
-2.8693499382
11
-15.5084140141
21
-40.6048594671
0
LINE
5
2DD
100
AcDbEntity
8
0
100
AcDbLine
62
7
6
CONTINUOUS
10
-15.0084140141
20
41.8951405329
11
-15.0084140141
21
4.7477944943
0
LINE
5
2DE
100
AcDbEntity
8
0
100
AcDbLine
62
7
6
CONTINUOUS
10
-15.0084140141
20
-2.9575134285
11
-15.0084140141
21
-40.1048594671
0
LINE
5
2DF
100
AcDbEntity
8
0
100
AcDbLine
62
7
6
CONTINUOUS
10
-23.2480386911
20
-23.2083123709
11
-23.9896755706
21
-24.7987577914
0
LINE
5
2E0
100
AcDbEntity
8
0
100
AcDbLine
62
7
6
CONTINUOUS
10
-23.9896168559
20
26.5889129431
11
-23.2480386911
21
24.9985934367
0
LINE
5
2E1
100
AcDbEntity
8
0
100
AcDbLine
62
7
6
CONTINUOUS
10
-17.1084140141
20
4.3775078348
11
-15.0084140141
21
4.7477944943
0
LINE
5
2E2
100
AcDbEntity
8
0
100
AcDbLine
62
9
6
CONTINUOUS
10
-23.1025710629
20
25.3208305798
11
-23.1972774009
21
25.3208305798
0
LINE
5
2E3
100
AcDbEntity
8
0
100
AcDbLine
62
9
6
CONTINUOUS
10
-23.0828230615
20
25.4225505459
11
-23.0828842028
21
25.4225505459
0
LINE
5
2E4
100
AcDbEntity
8
0
100
AcDbLine
62
7
6
CONTINUOUS
10
-15.5084140141
20
-40.6048594671
11
-15.0084140141
21
-40.1048594671
0
LINE
5
2E5
100
AcDbEntity
8
0
100
AcDbLine
62
7
6
CONTINUOUS
10
-23.7757574083
20
27.9972772124
11
-23.9136474894
21
27.9900506995
0
LINE
5
2E6
100
AcDbEntity
8
0
100
AcDbLine
62
7
6
CONTINUOUS
10
-15.5084140141
20
42.3951405329
11
-15.0084140141
21
41.8951405329
0
LINE
5
2E7
100
AcDbEntity
8
0
100
AcDbLine
62
7
6
CONTINUOUS
10
-17.1208781518
20
42.3106348683
11
-15.5084140141
21
42.3951405329
0
LINE
5
2E8
100
AcDbEntity
8
0
100
AcDbLine
62
7
6
CONTINUOUS
10
-19.0084140141
20
43.2951168737
11
-23.0555163747
21
43.0830172265
0
LINE
5
2E9
100
AcDbEntity
8
0
100
AcDbLine
62
9
6
CONTINUOUS
10
-21.2368597004
20
41.1872071223
11
-17.1084140141
21
41.4029807963
0
LINE
5
2EA
100
AcDbEntity
8
0
100
AcDbLine
62
9
6
CONTINUOUS
10
-21.2883874060
20
43.0819031183
11
-17.2084708071
21
43.2951404672
0
LINE
5
2EB
100
AcDbEntity
8
0
100
AcDbLine
62
9
6
CONTINUOUS
10
-22.0885443629
20
41.1872071223
11
-21.2368597020
21
41.1872071432
0
LINE
5
2EC
100
AcDbEntity
8
0
100
AcDbLine
62
9
6
CONTINUOUS
10
-17.1084140141
20
41.3951405329
11
-15.0084140141
21
41.3951405329
0
LINE
5
2ED
100
AcDbEntity
8
0
100
AcDbLine
62
9
6
CONTINUOUS
10
-22.1401066092
20
42.1831398467
11
-23.9084140141
21
42.1842506452
0
ARC
5
2EE
100
AcDbEntity
8
0
100
AcDbCircle
62
7
6
CONTINUOUS
10
-23.0084140141
20
-40.3939695794
40
0.9000000000
100
AcDbArc
50
180.0000000000
51
267.0000000000
0
ARC
5
2EF
100
AcDbEntity
8
0
100
AcDbCircle
62
7
6
CONTINUOUS
10
-23.0084140141
20
42.1842506452
40
0.9000000000
100
AcDbArc
50
93.0000000000
51
180.0000000000
0
ARC
5
2F0
100
AcDbEntity
8
0
100
AcDbCircle
62
7
6
CONTINUOUS
10
-23.9084138612
20
27.8901871240
40
0.1000000000
100
AcDbArc
50
93.0000000158
51
180.0000000000
0
ARC
5
2F1
100
AcDbEntity
8
0
100
AcDbCircle
62
7
6
CONTINUOUS
10
-23.9084138614
20
-26.0999060589
40
0.1000000000
100
AcDbArc
50
180.0000000000
51
266.9999999843
0
SPLINE
5
2F2
100
AcDbEntity
8
0
100
AcDbSpline
62
7
6
CONTINUOUS
70
0
71
3
72
13
73
9
74
7
42
0.0000001000
43
0.0000001000
44
0.0000000001
12
0.7427843267
22
0.0000017883
32
0.0000000000
13
-0.7427840477
23
-0.0000001705
33
0.0000000000
40
0.0000000000
40
0.0000000000
40
0.0000000000
40
0.0000000000
40
0.2559147369
40
0.3844870094
40
0.4999995521
40
0.6155120948
40
0.7440843673
40
1.0000000000
40
1.0000000000
40
1.0000000000
40
1.0000000000
10
93.8510526683
20
-23.1874506526
30
0.0000000000
10
93.9144158201
20
-23.1874505000
30
0.0000000000
10
94.0147204584
20
-23.1515917014
30
0.0000000000
10
94.0896045385
20
-23.0489742462
30
0.0000000000
10
94.1089414428
20
-22.9593530686
30
0.0000000000
10
94.0896045385
20
-22.8697318910
30
0.0000000000
10
94.0147203243
20
-22.7671142520
30
0.0000000000
10
93.9144153527
20
-22.7312554702
30
0.0000000000
10
93.8510520029
20
-22.7312554847
30
0.0000000000
11
93.8510526683
21
-23.1874506526
31
0.0000000000
11
94.0290151664
21
-23.1206424170
31
0.0000000000
11
94.0850591698
21
-23.0433145826
31
0.0000000000
11
94.1027298983
21
-22.9593530686
31
0.0000000000
11
94.0850591698
21
-22.8753915547
31
0.0000000000
11
94.0290151664
21
-22.7980637203
31
0.0000000000
11
93.8510520029
21
-22.7312554847
31
0.0000000000
0
SPLINE
5
2F3
100
AcDbEntity
8
0
100
AcDbSpline
62
7
6
CONTINUOUS
70
0
71
3
72
13
73
9
74
7
42
0.0000001000
43
0.0000001000
44
0.0000000001
12
1.5982007848
22
-0.0000009408
32
0.0000000000
13
-1.4979746486
23
-0.5570615724
33
0.0000000000
40
0.0000000000
40
0.0000000000
40
0.0000000000
40
0.0000000000
40
0.2256553201
40
0.3632766529
40
0.5068414645
40
0.6481251150
40
0.7809165087
40
1.0000000000
40
1.0000000000
40
1.0000000000
40
1.0000000000
10
93.9013880107
20
-22.3967123616
30
0.0000000000
10
94.0216021806
20
-22.3967124324
30
0.0000000000
10
94.2205950017
20
-22.4504301108
30
0.0000000000
10
94.4258977499
20
-22.6338617640
30
0.0000000000
10
94.5254302606
20
-22.8439813724
30
0.0000000000
10
94.5229699358
20
-23.0743331511
30
0.0000000000
10
94.4088715610
20
-23.3179734275
30
0.0000000000
10
94.2456809668
20
-23.4356931921
30
0.0000000000
10
94.1362871282
20
-23.4763741901
30
0.0000000000
11
93.9013880107
21
-22.3967123616
31
0.0000000000
11
94.2488140998
21
-22.4934497741
31
0.0000000000
11
94.4120756598
21
-22.6408340671
31
0.0000000000
11
94.5084943006
21
-22.8490374015
31
0.0000000000
11
94.5064986706
21
-23.0748282102
31
0.0000000000
11
94.4171894181
21
-23.2673490740
31
0.0000000000
11
94.1362871282
21
-23.4763741901
31
0.0000000000
0
SPLINE
5
2F4
100
AcDbEntity
8
0
100
AcDbSpline
62
7
6
CONTINUOUS
70
0
71
3
72
10
73
6
74
4
42
0.0000001000
43
0.0000001000
44
0.0000000001
12
0.3101949478
22
0.0000000000
32
0.0000000000
13
0.0000000000
23
0.3101949478
33
0.0000000000
40
0.0000000000
40
0.0000000000
40
0.0000000000
40
0.0000000000
40
0.3327853931
40
0.6647217960
40
1.0000000000
40
1.0000000000
40
1.0000000000
40
1.0000000000
10
135.0516613867
20
-21.6048594671
30
0.0000000000
10
135.0860708360
20
-21.6048594671
30
0.0000000000
10
135.1561271927
20
-21.5862645302
30
0.0000000000
10
135.2325663102
20
-21.5101433443
30
0.0000000000
10
135.2513872937
20
-21.4398007618
30
0.0000000000
10
135.2513872937
20
-21.4051335602
30
0.0000000000
11
135.0516613867
21
-21.6048594671
31
0.0000000000
11
135.1513929690
21
-21.5782192106
31
0.0000000000
11
135.2243461749
21
-21.5055582172
31
0.0000000000
11
135.2513872937
21
-21.4051335602
31
0.0000000000
0
SPLINE
5
2F5
100
AcDbEntity
8
0
100
AcDbSpline
62
7
6
CONTINUOUS
70
0
71
3
72
10
73
6
74
4
42
0.0000001000
43
0.0000001000
44
0.0000000001
12
0.0000000000
22
0.3101949478
32
0.0000000000
13
-0.3101949478
23
0.0000000000
33
0.0000000000
40
0.0000000000
40
0.0000000000
40
0.0000000000
40
0.0000000000
40
0.3327853931
40
0.6647217960
40
1.0000000000
40
1.0000000000
40
1.0000000000
40
1.0000000000
10
135.2513872937
20
23.1954146259
30
0.0000000000
10
135.2513872937
20
23.2298240752
30
0.0000000000
10
135.2327923568
20
23.2998804319
30
0.0000000000
10
135.1566711709
20
23.3763195494
30
0.0000000000
10
135.0863285884
20
23.3951405329
30
0.0000000000
10
135.0516613867
20
23.3951405329
30
0.0000000000
11
135.2513872937
21
23.1954146259
31
0.0000000000
11
135.2247470372
21
23.2951462082
31
0.0000000000
11
135.1520860438
21
23.3680994141
31
0.0000000000
11
135.0516613867
21
23.3951405329
31
0.0000000000
0
SPLINE
5
2F6
100
AcDbEntity
8
0
100
AcDbSpline
62
7
6
CONTINUOUS
70
0
71
3
72
10
73
6
74
4
42
0.0000001000
43
0.0000001000
44
0.0000000001
12
-0.3101949478
22
0.0000000000
32
0.0000000000
13
0.0000000000
23
-0.3101949478
33
0.0000000000
40
0.0000000000
40
0.0000000000
40
0.0000000000
40
0.0000000000
40
0.3327853931
40
0.6647217960
40
1.0000000000
40
1.0000000000
40
1.0000000000
40
1.0000000000
10
45.4511132006
20
23.3951405329
30
0.0000000000
10
45.4167037514
20
23.3951405329
30
0.0000000000
10
45.3466473947
20
23.3765455960
30
0.0000000000
10
45.2702082772
20
23.3004244101
30
0.0000000000
10
45.2513872937
20
23.2300818276
30
0.0000000000
10
45.2513872937
20
23.1954146259
30
0.0000000000
11
45.4511132006
21
23.3951405329
31
0.0000000000
11
45.3513816184
21
23.3685002764
31
0.0000000000
11
45.2784284125
21
23.2958392830
31
0.0000000000
11
45.2513872937
21
23.1954146259
31
0.0000000000
0
SPLINE
5
2F7
100
AcDbEntity
8
0
100
AcDbSpline
62
7
6
CONTINUOUS
70
0
71
3
72
10
73
6
74
4
42
0.0000001000
43
0.0000001000
44
0.0000000001
12
0.0000000000
22
-0.3101949478
32
0.0000000000
13
0.3101949478
23
0.0000000000
33
0.0000000000
40
0.0000000000
40
0.0000000000
40
0.0000000000
40
0.0000000000
40
0.3327853931
40
0.6647217960
40
1.0000000000
40
1.0000000000
40
1.0000000000
40
1.0000000000
10
45.2513872937
20
-21.4051335602
30
0.0000000000
10
45.2513872937
20
-21.4395430094
30
0.0000000000
10
45.2699822306
20
-21.5095993661
30
0.0000000000
10
45.3461034165
20
-21.5860384836
30
0.0000000000
10
45.4164459990
20
-21.6048594671
30
0.0000000000
10
45.4511132006
20
-21.6048594671
30
0.0000000000
11
45.2513872937
21
-21.4051335602
31
0.0000000000
11
45.2780275502
21
-21.5048651424
31
0.0000000000
11
45.3506885436
21
-21.5778183483
31
0.0000000000
11
45.4511132006
21
-21.6048594671
31
0.0000000000
0
SPLINE
5
2F8
100
AcDbEntity
8
0
100
AcDbSpline
62
9
6
CONTINUOUS
70
0
71
3
72
10
73
6
74
4
42
0.0000001000
43
0.0000001000
44
0.0000000001
12
0.3099117571
22
0.0008488640
32
0.0000000000
13
0.0008488643
23
0.3099117571
33
0.0000000000
40
0.0000000000
40
0.0000000000
40
0.0000000000
40
0.0000000000
40
0.3332477062
40
0.6667309805
40
1.0000000000
40
1.0000000000
40
1.0000000000
40
1.0000000000
10
135.1160850581
20
-21.6692831384
30
0.0000000000
10
135.1505108521
20
-21.6691888444
30
0.0000000000
10
135.2206400560
20
-21.6503144653
30
0.0000000000
10
135.2968403513
20
-21.5741168640
30
0.0000000000
10
135.3157166650
20
-21.5039852273
30
0.0000000000
10
135.3158109650
20
-21.4695572315
30
0.0000000000
11
135.1160850581
21
-21.6692831384
31
0.0000000000
11
135.2157876647
21
-21.6423445429
31
0.0000000000
11
135.2888689444
21
-21.5692657548
31
0.0000000000
11
135.3158109650
21
-21.4695572315
31
0.0000000000
0
SPLINE
5
2F9
100
AcDbEntity
8
0
100
AcDbSpline
62
9
6
CONTINUOUS
70
0
71
3
72
10
73
6
74
4
42
0.0000001000
43
0.0000001000
44
0.0000000001
12
0.2277347056
22
0.0045713976
32
0.0000000000
13
0.0253710170
23
0.2263632155
33
0.0000000000
40
0.0000000000
40
0.0000000000
40
0.0000000000
40
0.0000000000
40
0.4304115254
40
0.7769336514
40
1.0000000000
40
1.0000000000
40
1.0000000000
40
1.0000000000
10
135.1474133951
20
-21.9572887749
30
0.0000000000
10
135.1800866091
20
-21.9566329142
30
0.0000000000
10
135.2394115871
20
-21.9488341669
30
0.0000000000
10
135.3108223817
20
-21.9248738903
30
0.0000000000
10
135.3452528287
20
-21.8895964612
30
0.0000000000
10
135.3471393021
20
-21.8727651226
30
0.0000000000
11
135.1474133951
21
-21.9572887749
31
0.0000000000
11
135.2446376136
21
-21.9446723988
31
0.0000000000
11
135.3173273256
21
-21.9139102407
31
0.0000000000
11
135.3471393021
21
-21.8727651226
31
0.0000000000
0
SPLINE
5
2FA
100
AcDbEntity
8
0
100
AcDbSpline
62
9
6
CONTINUOUS
70
0
71
3
72
10
73
6
74
4
42
0.0000001000
43
0.0000001000
44
0.0000000001
12
0.2277346795
22
0.0045713633
32
0.0000000000
13
0.0253710035
23
0.2263631900
33
0.0000000000
40
0.0000000000
40
0.0000000000
40
0.0000000000
40
0.0000000000
40
0.4304056434
40
0.7769299665
40
1.0000000000
40
1.0000000000
40
1.0000000000
40
1.0000000000
10
135.1591021489
20
-22.4355882506
30
0.0000000000
10
135.1917749126
20
-22.4349324038
30
0.0000000000
10
135.2510996166
20
-22.4271337706
30
0.0000000000
10
135.3225104040
20
-22.4031738200
30
0.0000000000
10
135.3569415523
20
-22.3678962131
30
0.0000000000
10
135.3588280558
20
-22.3510645983
30
0.0000000000
11
135.1591021489
21
-22.4355882506
31
0.0000000000
11
135.2563250496
21
-22.4229722210
31
0.0000000000
11
135.3290153648
21
-22.3922102277
31
0.0000000000
11
135.3588280558
21
-22.3510645983
31
0.0000000000
0
SPLINE
5
2FB
100
AcDbEntity
8
0
100
AcDbSpline
62
9
6
CONTINUOUS
70
0
71
3
72
10
73
6
74
4
42
0.0000001000
43
0.0000001000
44
0.0000000001
12
0.0860830933
22
0.0771187903
32
0.0000000000
13
0.0708089399
23
0.0913438602
33
0.0000000000
40
0.0000000000
40
0.0000000000
40
0.0000000000
40
0.0000000000
40
0.3299744950
40
0.6671857117
40
1.0000000000
40
1.0000000000
40
1.0000000000
40
1.0000000000
10
135.4013002914
20
-23.1794278544
30
0.0000000000
10
135.4107686998
20
-23.1709454431
30
0.0000000000
10
135.4293588100
20
-23.1531671747
30
0.0000000000
10
135.4556080349
20
-23.1249430309
30
0.0000000000
10
135.4720714779
20
-23.1050376284
30
0.0000000000
10
135.4799268869
20
-23.0949041144
30
0.0000000000
11
135.4013002914
21
-23.1794278544
31
0.0000000000
11
135.4288937285
21
-23.1531025668
31
0.0000000000
11
135.4554386983
21
-23.1245670309
31
0.0000000000
11
135.4799268869
21
-23.0949041144
31
0.0000000000
0
SPLINE
5
2FC
100
AcDbEntity
8
0
100
AcDbSpline
62
9
6
CONTINUOUS
70
0
71
3
72
10
73
6
74
4
42
0.0000001000
43
0.0000001000
44
0.0000000001
12
-0.0008488646
22
0.3099117570
32
0.0000000000
13
-0.3099117570
23
0.0008488647
33
0.0000000000
40
0.0000000000
40
0.0000000000
40
0.0000000000
40
0.0000000000
40
0.3332622719
40
0.6667463922
40
1.0000000000
40
1.0000000000
40
1.0000000000
40
1.0000000000
10
135.3158109650
20
23.2598382973
30
0.0000000000
10
135.3157166668
20
23.2942655960
30
0.0000000000
10
135.2968409448
20
23.3643965503
30
0.0000000000
10
135.2206414270
20
23.4405949728
30
0.0000000000
10
135.1505114618
20
23.4594699085
30
0.0000000000
10
135.1160850581
20
23.4595642042
30
0.0000000000
11
135.3158109650
21
23.2598382973
31
0.0000000000
11
135.2888700287
21
23.3595449473
31
0.0000000000
11
135.2157893029
21
23.4326246602
31
0.0000000000
11
135.1160850581
21
23.4595642042
31
0.0000000000
0
SPLINE
5
2FD
100
AcDbEntity
8
0
100
AcDbSpline
62
9
6
CONTINUOUS
70
0
71
3
72
10
73
6
74
4
42
0.0000001000
43
0.0000001000
44
0.0000000001
12
-0.0253710170
22
0.2263632155
32
0.0000000000
13
-0.2277347057
23
0.0045713968
33
0.0000000000
40
0.0000000000
40
0.0000000000
40
0.0000000000
40
0.0000000000
40
0.2230663485
40
0.5695884756
40
1.0000000000
40
1.0000000000
40
1.0000000000
40
1.0000000000
10
135.3471393021
20
23.6630461884
30
0.0000000000
10
135.3452528287
20
23.6798775270
30
0.0000000000
10
135.3108223817
20
23.7151549561
30
0.0000000000
10
135.2394115871
20
23.7391152330
30
0.0000000000
10
135.1800866091
20
23.7469139801
30
0.0000000000
10
135.1474133951
20
23.7475698407
30
0.0000000000
11
135.3471393021
21
23.6630461884
31
0.0000000000
11
135.3173273257
21
23.7041913065
31
0.0000000000
11
135.2446376134
21
23.7349534648
31
0.0000000000
11
135.1474133951
21
23.7475698407
31
0.0000000000
0
SPLINE
5
2FE
100
AcDbEntity
8
0
100
AcDbSpline
62
9
6
CONTINUOUS
70
0
71
3
72
10
73
6
74
4
42
0.0000001000
43
0.0000001000
44
0.0000000001
12
-0.0253710155
22
0.2263632134
32
0.0000000000
13
-0.2277347034
23
0.0045713930
33
0.0000000000
40
0.0000000000
40
0.0000000000
40
0.0000000000
40
0.0000000000
40
0.2230666884
40
0.5695890266
40
1.0000000000
40
1.0000000000
40
1.0000000000
40
1.0000000000
10
135.3588280558
20
24.1413456641
30
0.0000000000
10
135.3569415797
20
24.1581770282
30
0.0000000000
10
135.3225110677
20
24.1934544744
30
0.0000000000
10
135.2511002735
20
24.2174147208
30
0.0000000000
10
135.1917753207
20
24.2252134572
30
0.0000000000
10
135.1591021489
20
24.2258693164
30
0.0000000000
11
135.3588280558
21
24.1413456641
31
0.0000000000
11
135.3290160137
21
24.1824908295
31
0.0000000000
11
135.2563262438
21
24.2132529732
31
0.0000000000
11
135.1591021489
21
24.2258693164
31
0.0000000000
0
SPLINE
5
2FF
100
AcDbEntity
8
0
100
AcDbSpline
62
9
6
CONTINUOUS
70
0
71
3
72
10
73
6
74
4
42
0.0000001000
43
0.0000001000
44
0.0000000001
12
-0.0708089251
22
0.0913429035
32
0.0000000000
13
-0.0860828956
23
0.0771178642
33
0.0000000000
40
0.0000000000
40
0.0000000000
40
0.0000000000
40
0.0000000000
40
0.3328143894
40
0.6700258730
40
1.0000000000
40
1.0000000000
40
1.0000000000
40
1.0000000000
10
135.4799262130
20
24.8851851818
30
0.0000000000
10
135.4720708033
20
24.8953185926
30
0.0000000000
10
135.4556074207
20
24.9152238306
30
0.0000000000
10
135.4293586970
20
24.9434480920
30
0.0000000000
10
135.4107686690
20
24.9612262063
30
0.0000000000
10
135.4013002929
20
24.9697085063
30
0.0000000000
11
135.4799262130
21
24.8851851818
31
0.0000000000
11
135.4554381534
21
24.9148478896
31
0.0000000000
11
135.4288935368
21
24.9433834438
31
0.0000000000
11
135.4013002929
21
24.9697085063
31
0.0000000000
0
SPLINE
5
300
100
AcDbEntity
8
0
100
AcDbSpline
62
9
6
CONTINUOUS
70
0
71
3
72
10
73
6
74
4
42
0.0000001000
43
0.0000001000
44
0.0000000001
12
-0.3099117571
22
-0.0008488640
32
0.0000000000
13
-0.0008488643
23
-0.3099117571
33
0.0000000000
40
0.0000000000
40
0.0000000000
40
0.0000000000
40
0.0000000000
40
0.3332477062
40
0.6667309805
40
1.0000000000
40
1.0000000000
40
1.0000000000
40
1.0000000000
10
45.3866895293
20
23.4595642042
30
0.0000000000
10
45.3522637353
20
23.4594699102
30
0.0000000000
10
45.2821345314
20
23.4405955311
30
0.0000000000
10
45.2059342361
20
23.3643979298
30
0.0000000000
10
45.1870579224
20
23.2942662931
30
0.0000000000
10
45.1869636224
20
23.2598382973
30
0.0000000000
11
45.3866895293
21
23.4595642042
31
0.0000000000
11
45.2869869227
21
23.4326256087
31
0.0000000000
11
45.2139056429
21
23.3595468205
31
0.0000000000
11
45.1869636224
21
23.2598382973
31
0.0000000000
0
SPLINE
5
301
100
AcDbEntity
8
0
100
AcDbSpline
62
9
6
CONTINUOUS
70
0
71
3
72
10
73
6
74
4
42
0.0000001000
43
0.0000001000
44
0.0000000001
12
-0.2277347056
22
-0.0045713976
32
0.0000000000
13
-0.0253710170
23
-0.2263632155
33
0.0000000000
40
0.0000000000
40
0.0000000000
40
0.0000000000
40
0.0000000000
40
0.4304115254
40
0.7769336514
40
1.0000000000
40
1.0000000000
40
1.0000000000
40
1.0000000000
10
45.3553611923
20
23.7475698407
30
0.0000000000
10
45.3226879783
20
23.7469139800
30
0.0000000000
10
45.2633630003
20
23.7391152327
30
0.0000000000
10
45.1919522057
20
23.7151549561
30
0.0000000000
10
45.1575217587
20
23.6798775270
30
0.0000000000
10
45.1556352853
20
23.6630461884
30
0.0000000000
11
45.3553611923
21
23.7475698407
31
0.0000000000
11
45.2581369738
21
23.7349534646
31
0.0000000000
11
45.1854472617
21
23.7041913065
31
0.0000000000
11
45.1556352853
21
23.6630461884
31
0.0000000000
0
SPLINE
5
302
100
AcDbEntity
8
0
100
AcDbSpline
62
9
6
CONTINUOUS
70
0
71
3
72
10
73
6
74
4
42
0.0000001000
43
0.0000001000
44
0.0000000001
12
-0.2277346792
22
-0.0045713692
32
0.0000000000
13
-0.0253710054
23
-0.2263631896
33
0.0000000000
40
0.0000000000
40
0.0000000000
40
0.0000000000
40
0.0000000000
40
0.4304058294
40
0.7769300871
40
1.0000000000
40
1.0000000000
40
1.0000000000
40
1.0000000000
10
45.3436724385
20
24.2258693164
30
0.0000000000
10
45.3109996607
20
24.2252134684
30
0.0000000000
10
45.2516749480
20
24.2174148308
30
0.0000000000
10
45.1802641613
20
24.1934548700
30
0.0000000000
10
45.1458330342
20
24.1581772697
30
0.0000000000
10
45.1439465316
20
24.1413456641
30
0.0000000000
11
45.3436724385
21
24.2258693164
31
0.0000000000
11
45.2464494967
21
24.2132532745
31
0.0000000000
11
45.1737592000
21
24.1824912759
31
0.0000000000
11
45.1439465316
21
24.1413456641
31
0.0000000000
0
SPLINE
5
303
100
AcDbEntity
8
0
100
AcDbSpline
62
9
6
CONTINUOUS
70
0
71
3
72
10
73
6
74
4
42
0.0000001000
43
0.0000001000
44
0.0000000001
12
-0.0860836082
22
-0.0771181943
32
0.0000000000
13
-0.0708090765
23
-0.0913437364
33
0.0000000000
40
0.0000000000
40
0.0000000000
40
0.0000000000
40
0.0000000000
40
0.3299742808
40
0.6671857054
40
1.0000000000
40
1.0000000000
40
1.0000000000
40
1.0000000000
10
45.1014742318
20
24.9697089791
30
0.0000000000
10
45.0920057729
20
24.9612266389
30
0.0000000000
10
45.0734155900
20
24.9434484419
30
0.0000000000
10
45.0471665512
20
24.9152241302
30
0.0000000000
10
45.0307030928
20
24.8953187394
30
0.0000000000
10
45.0228476685
20
24.8851852390
30
0.0000000000
11
45.1014742318
21
24.9697089791
31
0.0000000000
11
45.0738807319
21
24.9433838000
31
0.0000000000
11
45.0473358494
21
24.9148481566
31
0.0000000000
11
45.0228476685
21
24.8851852390
31
0.0000000000
0
SPLINE
5
304
100
AcDbEntity
8
0
100
AcDbSpline
62
9
6
CONTINUOUS
70
0
71
3
72
10
73
6
74
4
42
0.0000001000
43
0.0000001000
44
0.0000000001
12
0.0008488646
22
-0.3099117570
32
0.0000000000
13
0.3099117570
23
-0.0008488647
33
0.0000000000
40
0.0000000000
40
0.0000000000
40
0.0000000000
40
0.0000000000
40
0.3332622719
40
0.6667463922
40
1.0000000000
40
1.0000000000
40
1.0000000000
40
1.0000000000
10
45.1869636224
20
-21.4695572315
30
0.0000000000
10
45.1870579206
20
-21.5039845302
30
0.0000000000
10
45.2059336426
20
-21.5741154845
30
0.0000000000
10
45.2821331604
20
-21.6503139071
30
0.0000000000
10
45.3522631256
20
-21.6691888427
30
0.0000000000
10
45.3866895293
20
-21.6692831384
30
0.0000000000
11
45.1869636224
21
-21.4695572315
31
0.0000000000
11
45.2139045587
21
-21.5692638815
31
0.0000000000
11
45.2869852845
21
-21.6423435944
31
0.0000000000
11
45.3866895293
21
-21.6692831384
31
0.0000000000
0
SPLINE
5
305
100
AcDbEntity
8
0
100
AcDbSpline
62
9
6
CONTINUOUS
70
0
71
3
72
10
73
6
74
4
42
0.0000001000
43
0.0000001000
44
0.0000000001
12
0.0253710170
22
-0.2263632155
32
0.0000000000
13
0.2277347057
23
-0.0045713968
33
0.0000000000
40
0.0000000000
40
0.0000000000
40
0.0000000000
40
0.0000000000
40
0.2230663485
40
0.5695884756
40
1.0000000000
40
1.0000000000
40
1.0000000000
40
1.0000000000
10
45.1556352853
20
-21.8727651226
30
0.0000000000
10
45.1575217587
20
-21.8895964612
30
0.0000000000
10
45.1919522057
20
-21.9248738903
30
0.0000000000
10
45.2633630003
20
-21.9488341672
30
0.0000000000
10
45.3226879783
20
-21.9566329143
30
0.0000000000
10
45.3553611923
20
-21.9572887749
30
0.0000000000
11
45.1556352853
21
-21.8727651226
31
0.0000000000
11
45.1854472617
21
-21.9139102407
31
0.0000000000
11
45.2581369740
21
-21.9446723990
31
0.0000000000
11
45.3553611923
21
-21.9572887749
31
0.0000000000
0
SPLINE
5
306
100
AcDbEntity
8
0
100
AcDbSpline
62
9
6
CONTINUOUS
70
0
71
3
72
10
73
6
74
4
42
0.0000001000
43
0.0000001000
44
0.0000000001
12
0.0253710162
22
-0.2263632135
32
0.0000000000
13
0.2277347037
23
-0.0045713951
33
0.0000000000
40
0.0000000000
40
0.0000000000
40
0.0000000000
40
0.0000000000
40
0.2230666120
40
0.5695889064
40
1.0000000000
40
1.0000000000
40
1.0000000000
40
1.0000000000
10
45.1439465316
20
-22.3510645983
30
0.0000000000
10
45.1458330071
20
-22.3678959567
30
0.0000000000
10
45.1802635050
20
-22.4031733990
30
0.0000000000
10
45.2516742992
20
-22.4271336519
30
0.0000000000
10
45.3109992576
20
-22.4349323909
30
0.0000000000
10
45.3436724385
20
-22.4355882506
30
0.0000000000
11
45.1439465316
21
-22.3510645983
31
0.0000000000
11
45.1737585591
21
-22.3922097529
31
0.0000000000
11
45.2464483168
21
-22.4229718999
31
0.0000000000
11
45.3436724385
21
-22.4355882506
31
0.0000000000
0
SPLINE
5
307
100
AcDbEntity
8
0
100
AcDbSpline
62
9
6
CONTINUOUS
70
0
71
3
72
10
73
6
74
4
42
0.0000001000
43
0.0000001000
44
0.0000000001
12
0.0708089910
22
-0.0913428295
32
0.0000000000
13
0.0860831473
23
-0.0771175560
33
0.0000000000
40
0.0000000000
40
0.0000000000
40
0.0000000000
40
0.0000000000
40
0.3328144472
40
0.6700281867
40
1.0000000000
40
1.0000000000
40
1.0000000000
40
1.0000000000
10
45.0228483422
20
-23.0949041748
30
0.0000000000
10
45.0307037606
20
-23.1050375792
30
0.0000000000
10
45.0471672033
20
-23.1249428749
30
0.0000000000
10
45.0734158286
20
-23.1531672208
30
0.0000000000
10
45.0920058929
20
-23.1709452927
30
0.0000000000
10
45.1014742303
20
-23.1794274993
30
0.0000000000
11
45.0228483422
21
-23.0949041748
31
0.0000000000
11
45.0473363987
21
-23.1245668861
31
0.0000000000
11
45.0738811382
21
-23.1531026736
31
0.0000000000
11
45.1014742303
21
-23.1794274993
31
0.0000000000
0
SPLINE
5
308
100
AcDbEntity
8
0
100
AcDbSpline
62
9
6
CONTINUOUS
70
0
71
3
72
10
73
6
74
4
42
0.0000001000
43
0.0000001000
44
0.0000000001
12
0.2367253911
22
-0.1687727700
32
0.0000000000
13
0.0099438848
23
-0.2905585618
33
0.0000000000
40
0.0000000000
40
0.0000000000
40
0.0000000000
40
0.0000000000
40
0.1498654086
40
0.5097226883
40
1.0000000000
40
1.0000000000
40
1.0000000000
40
1.0000000000
10
135.1160850581
20
-21.6692831384
30
0.0000000000
10
135.1279107072
20
-21.6777142051
30
0.0000000000
10
135.1285761857
20
-21.7361192335
30
0.0000000000
10
135.1442539254
20
-21.8247670729
30
0.0000000000
10
135.1457883081
20
-21.9098040181
30
0.0000000000
10
135.1474133951
20
-21.9572887749
30
0.0000000000
11
135.1160850581
21
-21.6692831384
31
0.0000000000
11
135.1289353000
21
-21.7109152301
31
0.0000000000
11
135.1400960409
21
-21.8149390517
31
0.0000000000
11
135.1474133951
21
-21.9572887749
31
0.0000000000
0
SPLINE
5
309
100
AcDbEntity
8
0
100
AcDbSpline
62
9
6
CONTINUOUS
70
0
71
3
72
11
73
7
74
5
42
0.0000001000
43
0.0000001000
44
0.0000000001
12
-0.2366419381
22
-0.1692528618
32
0.0000000000
13
-0.0099501789
23
-0.2907695514
33
0.0000000000
40
0.0000000000
40
0.0000000000
40
0.0000000000
40
0.0000000000
40
0.0805009343
40
0.2847894042
40
0.6106839852
40
1.0000000000
40
1.0000000000
40
1.0000000000
40
1.0000000000
10
45.3866895293
20
-21.6692831384
30
0.0000000000
10
45.3803395636
20
-21.6738248096
30
0.0000000000
10
45.3758103181
20
-21.7048475403
30
0.0000000000
10
45.3657809934
20
-21.7599614248
30
0.0000000000
10
45.3601049514
20
-21.8508130007
30
0.0000000000
10
45.3566524469
20
-21.9195550273
30
0.0000000000
10
45.3553611923
20
-21.9572887749
30
0.0000000000
11
45.3866895293
21
-21.6692831384
31
0.0000000000
11
45.3777671996
21
-21.6909379671
31
0.0000000000
11
45.3685849898
21
-21.7496600404
31
0.0000000000
11
45.3606962862
21
-21.8441469867
31
0.0000000000
11
45.3553611923
21
-21.9572887749
31
0.0000000000
0
SPLINE
5
30A
100
AcDbEntity
8
0
100
AcDbSpline
62
9
6
CONTINUOUS
70
0
71
3
72
11
73
7
74
5
42
0.0000001000
43
0.0000001000
44
0.0000000001
12
0.2366419381
22
0.1692528618
32
0.0000000000
13
0.0099501789
23
0.2907695514
33
0.0000000000
40
0.0000000000
40
0.0000000000
40
0.0000000000
40
0.0000000000
40
0.0805009343
40
0.2847894042
40
0.6106839852
40
1.0000000000
40
1.0000000000
40
1.0000000000
40
1.0000000000
10
135.1160850581
20
23.4595642042
30
0.0000000000
10
135.1224350238
20
23.4641058754
30
0.0000000000
10
135.1269642693
20
23.4951286060
30
0.0000000000
10
135.1369935940
20
23.5502424906
30
0.0000000000
10
135.1426696360
20
23.6410940665
30
0.0000000000
10
135.1461221404
20
23.7098360931
30
0.0000000000
10
135.1474133951
20
23.7475698407
30
0.0000000000
11
135.1160850581
21
23.4595642042
31
0.0000000000
11
135.1250073877
21
23.4812190329
31
0.0000000000
11
135.1341895975
21
23.5399411062
31
0.0000000000
11
135.1420783012
21
23.6344280525
31
0.0000000000
11
135.1474133951
21
23.7475698407
31
0.0000000000
0
SPLINE
5
30B
100
AcDbEntity
8
0
100
AcDbSpline
62
9
6
CONTINUOUS
70
0
71
3
72
10
73
6
74
4
42
0.0000001000
43
0.0000001000
44
0.0000000001
12
-0.2367253911
22
0.1687727700
32
0.0000000000
13
-0.0099438848
23
0.2905585618
33
0.0000000000
40
0.0000000000
40
0.0000000000
40
0.0000000000
40
0.0000000000
40
0.1498654086
40
0.5097226883
40
1.0000000000
40
1.0000000000
40
1.0000000000
40
1.0000000000
10
45.3866895293
20
23.4595642042
30
0.0000000000
10
45.3748638802
20
23.4679952709
30
0.0000000000
10
45.3741984017
20
23.5264002993
30
0.0000000000
10
45.3585206620
20
23.6150481387
30
0.0000000000
10
45.3569862793
20
23.7000850839
30
0.0000000000
10
45.3553611923
20
23.7475698407
30
0.0000000000
11
45.3866895293
21
23.4595642042
31
0.0000000000
11
45.3738392874
21
23.5011962959
31
0.0000000000
11
45.3626785465
21
23.6052201175
31
0.0000000000
11
45.3553611923
21
23.7475698407
31
0.0000000000
0
SPLINE
5
30C
100
AcDbEntity
8
0
100
AcDbSpline
62
9
6
CONTINUOUS
70
0
71
3
72
12
73
8
74
6
42
0.0000001000
43
0.0000001000
44
0.0000000001
12
90.4686981765
22
6.5127439767
32
0.0000000000
13
90.4686981283
23
-6.5127446463
33
0.0000000000
40
0.0000000000
40
0.0000000000
40
0.0000000000
40
0.0000000000
40
0.2001669647
40
0.4000839170
40
0.5999151223
40
0.7998321216
40
1.0000000000
40
1.0000000000
40
1.0000000000
40
1.0000000000
10
44.9375094460
20
25.0429289952
30
0.0000000000
10
50.9737910178
20
25.4774743931
30
0.0000000000
10
63.0519843692
20
26.1732056162
30
0.0000000000
10
81.1848399986
20
26.6952775969
30
0.0000000000
10
99.3178488136
20
26.6952790262
30
0.0000000000
10
117.4507335232
20
26.1732081426
30
0.0000000000
10
129.5289560196
20
25.4774773684
30
0.0000000000
10
135.5652651414
20
25.0429299423
30
0.0000000000
11
44.9375094460
21
25.0429289952
31
0.0000000000
11
63.0631925627
21
26.0866415080
31
0.0000000000
11
81.1887169854
21
26.6083456251
31
0.0000000000
11
99.3139704120
21
26.6083469100
31
0.0000000000
11
117.4394991699
21
26.0866451626
31
0.0000000000
11
135.5652651414
21
25.0429299423
31
0.0000000000
0
SPLINE
5
30D
100
AcDbEntity
8
0
100
AcDbSpline
62
9
6
CONTINUOUS
70
0
71
3
72
9
73
5
74
3
42
0.0000001000
43
0.0000001000
44
0.0000000001
12
-0.1640517583
22
0.0729771310
32
0.0000000000
13
-0.1639864868
23
0.0731236841
33
0.0000000000
40
0.0000000000
40
0.0000000000
40
0.0000000000
40
0.0000000000
40
0.4717949698
40
1.0000000000
40
1.0000000000
40
1.0000000000
40
1.0000000000
10
45.1014742318
20
24.9697088914
30
0.0000000000
10
45.0756746337
20
24.9811856392
30
0.0000000000
10
45.0209961117
20
25.0055236389
30
0.0000000000
10
44.9664048401
20
25.0300568780
30
0.0000000000
10
44.9375320110
20
25.0429316439
30
0.0000000000
11
45.1014742318
21
24.9697088914
31
0.0000000000
11
45.0240999515
21
25.0041941893
31
0.0000000000
11
44.9375320110
21
25.0429316439
31
0.0000000000
0
SPLINE
5
30E
100
AcDbEntity
8
0
100
AcDbSpline
62
9
6
CONTINUOUS
70
0
71
3
72
10
73
6
74
4
42
0.0000001000
43
0.0000001000
44
0.0000000001
12
0.1640747915
22
0.0729555068
32
0.0000000000
13
0.1639246063
23
0.0732923367
33
0.0000000000
40
0.0000000000
40
0.0000000000
40
0.0000000000
40
0.0000000000
40
0.3289416954
40
0.6626462296
40
1.0000000000
40
1.0000000000
40
1.0000000000
40
1.0000000000
10
135.4013002929
20
24.9697088339
30
0.0000000000
10
135.4192906396
20
24.9777082033
30
0.0000000000
10
135.4555191713
20
24.9938512008
30
0.0000000000
10
135.5101748371
20
25.0182503925
30
0.0000000000
10
135.5468228592
20
25.0346887541
30
0.0000000000
10
135.5652563873
20
25.0429305695
30
0.0000000000
11
135.4013002929
21
24.9697088339
31
0.0000000000
11
135.4552560247
21
24.9937413404
31
0.0000000000
11
135.5099681855
21
25.0181774479
31
0.0000000000
11
135.5652563873
21
25.0429305695
31
0.0000000000
0
SPLINE
5
30F
100
AcDbEntity
8
0
100
AcDbSpline
62
9
6
CONTINUOUS
70
0
71
3
72
16
73
12
74
10
42
0.0000001000
43
0.0000001000
44
0.0000000001
12
-0.0092752054
22
-0.7587432674
32
0.0000000000
13
-0.3654014974
23
-0.6650256544
33
0.0000000000
40
0.0000000000
40
0.0000000000
40
0.0000000000
40
0.0000000000
40
0.1360132812
40
0.2584310313
40
0.3719553892
40
0.4805091706
40
0.5866928810
40
0.6927069022
40
0.7991387339
40
0.9025425129
40
1.0000000000
40
1.0000000000
40
1.0000000000
40
1.0000000000
10
45.1439465316
20
-22.3510645983
30
0.0000000000
10
45.1435260145
20
-22.3854643188
30
0.0000000000
10
45.1418105030
20
-22.4508182766
30
0.0000000000
10
45.1367351557
20
-22.5447719922
30
0.0000000000
10
45.1296677319
20
-22.6316306359
30
0.0000000000
10
45.1205811711
20
-22.7141719633
30
0.0000000000
10
45.1091604282
20
-22.7945099742
30
0.0000000000
10
45.0948146667
20
-22.8738331695
30
0.0000000000
10
45.0768645934
20
-22.9517393049
30
0.0000000000
10
45.0542597675
20
-23.0261314196
30
0.0000000000
10
45.0347177981
20
-23.0733002649
30
0.0000000000
10
45.0228474275
20
-23.0949041746
30
0.0000000000
11
45.1439465316
21
-22.3510645983
31
0.0000000000
11
45.1412186718
21
-22.4542354140
31
0.0000000000
11
45.1361774359
21
-22.5469891010
31
0.0000000000
11
45.1291499224
21
-22.6328442470
31
0.0000000000
11
45.1200806533
21
-22.7147140514
31
0.0000000000
11
45.1086540140
21
-22.7944718755
31
0.0000000000
11
45.0942088153
21
-22.8736077235
31
0.0000000000
11
45.0757893533
21
-22.9522396307
31
0.0000000000
11
45.0525591581
21
-23.0271847197
31
0.0000000000
11
45.0228474275
21
-23.0949041746
31
0.0000000000
0
SPLINE
5
310
100
AcDbEntity
8
0
100
AcDbSpline
62
9
6
CONTINUOUS
70
0
71
3
72
13
73
9
74
7
42
0.0000001000
43
0.0000001000
44
0.0000000001
12
-0.0092716200
22
0.7586554749
32
0.0000000000
13
-0.3633558333
23
0.6660455172
33
0.0000000000
40
0.0000000000
40
0.0000000000
40
0.0000000000
40
0.0000000000
40
0.2183472914
40
0.4166976448
40
0.5935281048
40
0.7485309199
40
0.8834611434
40
1.0000000000
40
1.0000000000
40
1.0000000000
40
1.0000000000
10
45.1439465316
20
24.1413456641
30
0.0000000000
10
45.1432717205
20
24.1965624534
30
0.0000000000
10
45.1396223059
20
24.3019273397
30
0.0000000000
10
45.1274776862
20
24.4515992840
30
0.0000000000
10
45.1099154324
20
24.5845828373
30
0.0000000000
10
45.0876779740
20
24.7006330970
30
0.0000000000
10
45.0605154083
20
24.7998260901
30
0.0000000000
10
45.0369624526
20
24.8593118448
30
0.0000000000
10
45.0228474282
20
24.8851852391
30
0.0000000000
11
45.1439465316
21
24.1413456641
31
0.0000000000
11
45.1381081095
21
24.3069054889
31
0.0000000000
11
45.1257094508
21
24.4568846866
31
0.0000000000
11
45.1078244460
21
24.5898506537
31
0.0000000000
11
45.0851320100
21
24.7052430496
31
0.0000000000
11
45.0573434788
21
24.8037725832
31
0.0000000000
11
45.0228474282
21
24.8851852391
31
0.0000000000
0
SPLINE
5
311
100
AcDbEntity
8
0
100
AcDbSpline
62
9
6
CONTINUOUS
70
0
71
3
72
9
73
5
74
3
42
0.0000001000
43
0.0000001000
44
0.0000000001
12
-0.0858648737
22
0.1574569823
32
0.0000000000
13
-0.0845757389
23
0.1581531606
33
0.0000000000
40
0.0000000000
40
0.0000000000
40
0.0000000000
40
0.0000000000
40
0.4740975293
40
1.0000000000
40
1.0000000000
40
1.0000000000
40
1.0000000000
10
45.0228474282
20
24.8851852391
30
0.0000000000
10
45.0092779867
20
24.9100685612
30
0.0000000000
10
44.9807741164
20
24.9626182470
30
0.0000000000
10
44.9523356427
20
25.0152037759
30
0.0000000000
10
44.9375094460
20
25.0429281552
30
0.0000000000
11
45.0228474282
21
24.8851852391
31
0.0000000000
11
44.9822654568
21
24.9599039700
31
0.0000000000
11
44.9375094460
21
25.0429281552
31
0.0000000000
0
SPLINE
5
312
100
AcDbEntity
8
0
100
AcDbSpline
62
9
6
CONTINUOUS
70
0
71
3
72
10
73
6
74
4
42
0.0000001000
43
0.0000001000
44
0.0000000001
12
-0.0858845689
22
-0.1574478744
32
0.0000000000
13
-0.0847581494
23
-0.1580571050
33
0.0000000000
40
0.0000000000
40
0.0000000000
40
0.0000000000
40
0.0000000000
40
0.3301680518
40
0.6655586324
40
1.0000000000
40
1.0000000000
40
1.0000000000
40
1.0000000000
10
45.0228474275
20
-23.0949041746
30
0.0000000000
10
45.0133953139
20
-23.1122322606
30
0.0000000000
10
44.9943931743
20
-23.1471906891
30
0.0000000000
10
44.9659582446
20
-23.1997782758
30
0.0000000000
10
44.9469583231
20
-23.2350284029
30
0.0000000000
10
44.9375094460
20
-23.2526486810
30
0.0000000000
11
45.0228474275
21
-23.0949041746
31
0.0000000000
11
44.9945612366
21
-23.1469266366
31
0.0000000000
11
44.9659429626
21
-23.1998345309
31
0.0000000000
11
44.9375094460
21
-23.2526486810
31
0.0000000000
0
SPLINE
5
313
100
AcDbEntity
8
0
100
AcDbSpline
62
9
6
CONTINUOUS
70
0
71
3
72
12
73
8
74
6
42
0.0000001000
43
0.0000001000
44
0.0000000001
12
-90.4686982756
22
-6.5127426004
32
0.0000000000
13
-90.4686980299
23
6.5127460140
33
0.0000000000
40
0.0000000000
40
0.0000000000
40
0.0000000000
40
0.0000000000
40
0.2001670917
40
0.4000840918
40
0.5999152970
40
0.7998322487
40
1.0000000000
40
1.0000000000
40
1.0000000000
40
1.0000000000
10
135.5652651414
20
-23.2526478681
30
0.0000000000
10
129.5289797347
20
-23.6871934497
30
0.0000000000
10
117.4507811209
20
-24.3829252205
30
0.0000000000
10
99.3179201865
20
-24.9049967495
30
0.0000000000
10
81.1849113681
20
-24.9049977419
30
0.0000000000
10
63.0520319624
20
-24.3829264071
30
0.0000000000
10
50.9738147296
20
-23.6871961787
30
0.0000000000
10
44.9375094460
20
-23.2526489372
30
0.0000000000
11
135.5652651414
21
-23.2526478681
31
0.0000000000
11
117.4395705277
21
-24.2963610159
31
0.0000000000
11
99.3140417596
21
-24.8180648158
31
0.0000000000
11
81.1887883297
21
-24.8180655876
31
0.0000000000
11
63.0632639103
21
-24.2963635227
31
0.0000000000
11
44.9375094460
21
-23.2526489372
31
0.0000000000
0
SPLINE
5
314
100
AcDbEntity
8
0
100
AcDbSpline
62
9
6
CONTINUOUS
70
0
71
3
72
9
73
5
74
3
42
0.0000001000
43
0.0000001000
44
0.0000000001
12
0.1640516597
22
-0.0729771277
32
0.0000000000
13
0.1639865469
23
-0.0731233251
33
0.0000000000
40
0.0000000000
40
0.0000000000
40
0.0000000000
40
0.0000000000
40
0.4717732660
40
1.0000000000
40
1.0000000000
40
1.0000000000
40
1.0000000000
10
135.4013002914
20
-23.1794277668
30
0.0000000000
10
135.4270986872
20
-23.1909039861
30
0.0000000000
10
135.4817771838
20
-23.2152419680
30
0.0000000000
10
135.5363683818
20
-23.2397752973
30
0.0000000000
10
135.5652424078
20
-23.2526505290
30
0.0000000000
11
135.4013002914
21
-23.1794277668
31
0.0000000000
11
135.4786709630
21
-23.2139114830
31
0.0000000000
11
135.5652424078
21
-23.2526505290
31
0.0000000000
0
SPLINE
5
315
100
AcDbEntity
8
0
100
AcDbSpline
62
9
6
CONTINUOUS
70
0
71
3
72
10
73
6
74
4
42
0.0000001000
43
0.0000001000
44
0.0000000001
12
-0.1640748370
22
-0.0729554908
32
0.0000000000
13
-0.1639243530
23
-0.0732929894
33
0.0000000000
40
0.0000000000
40
0.0000000000
40
0.0000000000
40
0.0000000000
40
0.3289618409
40
0.6626868118
40
1.0000000000
40
1.0000000000
40
1.0000000000
40
1.0000000000
10
45.1014742303
20
-23.1794278270
30
0.0000000000
10
45.0834827769
20
-23.1874276845
30
0.0000000000
10
45.0472520162
20
-23.2035716667
30
0.0000000000
10
44.9925963282
20
-23.2279708372
30
0.0000000000
10
44.9559493771
20
-23.2444086596
30
0.0000000000
10
44.9375180951
20
-23.2526495569
30
0.0000000000
11
45.1014742303
21
-23.1794278270
31
0.0000000000
11
45.0475151779
21
-23.2034617971
31
0.0000000000
11
44.9927996424
21
-23.2278993762
31
0.0000000000
11
44.9375180951
21
-23.2526495569
31
0.0000000000
0
SPLINE
5
316
100
AcDbEntity
8
0
100
AcDbSpline
62
9
6
CONTINUOUS
70
0
71
3
72
15
73
11
74
9
42
0.0000001000
43
0.0000001000
44
0.0000000001
12
0.0092762645
22
0.7587239357
32
0.0000000000
13
0.3644826681
23
0.6655076592
33
0.0000000000
40
0.0000000000
40
0.0000000000
40
0.0000000000
40
0.0000000000
40
0.1562325652
40
0.3039663155
40
0.4388435071
40
0.5624325117
40
0.6786810475
40
0.7902844785
40
0.8972611194
40
1.0000000000
40
1.0000000000
40
1.0000000000
40
1.0000000000
10
135.3588280558
20
24.1413456641
30
0.0000000000
10
135.3593111407
20
24.1808581263
30
0.0000000000
10
135.3614880282
20
24.2577248420
30
0.0000000000
10
135.3682748827
20
24.3685323963
30
0.0000000000
10
135.3780190964
20
24.4708280558
30
0.0000000000
10
135.3903733569
20
24.5648191921
30
0.0000000000
10
135.4055354932
20
24.6524273172
30
0.0000000000
10
135.4240367796
20
24.7351353081
30
0.0000000000
10
135.4472668439
20
24.8130392721
30
0.0000000000
10
135.4674449474
20
24.8623940110
30
0.0000000000
10
135.4799271278
20
24.8851851816
30
0.0000000000
11
135.3588280558
21
24.1413456641
31
0.0000000000
11
135.3622156846
21
24.2598434969
31
0.0000000000
11
135.3691319516
21
24.3717274408
31
0.0000000000
11
135.3789220076
21
24.4736003080
31
0.0000000000
11
135.3912632455
21
24.5665616391
31
0.0000000000
11
135.4064543216
21
24.6534508240
31
0.0000000000
11
135.4252634246
21
24.7360180531
31
0.0000000000
11
135.4488785431
21
24.8136787765
31
0.0000000000
11
135.4799271278
21
24.8851851816
31
0.0000000000
0
SPLINE
5
317
100
AcDbEntity
8
0
100
AcDbSpline
62
9
6
CONTINUOUS
70
0
71
3
72
13
73
9
74
7
42
0.0000001000
43
0.0000001000
44
0.0000000001
12
0.0092700729
22
-0.7586554332
32
0.0000000000
13
0.3615168815
23
-0.6670453844
33
0.0000000000
40
0.0000000000
40
0.0000000000
40
0.0000000000
40
0.0000000000
40
0.2183547448
40
0.4167331545
40
0.5936110290
40
0.7486552231
40
0.8836203712
40
1.0000000000
40
1.0000000000
40
1.0000000000
40
1.0000000000
10
135.3588280558
20
-22.3510645983
30
0.0000000000
10
135.3595027773
20
-22.4062832695
30
0.0000000000
10
135.3631524800
20
-22.5116573216
30
0.0000000000
10
135.3753003459
20
-22.6613493348
30
0.0000000000
10
135.3928654260
20
-22.7943644166
30
0.0000000000
10
135.4151240000
20
-22.9104369305
30
0.0000000000
10
135.4422493510
20
-23.0096324543
30
0.0000000000
10
135.4659027269
20
-23.0690272830
30
0.0000000000
10
135.4799271271
20
-23.0949041145
30
0.0000000000
11
135.3588280558
21
-22.3510645983
31
0.0000000000
11
135.3646667771
21
-22.5166300578
31
0.0000000000
11
135.3770678696
21
-22.6666304016
31
0.0000000000
11
135.3949601955
21
-22.7996316710
31
0.0000000000
11
135.4176621938
21
-22.9150541728
31
0.0000000000
11
135.4454727340
21
-23.0136050208
31
0.0000000000
11
135.4799271271
21
-23.0949041145
31
0.0000000000
0
SPLINE
5
318
100
AcDbEntity
8
0
100
AcDbSpline
62
9
6
CONTINUOUS
70
0
71
3
72
9
73
5
74
3
42
0.0000001000
43
0.0000001000
44
0.0000000001
12
0.0858648489
22
-0.1574570103
32
0.0000000000
13
0.0845760998
23
-0.1581529821
33
0.0000000000
40
0.0000000000
40
0.0000000000
40
0.0000000000
40
0.0000000000
40
0.4740975868
40
1.0000000000
40
1.0000000000
40
1.0000000000
40
1.0000000000
10
135.4799271271
20
-23.0949041145
30
0.0000000000
10
135.4934965663
20
-23.1197874440
30
0.0000000000
10
135.5220004108
20
-23.1723371488
30
0.0000000000
10
135.5504388831
20
-23.2249226829
30
0.0000000000
10
135.5652651414
20
-23.2526470279
30
0.0000000000
11
135.4799271271
21
-23.0949041145
31
0.0000000000
11
135.5205090805
21
-23.1696228738
31
0.0000000000
11
135.5652651414
21
-23.2526470279
31
0.0000000000
0
SPLINE
5
319
100
AcDbEntity
8
0
100
AcDbSpline
62
9
6
CONTINUOUS
70
0
71
3
72
10
73
6
74
4
42
0.0000001000
43
0.0000001000
44
0.0000000001
12
0.0858845444
22
0.1574479024
32
0.0000000000
13
0.0847588553
23
0.1580567410
33
0.0000000000
40
0.0000000000
40
0.0000000000
40
0.0000000000
40
0.0000000000
40
0.3301681420
40
0.6655587358
40
1.0000000000
40
1.0000000000
40
1.0000000000
40
1.0000000000
10
135.4799271278
20
24.8851851816
30
0.0000000000
10
135.4893792413
20
24.9025132754
30
0.0000000000
10
135.5083813842
20
24.9374717124
30
0.0000000000
10
135.5368162540
20
24.9900593364
30
0.0000000000
10
135.5558161885
20
25.0253094533
30
0.0000000000
10
135.5652651414
20
25.0429296854
30
0.0000000000
11
135.4799271278
21
24.8851851816
31
0.0000000000
11
135.5082133142
21
24.9372076692
31
0.0000000000
11
135.5368315532
21
24.9901155900
31
0.0000000000
11
135.5652651414
21
25.0429296854
31
0.0000000000
0
SPLINE
5
31A
100
AcDbEntity
8
0
100
AcDbSpline
62
9
6
CONTINUOUS
70
0
71
3
72
9
73
5
74
3
42
0.0000001000
43
0.0000001000
44
0.0000000001
12
-0.1897297160
22
-0.0137060488
32
0.0000000000
13
-0.1838447234
23
-0.0492524532
33
0.0000000000
40
0.0000000000
40
0.0000000000
40
0.0000000000
40
0.0000000000
40
0.5926315894
40
1.0000000000
40
1.0000000000
40
1.0000000000
40
1.0000000000
10
44.1870372869
20
26.4038274345
30
0.0000000000
10
44.1495573458
20
26.4011198886
30
0.0000000000
10
44.0865138911
20
26.3929942990
30
0.0000000000
10
44.0245978985
20
26.3789481733
30
0.0000000000
10
43.9996337209
20
26.3722602088
30
0.0000000000
11
44.1870372869
21
26.4038274345
31
0.0000000000
11
44.0752302387
21
26.3894095620
31
0.0000000000
11
43.9996337209
21
26.3722602088
31
0.0000000000
0
SPLINE
5
31B
100
AcDbEntity
8
0
100
AcDbSpline
62
9
6
CONTINUOUS
70
0
71
3
72
10
73
6
74
4
42
0.0000001000
43
0.0000001000
44
0.0000000001
12
-0.2550211612
22
-0.0683207959
32
0.0000000000
13
-0.2283980767
23
-0.1325714241
33
0.0000000000
40
0.0000000000
40
0.0000000000
40
0.0000000000
40
0.0000000000
40
0.1536439700
40
0.6520760193
40
1.0000000000
40
1.0000000000
40
1.0000000000
40
1.0000000000
10
43.9996337209
20
26.3722602088
30
0.0000000000
10
43.9865728997
20
26.3687611827
30
0.0000000000
10
43.9314420671
20
26.3527888561
30
0.0000000000
10
43.8491316920
20
26.3210555534
30
0.0000000000
10
43.7829756621
20
26.2866215863
30
0.0000000000
10
43.7564872727
20
26.2712466604
30
0.0000000000
11
43.9996337209
21
26.3722602088
31
0.0000000000
11
43.9606736957
21
26.3609722380
31
0.0000000000
11
43.8379599143
21
26.3136518150
31
0.0000000000
11
43.7564872727
21
26.2712466604
31
0.0000000000
0
SPLINE
5
31C
100
AcDbEntity
8
0
100
AcDbSpline
62
9
6
CONTINUOUS
70
0
71
3
72
12
73
8
74
6
42
0.0000001000
43
0.0000001000
44
0.0000000001
12
-0.5478332997
22
-0.3179844671
32
0.0000000000
13
-0.2513690114
23
-0.5814835699
33
0.0000000000
40
0.0000000000
40
0.0000000000
40
0.0000000000
40
0.0000000000
40
0.0740564015
40
0.3012827551
40
0.5333961074
40
0.7675130290
40
1.0000000000
40
1.0000000000
40
1.0000000000
40
1.0000000000
10
43.7564872727
20
26.2712466604
30
0.0000000000
10
43.7429637518
20
26.2633970653
30
0.0000000000
10
43.6886962575
20
26.2301693051
30
0.0000000000
10
43.5984693351
20
26.1622634774
30
0.0000000000
10
43.4952654207
20
26.0578157051
30
0.0000000000
10
43.4079962586
20
25.9383332614
30
0.0000000000
10
43.3621878161
20
25.8507931296
30
0.0000000000
10
43.3427078094
20
25.8057306783
30
0.0000000000
11
43.7564872727
21
26.2712466604
31
0.0000000000
11
43.7164850713
21
26.2467522201
31
0.0000000000
11
43.6015812066
21
26.1602654191
31
0.0000000000
11
43.4983284677
21
26.0557620024
31
0.0000000000
11
43.4109319896
21
25.9361035595
31
0.0000000000
11
43.3427078094
21
25.8057306783
31
0.0000000000
0
SPLINE
5
31D
100
AcDbEntity
8
0
100
AcDbSpline
62
9
6
CONTINUOUS
70
0
71
3
72
10
73
6
74
4
42
0.0000001000
43
0.0000001000
44
0.0000000001
12
-0.1615372422
22
-0.3736787274
32
0.0000000000
13
0.0002042924
23
-0.4067312303
33
0.0000000000
40
0.0000000000
40
0.0000000000
40
0.0000000000
40
0.0000000000
40
0.3523477403
40
0.6880226390
40
1.0000000000
40
1.0000000000
40
1.0000000000
40
1.0000000000
10
43.3427078094
20
25.8057306783
30
0.0000000000
10
43.3237353820
20
25.7618423933
30
0.0000000000
10
43.2928825816
20
25.6734655628
30
0.0000000000
10
43.2665021423
20
25.5400616988
30
0.0000000000
10
43.2609572011
20
25.4521533654
30
0.0000000000
10
43.2609784460
20
25.4098563868
30
0.0000000000
11
43.3427078094
21
25.8057306783
31
0.0000000000
11
43.2954663155
21
25.6704301225
31
0.0000000000
11
43.2689770873
21
25.5364949883
31
0.0000000000
11
43.2609784460
21
25.4098563868
31
0.0000000000
0
SPLINE
5
31E
100
AcDbEntity
8
0
100
AcDbSpline
62
9
6
CONTINUOUS
70
0
71
3
72
9
73
5
74
3
42
0.0000001000
43
0.0000001000
44
0.0000000001
12
-0.0000764429
22
-0.1525420796
32
0.0000000000
13
0.0231778185
23
-0.1508666180
33
0.0000000000
40
0.0000000000
40
0.0000000000
40
0.0000000000
40
0.0000000000
40
0.7409020748
40
1.0000000000
40
1.0000000000
40
1.0000000000
40
1.0000000000
10
43.2609784460
20
-23.6195753210
30
0.0000000000
10
43.2609595671
20
-23.6572482354
30
0.0000000000
10
43.2638151268
20
-23.7081424716
30
0.0000000000
10
43.2705438415
20
-23.7585861328
30
0.0000000000
10
43.2725456164
20
-23.7716158754
30
0.0000000000
11
43.2609784460
21
-23.6195753210
31
0.0000000000
11
43.2673170611
21
-23.7324161890
31
0.0000000000
11
43.2725456164
21
-23.7716158754
31
0.0000000000
0
SPLINE
5
31F
100
AcDbEntity
8
0
100
AcDbSpline
62
9
6
CONTINUOUS
70
0
71
3
72
8
73
4
74
2
42
0.0000001000
43
0.0000001000
44
0.0000000001
12
0.0061455777
22
-0.0400021479
32
0.0000000000
13
0.0077638596
23
-0.0397184512
33
0.0000000000
40
0.0000000000
40
0.0000000000
40
0.0000000000
40
0.0000000000
40
1.0000000000
40
1.0000000000
40
1.0000000000
40
1.0000000000
10
43.2725456164
20
-23.7716158754
30
0.0000000000
10
43.2745941423
20
-23.7849499247
30
0.0000000000
10
43.2769132567
20
-23.7982419734
30
0.0000000000
10
43.2795012099
20
-23.8114814571
30
0.0000000000
11
43.2725456164
21
-23.7716158754
31
0.0000000000
11
43.2795012099
21
-23.8114814571
31
0.0000000000
0
SPLINE
5
320
100
AcDbEntity
8
0
100
AcDbSpline
62
9
6
CONTINUOUS
70
0
71
3
72
10
73
6
74
4
42
0.0000001000
43
0.0000001000
44
0.0000000001
12
0.0414182910
22
-0.2118882182
32
0.0000000000
13
0.0860841711
23
-0.1980438378
33
0.0000000000
40
0.0000000000
40
0.0000000000
40
0.0000000000
40
0.0000000000
40
0.1915023169
40
0.7900797796
40
1.0000000000
40
1.0000000000
40
1.0000000000
40
1.0000000000
10
43.2795012099
20
-23.8114814571
30
0.0000000000
10
43.2821451095
20
-23.8250071520
30
0.0000000000
10
43.2942106470
20
-23.8805836727
30
0.0000000000
10
43.3154866781
20
-23.9495019718
30
0.0000000000
10
43.3374699086
20
-24.0034024046
30
0.0000000000
10
43.3434935114
20
-24.0172602066
30
0.0000000000
11
43.2795012099
21
-23.8114814571
31
0.0000000000
11
43.2882728065
21
-23.8518826905
31
0.0000000000
11
43.3263767024
21
-23.9752900532
31
0.0000000000
11
43.3434935114
21
-24.0172602066
31
0.0000000000
0
SPLINE
5
321
100
AcDbEntity
8
0
100
AcDbSpline
62
9
6
CONTINUOUS
70
0
71
3
72
12
73
8
74
6
42
0.0000001000
43
0.0000001000
44
0.0000000001
12
0.2513224459
22
-0.5781883134
32
0.0000000000
13
0.5449801210
23
-0.3170895409
33
0.0000000000
40
0.0000000000
40
0.0000000000
40
0.0000000000
40
0.0000000000
40
0.1480153971
40
0.3760248573
40
0.6089725339
40
0.8439352327
40
1.0000000000
40
1.0000000000
40
1.0000000000
40
1.0000000000
10
43.3434935114
20
-24.0172602066
30
0.0000000000
10
43.3558933752
20
-24.0457871309
30
0.0000000000
10
43.3907945317
20
-24.1167829858
30
0.0000000000
10
43.4607107187
20
-24.2243832632
30
0.0000000000
10
43.5576878387
20
-24.3344087905
30
0.0000000000
10
43.6582693185
20
-24.4191317073
30
0.0000000000
10
43.7272663721
20
-24.4639641404
30
0.0000000000
10
43.7556171040
20
-24.4804596422
30
0.0000000000
11
43.3434935114
21
-24.0172602066
31
0.0000000000
11
43.3846512447
21
-24.1009737543
31
0.0000000000
11
43.4629115690
21
-24.2214140058
31
0.0000000000
11
43.5599403061
21
-24.3315015333
31
0.0000000000
11
43.6731411699
21
-24.4268616677
31
0.0000000000
11
43.7556171040
21
-24.4804596422
31
0.0000000000
0
SPLINE
5
322
100
AcDbEntity
8
0
100
AcDbSpline
62
9
6
CONTINUOUS
70
0
71
3
72
11
73
7
74
5
42
0.0000001000
43
0.0000001000
44
0.0000000001
12
0.3936662882
22
-0.2290495704
32
0.0000000000
13
0.4538576741
23
-0.0327862784
33
0.0000000000
40
0.0000000000
40
0.0000000000
40
0.0000000000
40
0.0000000000
40
0.1069673695
40
0.4215988959
40
0.7213758504
40
1.0000000000
40
1.0000000000
40
1.0000000000
40
1.0000000000
10
43.7556171040
20
-24.4804596422
30
0.0000000000
10
43.7696535865
20
-24.4886265856
30
0.0000000000
10
43.8257621431
20
-24.5194651653
30
0.0000000000
10
43.9266208851
20
-24.5628601969
30
0.0000000000
10
44.0576839391
20
-24.5986422238
30
0.0000000000
10
44.1448853840
20
-24.6105013524
30
0.0000000000
10
44.1870372869
20
-24.6135463687
30
0.0000000000
11
43.7556171040
21
-24.4804596422
31
0.0000000000
11
43.7983077546
21
-24.5039226468
31
0.0000000000
11
43.9298171215
21
-24.5605172364
31
0.0000000000
11
44.0614100219
21
-24.5964500055
31
0.0000000000
11
44.1870372869
21
-24.6135463687
31
0.0000000000
0
SPLINE
5
323
100
AcDbEntity
8
0
100
AcDbSpline
62
9
6
CONTINUOUS
70
0
71
3
72
9
73
5
74
3
42
0.0000001000
43
0.0000001000
44
0.0000000001
12
0.1897297160
22
0.0137060488
32
0.0000000000
13
0.1838447234
23
0.0492524532
33
0.0000000000
40
0.0000000000
40
0.0000000000
40
0.0000000000
40
0.0000000000
40
0.5926315894
40
1.0000000000
40
1.0000000000
40
1.0000000000
40
1.0000000000
10
136.3157373005
20
-24.6135463687
30
0.0000000000
10
136.3532172415
20
-24.6108388229
30
0.0000000000
10
136.4162606963
20
-24.6027132332
30
0.0000000000
10
136.4781766889
20
-24.5886671076
30
0.0000000000
10
136.5031408665
20
-24.5819791430
30
0.0000000000
11
136.3157373005
21
-24.6135463687
31
0.0000000000
11
136.4275443486
21
-24.5991284962
31
0.0000000000
11
136.5031408665
21
-24.5819791430
31
0.0000000000
0
SPLINE
5
324
100
AcDbEntity
8
0
100
AcDbSpline
62
9
6
CONTINUOUS
70
0
71
3
72
10
73
6
74
4
42
0.0000001000
43
0.0000001000
44
0.0000000001
12
0.2550211612
22
0.0683207959
32
0.0000000000
13
0.2283980767
23
0.1325714241
33
0.0000000000
40
0.0000000000
40
0.0000000000
40
0.0000000000
40
0.0000000000
40
0.1536439700
40
0.6520760193
40
1.0000000000
40
1.0000000000
40
1.0000000000
40
1.0000000000
10
136.5031408665
20
-24.5819791430
30
0.0000000000
10
136.5162016877
20
-24.5784801169
30
0.0000000000
10
136.5713325203
20
-24.5625077904
30
0.0000000000
10
136.6536428954
20
-24.5307744876
30
0.0000000000
10
136.7197989253
20
-24.4963405205
30
0.0000000000
10
136.7462873147
20
-24.4809655946
30
0.0000000000
11
136.5031408665
21
-24.5819791430
31
0.0000000000
11
136.5421008917
21
-24.5706911722
31
0.0000000000
11
136.6648146731
21
-24.5233707492
31
0.0000000000
11
136.7462873147
21
-24.4809655946
31
0.0000000000
0
SPLINE
5
325
100
AcDbEntity
8
0
100
AcDbSpline
62
9
6
CONTINUOUS
70
0
71
3
72
12
73
8
74
6
42
0.0000001000
43
0.0000001000
44
0.0000000001
12
0.5478332997
22
0.3179844671
32
0.0000000000
13
0.2513690114
23
0.5814835699
33
0.0000000000
40
0.0000000000
40
0.0000000000
40
0.0000000000
40
0.0000000000
40
0.0740564015
40
0.3012827551
40
0.5333961074
40
0.7675130290
40
1.0000000000
40
1.0000000000
40
1.0000000000
40
1.0000000000
10
136.7462873147
20
-24.4809655946
30
0.0000000000
10
136.7598108356
20
-24.4731159995
30
0.0000000000
10
136.8140783299
20
-24.4398882393
30
0.0000000000
10
136.9043052523
20
-24.3719824116
30
0.0000000000
10
137.0075091667
20
-24.2675346393
30
0.0000000000
10
137.0947783288
20
-24.1480521956
30
0.0000000000
10
137.1405867712
20
-24.0605120638
30
0.0000000000
10
137.1600667779
20
-24.0154496125
30
0.0000000000
11
136.7462873147
21
-24.4809655946
31
0.0000000000
11
136.7862895161
21
-24.4564711543
31
0.0000000000
11
136.9011933808
21
-24.3699843534
31
0.0000000000
11
137.0044461197
21
-24.2654809366
31
0.0000000000
11
137.0918425978
21
-24.1458224937
31
0.0000000000
11
137.1600667779
21
-24.0154496125
31
0.0000000000
0
SPLINE
5
326
100
AcDbEntity
8
0
100
AcDbSpline
62
9
6
CONTINUOUS
70
0
71
3
72
10
73
6
74
4
42
0.0000001000
43
0.0000001000
44
0.0000000001
12
0.1615372422
22
0.3736787274
32
0.0000000000
13
-0.0002042924
23
0.4067312303
33
0.0000000000
40
0.0000000000
40
0.0000000000
40
0.0000000000
40
0.0000000000
40
0.3523477403
40
0.6880226390
40
1.0000000000
40
1.0000000000
40
1.0000000000
40
1.0000000000
10
137.1600667779
20
-24.0154496125
30
0.0000000000
10
137.1790392054
20
-23.9715613275
30
0.0000000000
10
137.2098920058
20
-23.8831844970
30
0.0000000000
10
137.2362724450
20
-23.7497806330
30
0.0000000000
10
137.2418173863
20
-23.6618722996
30
0.0000000000
10
137.2417961414
20
-23.6195753210
30
0.0000000000
11
137.1600667779
21
-24.0154496125
31
0.0000000000
11
137.2073082719
21
-23.8801490567
31
0.0000000000
11
137.2337975001
21
-23.7462139225
31
0.0000000000
11
137.2417961414
21
-23.6195753210
31
0.0000000000
0
SPLINE
5
327
100
AcDbEntity
8
0
100
AcDbSpline
62
9
6
CONTINUOUS
70
0
71
3
72
9
73
5
74
3
42
0.0000001000
43
0.0000001000
44
0.0000000001
12
0.0000822181
22
0.1639775793
32
0.0000000000
13
-0.0267806305
23
0.1618955778
33
0.0000000000
40
0.0000000000
40
0.0000000000
40
0.0000000000
40
0.0000000000
40
0.7401810162
40
1.0000000000
40
1.0000000000
40
1.0000000000
40
1.0000000000
10
137.2417961414
20
25.4098563868
30
0.0000000000
10
137.2418164268
20
25.4503140839
30
0.0000000000
10
137.2385167973
20
25.5050311638
30
0.0000000000
10
137.2307436980
20
25.5591891208
30
0.0000000000
10
137.2284243260
20
25.5732103023
30
0.0000000000
11
137.2417961414
21
25.4098563868
31
0.0000000000
11
137.2344809099
21
25.5310088460
31
0.0000000000
11
137.2284243260
21
25.5732103023
31
0.0000000000
0
SPLINE
5
328
100
AcDbEntity
8
0
100
AcDbSpline
62
9
6
CONTINUOUS
70
0
71
3
72
9
73
5
74
3
42
0.0000001000
43
0.0000001000
44
0.0000000001
12
-0.0369302214
22
0.2232523816
32
0.0000000000
13
-0.0863074014
23
0.2092116687
33
0.0000000000
40
0.0000000000
40
0.0000000000
40
0.0000000000
40
0.0000000000
40
0.3896366073
40
1.0000000000
40
1.0000000000
40
1.0000000000
40
1.0000000000
10
137.2284243260
20
25.5732103023
30
0.0000000000
10
137.2236278706
20
25.6022060691
30
0.0000000000
10
137.2080275143
20
25.6760738144
30
0.0000000000
10
137.1841115451
20
25.7478118724
30
0.0000000000
10
137.1665519190
20
25.7903769204
30
0.0000000000
11
137.2284243260
21
25.5732103023
31
0.0000000000
11
137.2102084820
21
25.6594459024
31
0.0000000000
11
137.1665519190
21
25.7903769204
31
0.0000000000
0
SPLINE
5
329
100
AcDbEntity
8
0
100
AcDbSpline
62
9
6
CONTINUOUS
70
0
71
3
72
12
73
8
74
6
42
0.0000001000
43
0.0000001000
44
0.0000000001
12
-0.2595404846
22
0.6291337360
32
0.0000000000
13
-0.5987409469
23
0.3235497060
33
0.0000000000
40
0.0000000000
40
0.0000000000
40
0.0000000000
40
0.0000000000
40
0.2105877300
40
0.4258040685
40
0.6429870651
40
0.8588150168
40
1.0000000000
40
1.0000000000
40
1.0000000000
40
1.0000000000
10
137.1665519190
20
25.7903769204
30
0.0000000000
10
137.1483332385
20
25.8345395355
30
0.0000000000
10
137.1050479076
20
25.9211772848
30
0.0000000000
10
137.0213558101
20
26.0411393746
30
0.0000000000
10
136.9200582474
20
26.1483161269
30
0.0000000000
10
136.8173061358
20
26.2289666556
30
0.0000000000
10
136.7479052692
20
26.2708995835
30
0.0000000000
10
136.7197275257
20
26.2861263701
30
0.0000000000
11
137.1665519190
21
25.7903769204
31
0.0000000000
11
137.1025495631
21
25.9184755321
31
0.0000000000
11
137.0188152242
21
26.0384981359
31
0.0000000000
11
136.9173758278
21
26.1458299534
31
0.0000000000
11
136.8019337890
21
26.2364494918
31
0.0000000000
11
136.7197275257
21
26.2861263701
31
0.0000000000
0
SPLINE
5
32A
100
AcDbEntity
8
0
100
AcDbSpline
62
9
6
CONTINUOUS
70
0
71
3
72
11
73
7
74
5
42
0.0000001000
43
0.0000001000
44
0.0000000001
12
-0.3730344991
22
0.2015816742
32
0.0000000000
13
-0.4225542374
23
0.0305256692
33
0.0000000000
40
0.0000000000
40
0.0000000000
40
0.0000000000
40
0.0000000000
40
0.1111258962
40
0.4336024237
40
0.7239688933
40
1.0000000000
40
1.0000000000
40
1.0000000000
40
1.0000000000
10
136.7197275257
20
26.2861263701
30
0.0000000000
10
136.7059095947
20
26.2935933515
30
0.0000000000
10
136.6513061957
20
26.3214563466
30
0.0000000000
10
136.5560496350
20
26.3594732905
30
0.0000000000
10
136.4341356475
20
26.3906003982
30
0.0000000000
10
136.3546166718
20
26.4010187564
30
0.0000000000
10
136.3157373005
20
26.4038274345
30
0.0000000000
11
136.7197275257
21
26.2861263701
31
0.0000000000
11
136.6777607123
21
26.3075405326
31
0.0000000000
11
136.5508778835
21
26.3581910795
31
0.0000000000
11
136.4316873595
21
26.3886277152
31
0.0000000000
11
136.3157373005
21
26.4038274345
31
0.0000000000
0
SPLINE
5
32B
100
AcDbEntity
8
0
100
AcDbSpline
62
9
6
CONTINUOUS
70
0
71
3
72
15
73
11
74
9
42
0.0000001000
43
0.0000001000
44
0.0000000001
12
0.0195594289
22
0.7994627137
32
0.0000000000
13
0.5834054333
23
0.5469563989
33
0.0000000000
40
0.0000000000
40
0.0000000000
40
0.0000000000
40
0.0000000000
40
0.1484233504
40
0.2893982785
40
0.4191154558
40
0.5393846948
40
0.6544852718
40
0.7679355279
40
0.8815175878
40
1.0000000000
40
1.0000000000
40
1.0000000000
40
1.0000000000
10
135.1591021489
20
24.2258693164
30
0.0000000000
10
135.1600698409
20
24.2654222946
30
0.0000000000
10
135.1644426483
20
24.3425073748
30
0.0000000000
10
135.1780526774
20
24.4534775736
30
0.0000000000
10
135.1976218649
20
24.5559182162
30
0.0000000000
10
135.2223837348
20
24.6501294977
30
0.0000000000
10
135.2530191934
20
24.7380108560
30
0.0000000000
10
135.2902013919
20
24.8214857451
30
0.0000000000
10
135.3381170857
20
24.9004151813
30
0.0000000000
10
135.3782592133
20
24.9481072799
30
0.0000000000
10
135.4013003077
20
24.9697088511
30
0.0000000000
11
135.1591021489
21
24.2258693164
31
0.0000000000
11
135.1658769122
21
24.3443702580
31
0.0000000000
11
135.1797090167
21
24.4562564165
31
0.0000000000
11
135.1992909053
21
24.5581265116
31
0.0000000000
11
135.2239634856
21
24.6510876247
31
0.0000000000
11
135.2543728201
21
24.7379655108
31
0.0000000000
11
135.2918879196
21
24.8205723825
31
0.0000000000
11
135.3393442623
21
24.8980211422
31
0.0000000000
11
135.4013003077
21
24.9697088511
31
0.0000000000
0
SPLINE
5
32C
100
AcDbEntity
8
0
100
AcDbSpline
62
9
6
CONTINUOUS
70
0
71
3
72
13
73
9
74
7
42
0.0000001000
43
0.0000001000
44
0.0000000001
12
-0.0195288002
22
0.7992423348
32
0.0000000000
13
-0.5799764249
23
0.5502699613
33
0.0000000000
40
0.0000000000
40
0.0000000000
40
0.0000000000
40
0.0000000000
40
0.2075782116
40
0.3977034005
40
0.5699145466
40
0.7249881059
40
0.8664492520
40
1.0000000000
40
1.0000000000
40
1.0000000000
40
1.0000000000
10
45.3436724385
20
24.2258693164
30
0.0000000000
10
45.3423211874
20
24.2811710812
30
0.0000000000
10
45.3349484538
20
24.3870738325
30
0.0000000000
10
45.3105759359
20
24.5372128037
30
0.0000000000
10
45.2750173697
20
24.6706622502
30
0.0000000000
10
45.2302904869
20
24.7876422120
30
0.0000000000
10
45.1743214885
20
24.8881505143
30
0.0000000000
10
45.1272955954
20
24.9452094853
30
0.0000000000
10
45.1014768336
20
24.9697058070
30
0.0000000000
11
45.3436724385
21
24.2258693164
31
0.0000000000
11
45.3320000649
21
24.3914131334
31
0.0000000000
11
45.3072201070
21
24.5413811158
31
0.0000000000
11
45.2714207427
21
24.6743249218
31
0.0000000000
11
45.2261762499
21
24.7897526750
31
0.0000000000
11
45.1703188007
21
24.8880915455
31
0.0000000000
11
45.1014768336
21
24.9697058070
31
0.0000000000
0
SPLINE
5
32D
100
AcDbEntity
8
0
100
AcDbSpline
62
9
6
CONTINUOUS
70
0
71
3
72
25
73
21
74
19
42
0.0000001000
43
0.0000001000
44
0.0000000001
12
90.1451015087
22
6.4678540889
32
0.0000000000
13
90.1451015964
23
-6.4678528661
33
0.0000000000
40
0.0000000000
40
0.0000000000
40
0.0000000000
40
0.0000000000
40
0.1047099137
40
0.2000650484
40
0.2869107849
40
0.3660987502
40
0.4384835768
40
0.5049217435
40
0.5661212550
40
0.6223281290
40
0.6736991067
40
0.7203903053
40
0.7625611188
40
0.8007187054
40
0.8359149522
40
0.8692533028
40
0.9018225509
40
0.9346168706
40
0.9680752483
40
1.0000000000
40
1.0000000000
40
1.0000000000
40
1.0000000000
10
45.1014768336
20
24.9697058070
30
0.0000000000
10
48.2478387669
20
25.1954552881
30
0.0000000000
10
54.2627911897
20
25.5818777879
30
0.0000000000
10
62.8956658862
20
26.0126256982
30
0.0000000000
10
70.7650392722
20
26.3023759471
30
0.0000000000
10
77.9454707458
20
26.4811836070
30
0.0000000000
10
84.5126564025
20
26.5733014462
30
0.0000000000
10
90.5384982699
20
26.5977884710
30
0.0000000000
10
96.0769271160
20
26.5695356173
30
0.0000000000
10
101.1610384447
20
26.5007633671
30
0.0000000000
10
105.8074814896
20
26.4020459081
30
0.0000000000
10
110.0304290965
20
26.2826118330
30
0.0000000000
10
113.8546991896
20
26.1500637292
30
0.0000000000
10
117.3321267317
20
26.0094830065
30
0.0000000000
10
120.5429579230
20
25.8627795043
30
0.0000000000
10
123.5848919623
20
25.7088384028
30
0.0000000000
10
126.5538167783
20
25.5445588553
30
0.0000000000
10
129.5255514414
20
25.3661948313
30
0.0000000000
10
132.4770333787
20
25.1750243096
30
0.0000000000
10
134.4420136466
20
25.0385370499
30
0.0000000000
10
135.4013003077
20
24.9697088511
30
0.0000000000
11
45.1014768336
21
24.9697058070
31
0.0000000000
11
54.5453617071
21
25.5763726752
31
0.0000000000
11
63.1525514226
21
26.0057973357
31
0.0000000000
11
70.9960799721
21
26.2945782130
31
0.0000000000
11
78.1506197913
21
26.4727393863
31
0.0000000000
11
84.6918879939
21
26.5644869158
31
0.0000000000
11
90.6963097244
21
26.5888815903
31
0.0000000000
11
96.2272559936
21
26.5606720390
31
0.0000000000
11
101.3065907767
21
26.4919671151
31
0.0000000000
11
105.9482897509
21
26.3933520646
31
0.0000000000
11
110.1664059145
21
26.2740554104
31
0.0000000000
11
113.9753834513
21
26.1420377359
31
0.0000000000
11
117.4211309414
21
26.0027407189
31
0.0000000000
11
120.5987414070
21
25.8575571960
31
0.0000000000
11
123.6079053634
21
25.7052761442
31
0.0000000000
11
126.5469152290
21
25.5426533171
31
0.0000000000
11
129.5054380225
21
25.3650836117
31
0.0000000000
11
132.5229773248
21
25.1696357836
31
0.0000000000
11
135.4013003077
21
24.9697088511
31
0.0000000000
0
SPLINE
5
32E
100
AcDbEntity
8
0
100
AcDbSpline
62
9
6
CONTINUOUS
70
0
71
3
72
15
73
11
74
9
42
0.0000001000
43
0.0000001000
44
0.0000000001
12
91.9638012332
22
-6.7224862299
32
0.0000000000
13
91.9638012622
23
6.7224858328
33
0.0000000000
40
0.0000000000
40
0.0000000000
40
0.0000000000
40
0.0000000000
40
0.1069628329
40
0.2240032750
40
0.3545163755
40
0.4980271163
40
0.6433989755
40
0.7759748467
40
0.8936748149
40
1.0000000000
40
1.0000000000
40
1.0000000000
40
1.0000000000
10
44.1870372869
20
-24.6135463687
30
0.0000000000
10
47.4659401886
20
-24.8532317591
30
0.0000000000
10
54.3367034093
20
-25.3016138254
30
0.0000000000
10
65.2207842177
20
-25.8333633370
30
0.0000000000
10
77.2357375033
20
-26.2029897228
30
0.0000000000
10
90.1266498592
20
-26.3417156429
30
0.0000000000
10
103.0810542328
20
-26.2080079736
30
0.0000000000
10
115.2369080580
20
-25.8359168147
30
0.0000000000
10
126.1849723822
20
-25.3005481794
30
0.0000000000
10
133.0563812359
20
-24.8518028856
30
0.0000000000
10
136.3157373005
20
-24.6135463687
30
0.0000000000
11
44.1870372869
21
-24.6135463687
31
0.0000000000
11
54.0290579731
21
-25.2558148024
31
0.0000000000
11
64.8084036015
21
-25.7824580805
31
0.0000000000
11
76.8372185248
21
-26.1525124175
31
0.0000000000
11
90.0694599391
21
-26.2949002795
31
0.0000000000
11
103.4733657841
21
-26.1565643521
31
0.0000000000
11
115.6923547877
21
-25.7825393266
31
0.0000000000
11
126.5324185146
21
-25.2524412325
31
0.0000000000
11
136.3157373005
21
-24.6135463687
31
0.0000000000
0
SPLINE
5
32F
100
AcDbEntity
8
0
100
AcDbSpline
62
9
6
CONTINUOUS
70
0
71
3
72
15
73
11
74
9
42
0.0000001000
43
0.0000001000
44
0.0000000001
12
-91.9638012415
22
6.7224862289
32
0.0000000000
13
-91.9638012703
23
-6.7224858348
33
0.0000000000
40
0.0000000000
40
0.0000000000
40
0.0000000000
40
0.0000000000
40
0.1069816551
40
0.2240422884
40
0.3545800281
40
0.4981083330
40
0.6434622937
40
0.7760120032
40
0.8936927239
40
1.0000000000
40
1.0000000000
40
1.0000000000
40
1.0000000000
10
136.3157373005
20
26.4038274345
30
0.0000000000
10
133.0362574126
20
26.6435550021
30
0.0000000000
10
126.1642968171
20
27.0920057316
30
0.0000000000
10
115.2782593761
20
27.6238047692
30
0.0000000000
10
103.2613860514
20
27.9934001335
30
0.0000000000
10
90.3697249120
20
28.1319978072
30
0.0000000000
10
77.4161366317
20
27.9981619182
30
0.0000000000
10
65.2622309005
20
27.6260412198
30
0.0000000000
10
54.3161128348
20
27.0907236553
30
0.0000000000
10
47.4458443593
20
26.6420438205
30
0.0000000000
10
44.1870372869
20
26.4038274345
30
0.0000000000
11
136.3157373005
21
26.4038274345
31
0.0000000000
11
126.4719838387
21
27.0461953667
31
0.0000000000
11
115.6907763846
21
27.5728839926
31
0.0000000000
11
103.6596877982
21
27.9429180693
31
0.0000000000
11
90.4258254117
21
28.0851834575
31
0.0000000000
11
77.0235713331
21
27.9467232083
31
0.0000000000
11
64.8069962913
21
27.5726824323
31
0.0000000000
11
53.9687073769
21
27.0426274694
31
0.0000000000
11
44.1870372869
21
26.4038274345
31
0.0000000000
0
SPLINE
5
330
100
AcDbEntity
8
0
100
AcDbSpline
62
9
6
CONTINUOUS
70
0
71
3
72
11
73
7
74
5
42
0.0000001000
43
0.0000001000
44
0.0000000001
12
0.2861133199
22
0.2871088992
32
0.0000000000
13
0.0099302814
23
0.4052082691
33
0.0000000000
40
0.0000000000
40
0.0000000000
40
0.0000000000
40
0.0000000000
40
0.0778464404
40
0.2817493154
40
0.6089282372
40
1.0000000000
40
1.0000000000
40
1.0000000000
40
1.0000000000
10
135.3158109650
20
23.2598382973
30
0.0000000000
10
135.3232352662
20
23.2672884325
30
0.0000000000
10
135.3254716144
20
23.3094274714
30
0.0000000000
10
135.3374980593
20
23.3872575070
30
0.0000000000
10
135.3420792573
20
23.5138608875
30
0.0000000000
10
135.3458448178
20
23.6102243510
30
0.0000000000
10
135.3471393021
20
23.6630461884
30
0.0000000000
11
135.3158109650
21
23.2598382973
31
0.0000000000
11
135.3247251366
21
23.2901064392
31
0.0000000000
11
135.3339060883
21
23.3722428609
31
0.0000000000
11
135.3418027897
21
23.5046229535
31
0.0000000000
11
135.3471393021
21
23.6630461884
31
0.0000000000
0
SPLINE
5
331
100
AcDbEntity
8
0
100
AcDbSpline
62
9
6
CONTINUOUS
70
0
71
3
72
10
73
6
74
4
42
0.0000001000
43
0.0000001000
44
0.0000000001
12
0.2870185322
22
-0.2859741560
32
0.0000000000
13
0.0098899628
23
-0.4050469656
33
0.0000000000
40
0.0000000000
40
0.0000000000
40
0.0000000000
40
0.0000000000
40
0.1474759370
40
0.5077106983
40
1.0000000000
40
1.0000000000
40
1.0000000000
40
1.0000000000
10
135.3158109650
20
-21.4695572315
30
0.0000000000
10
135.3299204073
20
-21.4836153337
30
0.0000000000
10
135.3256867334
20
-21.5619165265
30
0.0000000000
10
135.3454025822
20
-21.6882973584
30
0.0000000000
10
135.3455163944
20
-21.8062983600
30
0.0000000000
10
135.3471393021
20
-21.8727651226
30
0.0000000000
11
135.3158109650
21
-21.4695572315
31
0.0000000000
11
135.3286626708
21
-21.5279112636
31
0.0000000000
11
135.3398182387
21
-21.6734398073
31
0.0000000000
11
135.3471393021
21
-21.8727651226
31
0.0000000000
0
SPLINE
5
332
100
AcDbEntity
8
0
100
AcDbSpline
62
9
6
CONTINUOUS
70
0
71
3
72
11
73
7
74
5
42
0.0000001000
43
0.0000001000
44
0.0000000001
12
-0.2861133199
22
-0.2871088992
32
0.0000000000
13
-0.0099302814
23
-0.4052082691
33
0.0000000000
40
0.0000000000
40
0.0000000000
40
0.0000000000
40
0.0000000000
40
0.0778464404
40
0.2817493154
40
0.6089282372
40
1.0000000000
40
1.0000000000
40
1.0000000000
40
1.0000000000
10
45.1869636224
20
-21.4695572315
30
0.0000000000
10
45.1795393212
20
-21.4770073667
30
0.0000000000
10
45.1773029730
20
-21.5191464056
30
0.0000000000
10
45.1652765281
20
-21.5969764412
30
0.0000000000
10
45.1606953301
20
-21.7235798217
30
0.0000000000
10
45.1569297695
20
-21.8199432852
30
0.0000000000
10
45.1556352853
20
-21.8727651226
30
0.0000000000
11
45.1869636224
21
-21.4695572315
31
0.0000000000
11
45.1780494508
21
-21.4998253734
31
0.0000000000
11
45.1688684991
21
-21.5819617951
31
0.0000000000
11
45.1609717977
21
-21.7143418877
31
0.0000000000
11
45.1556352853
21
-21.8727651226
31
0.0000000000
0
SPLINE
5
333
100
AcDbEntity
8
0
100
AcDbSpline
62
9
6
CONTINUOUS
70
0
71
3
72
10
73
6
74
4
42
0.0000001000
43
0.0000001000
44
0.0000000001
12
-0.2870185322
22
0.2859741560
32
0.0000000000
13
-0.0098899628
23
0.4050469656
33
0.0000000000
40
0.0000000000
40
0.0000000000
40
0.0000000000
40
0.0000000000
40
0.1474759370
40
0.5077106983
40
1.0000000000
40
1.0000000000
40
1.0000000000
40
1.0000000000
10
45.1869636224
20
23.2598382973
30
0.0000000000
10
45.1728541801
20
23.2738963995
30
0.0000000000
10
45.1770878540
20
23.3521975923
30
0.0000000000
10
45.1573720052
20
23.4785784242
30
0.0000000000
10
45.1572581930
20
23.5965794257
30
0.0000000000
10
45.1556352853
20
23.6630461884
30
0.0000000000
11
45.1869636224
21
23.2598382973
31
0.0000000000
11
45.1741119166
21
23.3181923294
31
0.0000000000
11
45.1629563487
21
23.4637208731
31
0.0000000000
11
45.1556352853
21
23.6630461884
31
0.0000000000
0
SPLINE
5
334
100
AcDbEntity
8
0
100
AcDbSpline
62
9
6
CONTINUOUS
70
0
71
3
72
16
73
12
74
10
42
0.0000001000
43
0.0000001000
44
0.0000000001
12
-0.0195557190
22
-0.7995427419
32
0.0000000000
13
-0.5912251164
23
-0.5386129261
33
0.0000000000
40
0.0000000000
40
0.0000000000
40
0.0000000000
40
0.0000000000
40
0.1292160306
40
0.2459025946
40
0.3547079144
40
0.4595832580
40
0.5633484476
40
0.6687152279
40
0.7773241454
40
0.8875515562
40
1.0000000000
40
1.0000000000
40
1.0000000000
40
1.0000000000
10
45.3436724385
20
-22.4355882506
30
0.0000000000
10
45.3428301344
20
-22.4700261638
30
0.0000000000
10
45.3393876564
20
-22.5355345565
30
0.0000000000
10
45.3292110033
20
-22.6295912652
30
0.0000000000
10
45.3150413017
20
-22.7165622319
30
0.0000000000
10
45.2968014108
20
-22.7992478212
30
0.0000000000
10
45.2738694821
20
-22.8798224996
30
0.0000000000
10
45.2449135309
20
-22.9595021812
30
0.0000000000
10
45.2086546171
20
-23.0381451890
30
0.0000000000
10
45.1622453804
20
-23.1134925099
30
0.0000000000
10
45.1236324400
20
-23.1592420338
30
0.0000000000
10
45.1014716585
20
-23.1794307622
30
0.0000000000
11
45.3436724385
21
-22.4355882506
31
0.0000000000
11
45.3382147415
21
-22.5387886750
31
0.0000000000
11
45.3281274259
21
-22.6315657043
31
0.0000000000
11
45.3140656548
21
-22.7174425793
31
0.0000000000
11
45.2959167378
21
-22.7993329608
31
0.0000000000
11
45.2730545224
21
-22.8791112719
31
0.0000000000
11
45.2441344785
21
-22.9582638968
31
0.0000000000
11
45.2073129538
21
-23.0369368455
31
0.0000000000
11
45.1607386898
21
-23.1117876997
31
0.0000000000
11
45.1014716585
21
-23.1794307622
31
0.0000000000
0
SPLINE
5
335
100
AcDbEntity
8
0
100
AcDbSpline
62
9
6
CONTINUOUS
70
0
71
3
72
13
73
9
74
7
42
0.0000001000
43
0.0000001000
44
0.0000000001
12
0.0195220452
22
-0.7992458642
32
0.0000000000
13
0.5737440206
23
-0.5567700248
33
0.0000000000
40
0.0000000000
40
0.0000000000
40
0.0000000000
40
0.0000000000
40
0.2075750493
40
0.3977186950
40
0.5699707793
40
0.7250860074
40
0.8666048489
40
1.0000000000
40
1.0000000000
40
1.0000000000
40
1.0000000000
10
135.1591021489
20
-22.4355882506
30
0.0000000000
10
135.1604529121
20
-22.4908894172
30
0.0000000000
10
135.1678259913
20
-22.5967977632
30
0.0000000000
10
135.1922032462
20
-22.7469477249
30
0.0000000000
10
135.2277626884
20
-22.8804376580
30
0.0000000000
10
135.2725477164
20
-22.9974020964
30
0.0000000000
10
135.3283720134
20
-23.0980608818
30
0.0000000000
10
135.3757887500
20
-23.1546709778
30
0.0000000000
10
135.4013003067
20
-23.1794277850
30
0.0000000000
11
135.1591021489
21
-22.4355882506
31
0.0000000000
11
135.1707742277
21
-22.6011302539
31
0.0000000000
11
135.1955566869
21
-22.7511134270
31
0.0000000000
11
135.2313693183
21
-22.8840881555
31
0.0000000000
11
135.2766286357
21
-22.9995464394
31
0.0000000000
11
135.3325346291
21
-23.0979113274
31
0.0000000000
11
135.4013003067
21
-23.1794277850
31
0.0000000000
0
SPLINE
5
336
100
AcDbEntity
8
0
100
AcDbSpline
62
9
6
CONTINUOUS
70
0
71
3
72
11
73
7
74
5
42
0.0000001000
43
0.0000001000
44
0.0000000001
12
-90.1406618272
22
-6.4675342729
32
0.0000000000
13
-90.1406617333
23
6.4675355809
33
0.0000000000
40
0.0000000000
40
0.0000000000
40
0.0000000000
40
0.0000000000
40
0.2501445225
40
0.4999521617
40
0.7497661859
40
1.0000000000
40
1.0000000000
40
1.0000000000
40
1.0000000000
10
135.4013003067
20
-23.1794277850
30
0.0000000000
10
127.8852360379
20
-23.7187005423
30
0.0000000000
10
112.8426057697
20
-24.5284869703
30
0.0000000000
10
90.2555184993
20
-24.9337284252
30
0.0000000000
10
67.6657362919
20
-24.5287372015
30
0.0000000000
10
52.6202188558
20
-23.7188961277
30
0.0000000000
10
45.1014716585
20
-23.1794307622
30
0.0000000000
11
135.4013003067
21
-23.1794277850
31
0.0000000000
11
112.8277926329
21
-24.3939590135
31
0.0000000000
11
90.2557100195
21
-24.7987577785
31
0.0000000000
11
67.6830451073
21
-24.3942481370
31
0.0000000000
11
45.1014716585
21
-23.1794307622
31
0.0000000000
0
SPLINE
5
337
100
AcDbEntity
8
0
100
AcDbSpline
62
9
6
CONTINUOUS
70
0
71
3
72
10
73
6
74
4
42
0.0000001000
43
0.0000001000
44
0.0000000001
12
-0.0031119112
22
0.1039248389
32
0.0000000000
13
0.0289892751
23
0.0981381411
33
0.0000000000
40
0.0000000000
40
0.0000000000
40
0.0000000000
40
0.0000000000
40
0.0682978945
40
0.7582382279
40
1.0000000000
40
1.0000000000
40
1.0000000000
40
1.0000000000
10
136.3177951722
20
-24.7232424069
30
0.0000000000
10
136.3177243265
20
-24.7208764576
30
0.0000000000
10
136.3170860629
20
-24.6946535839
30
0.0000000000
10
136.3186550679
20
-24.6607920863
30
0.0000000000
10
136.3115947117
20
-24.6258101664
30
0.0000000000
10
136.3139308778
20
-24.6179014827
30
0.0000000000
11
136.3177951722
21
-24.7232424069
31
0.0000000000
11
136.3176241748
21
-24.7161568800
31
0.0000000000
11
136.3146849940
21
-24.6437335054
31
0.0000000000
11
136.3139308778
21
-24.6179014827
31
0.0000000000
0
SPLINE
5
338
100
AcDbEntity
8
0
100
AcDbSpline
62
9
6
CONTINUOUS
70
0
71
3
72
10
73
6
74
4
42
0.0000001000
43
0.0000001000
44
0.0000000001
12
0.0031119014
22
0.1039247680
32
0.0000000000
13
-0.0289892798
23
0.0981380654
33
0.0000000000
40
0.0000000000
40
0.0000000000
40
0.0000000000
40
0.0000000000
40
0.0682976856
40
0.7582381903
40
1.0000000000
40
1.0000000000
40
1.0000000000
40
1.0000000000
10
44.1849794146
20
-24.7232424068
30
0.0000000000
10
44.1850502598
20
-24.7208764664
30
0.0000000000
10
44.1856885214
20
-24.6946536118
30
0.0000000000
10
44.1841195145
20
-24.6607921382
30
0.0000000000
10
44.1911798714
20
-24.6258102298
30
0.0000000000
10
44.1888437045
20
-24.6179015510
30
0.0000000000
11
44.1849794146
21
-24.7232424068
31
0.0000000000
11
44.1851504109
21
-24.7161569064
31
0.0000000000
11
44.1880895891
21
-24.6437335614
31
0.0000000000
11
44.1888437045
21
-24.6179015510
31
0.0000000000
0
SPLINE
5
339
100
AcDbEntity
8
0
100
AcDbSpline
62
9
6
CONTINUOUS
70
0
71
3
72
10
73
6
74
4
42
0.0000001000
43
0.0000001000
44
0.0000000001
12
0.0031119112
22
-0.1039248389
32
0.0000000000
13
-0.0289892751
23
-0.0981381411
33
0.0000000000
40
0.0000000000
40
0.0000000000
40
0.0000000000
40
0.0000000000
40
0.0682978945
40
0.7582382279
40
1.0000000000
40
1.0000000000
40
1.0000000000
40
1.0000000000
10
44.1849794152
20
26.5135234727
30
0.0000000000
10
44.1850502609
20
26.5111575234
30
0.0000000000
10
44.1856885245
20
26.4849346497
30
0.0000000000
10
44.1841195195
20
26.4510731521
30
0.0000000000
10
44.1911798757
20
26.4160912322
30
0.0000000000
10
44.1888437095
20
26.4081825485
30
0.0000000000
11
44.1849794152
21
26.5135234727
31
0.0000000000
11
44.1851504125
21
26.5064379458
31
0.0000000000
11
44.1880895934
21
26.4340145712
31
0.0000000000
11
44.1888437095
21
26.4081825485
31
0.0000000000
0
SPLINE
5
33A
100
AcDbEntity
8
0
100
AcDbSpline
62
9
6
CONTINUOUS
70
0
71
3
72
10
73
6
74
4
42
0.0000001000
43
0.0000001000
44
0.0000000001
12
-0.0031119014
22
-0.1039247680
32
0.0000000000
13
0.0289892798
23
-0.0981380654
33
0.0000000000
40
0.0000000000
40
0.0000000000
40
0.0000000000
40
0.0000000000
40
0.0682976856
40
0.7582381903
40
1.0000000000
40
1.0000000000
40
1.0000000000
40
1.0000000000
10
136.3177951728
20
26.5135234726
30
0.0000000000
10
136.3177243276
20
26.5111575322
30
0.0000000000
10
136.3170860660
20
26.4849346776
30
0.0000000000
10
136.3186550729
20
26.4510732040
30
0.0000000000
10
136.3115947159
20
26.4160912955
30
0.0000000000
10
136.3139308829
20
26.4081826168
30
0.0000000000
11
136.3177951728
21
26.5135234726
31
0.0000000000
11
136.3176241765
21
26.5064379722
31
0.0000000000
11
136.3146849983
21
26.4340146272
31
0.0000000000
11
136.3139308829
21
26.4081826168
31
0.0000000000
0
SPLINE
5
33B
100
AcDbEntity
8
0
100
AcDbSpline
62
9
6
CONTINUOUS
70
0
71
3
72
10
73
6
74
4
42
0.0000001000
43
0.0000001000
44
0.0000000001
12
0.0479588665
22
-0.0874325083
32
0.0000000000
13
-0.0072482932
23
-0.0994583260
33
0.0000000000
40
0.0000000000
40
0.0000000000
40
0.0000000000
40
0.0000000000
40
0.1514427782
40
0.5148686525
40
1.0000000000
40
1.0000000000
40
1.0000000000
40
1.0000000000
10
136.2201714267
20
26.3152880478
30
0.0000000000
10
136.2225924347
20
26.3108743738
30
0.0000000000
10
136.2186758811
20
26.2924443758
30
0.0000000000
10
136.2201596631
20
26.2602958041
30
0.0000000000
10
136.2173031910
20
26.2317871974
30
0.0000000000
10
136.2161310663
20
26.2157037468
30
0.0000000000
11
136.2201714267
21
26.3152880478
31
0.0000000000
11
136.2206933610
21
26.3001948783
31
0.0000000000
11
136.2192241658
21
26.2639830805
31
0.0000000000
11
136.2161310663
21
26.2157037468
31
0.0000000000
0
SPLINE
5
33C
100
AcDbEntity
8
0
100
AcDbSpline
62
9
6
CONTINUOUS
70
0
71
3
72
14
73
10
74
8
42
0.0000001000
43
0.0000001000
44
0.0000000001
12
1.3390656555
22
-0.0976827236
32
0.0000000000
13
-0.0000026677
23
-1.3426238282
33
0.0000000000
40
0.0000000000
40
0.0000000000
40
0.0000000000
40
0.0000000000
40
0.1263502830
40
0.2698720356
40
0.4298946724
40
0.5943321887
40
0.7474163737
40
0.8818289323
40
1.0000000000
40
1.0000000000
40
1.0000000000
40
1.0000000000
10
136.2161310665
20
26.2157037468
30
0.0000000000
10
136.2725281746
20
26.2115896669
30
0.0000000000
10
136.3924453520
20
26.1914099633
30
0.0000000000
10
136.5732889551
20
26.1216694801
30
0.0000000000
10
136.7484109611
20
26.0030940076
30
0.0000000000
10
136.8927209432
20
25.8424826457
30
0.0000000000
10
136.9893625067
20
25.6627456526
30
0.0000000000
10
137.0394362128
20
25.4869975295
30
0.0000000000
10
137.0494623845
20
25.3737170102
30
0.0000000000
10
137.0494622794
20
25.3208305798
30
0.0000000000
11
136.2161310665
21
26.2157037468
31
0.0000000000
11
136.3834145137
21
26.1875207118
31
0.0000000000
11
136.5631945761
21
26.1181609858
31
0.0000000000
11
136.7410752717
21
25.9976658872
31
0.0000000000
11
136.8886279022
21
25.8334373080
31
0.0000000000
11
136.9859860784
21
25.6524240330
31
0.0000000000
11
137.0354511964
21
25.4788700060
31
0.0000000000
11
137.0494622794
21
25.3208305798
31
0.0000000000
0
SPLINE
5
33D
100
AcDbEntity
8
0
100
AcDbSpline
62
9
6
CONTINUOUS
70
0
71
3
72
14
73
10
74
8
42
0.0000001000
43
0.0000001000
44
0.0000000001
12
1.4875811081
22
-0.1091748653
32
0.0000000000
13
0.0003765962
23
-1.4915818993
33
0.0000000000
40
0.0000000000
40
0.0000000000
40
0.0000000000
40
0.0000000000
40
0.1262550675
40
0.2697243741
40
0.4298124944
40
0.5943807950
40
0.7475118000
40
0.8818874986
40
1.0000000000
40
1.0000000000
40
1.0000000000
40
1.0000000000
10
136.2201714267
20
26.3152880478
30
0.0000000000
10
136.2827763111
20
26.3106934211
30
0.0000000000
10
136.4159150531
20
26.2882337379
30
0.0000000000
10
136.6167572077
20
26.2107051980
30
0.0000000000
10
136.8113337627
20
26.0788845295
30
0.0000000000
10
136.9716953273
20
25.9003267104
30
0.0000000000
10
137.0790613720
20
25.7005726797
30
0.0000000000
10
137.1346870478
20
25.5053530078
30
0.0000000000
10
137.1458442046
20
25.3795554028
30
0.0000000000
10
137.1458590315
20
25.3208305798
30
0.0000000000
11
136.2201714267
21
26.3152880478
31
0.0000000000
11
136.4058617527
21
26.2839281669
31
0.0000000000
11
136.6054908094
21
26.2068397423
31
0.0000000000
11
136.8031551146
21
26.0728737624
31
0.0000000000
11
136.9671681895
21
25.8902435032
31
0.0000000000
11
137.0753304317
21
25.6890697248
31
0.0000000000
11
137.1302700581
21
25.4963139962
31
0.0000000000
11
137.1458590315
21
25.3208305798
31
0.0000000000
0
SPLINE
5
33E
100
AcDbEntity
8
0
100
AcDbSpline
62
9
6
CONTINUOUS
70
0
71
3
72
10
73
6
74
4
42
0.0000001000
43
0.0000001000
44
0.0000000001
12
-0.0479587167
22
-0.0874335087
32
0.0000000000
13
0.0072483650
23
-0.0994591280
33
0.0000000000
40
0.0000000000
40
0.0000000000
40
0.0000000000
40
0.0000000000
40
0.1514430752
40
0.5148692409
40
1.0000000000
40
1.0000000000
40
1.0000000000
40
1.0000000000
10
44.2826031006
20
26.3152888515
30
0.0000000000
10
44.2801820954
20
26.3108751184
30
0.0000000000
10
44.2840986589
20
26.2924449810
30
0.0000000000
10
44.2826148999
20
26.2602961254
30
0.0000000000
10
44.2854713860
20
26.2317873076
30
0.0000000000
10
44.2866435210
20
26.2157037468
30
0.0000000000
11
44.2826031006
21
26.3152888515
31
0.0000000000
11
44.2820811763
21
26.3001955301
31
0.0000000000
11
44.2835503938
21
26.2639834113
31
0.0000000000
11
44.2866435210
21
26.2157037468
31
0.0000000000
0
SPLINE
5
33F
100
AcDbEntity
8
0
100
AcDbSpline
62
9
6
CONTINUOUS
70
0
71
3
72
20
73
16
74
14
42
0.0000001000
43
0.0000001000
44
0.0000000001
12
91.7663675095
22
6.6949938890
32
0.0000000000
13
91.7663675025
23
-6.6949939855
33
0.0000000000
40
0.0000000000
40
0.0000000000
40
0.0000000000
40
0.0000000000
40
0.0572351984
40
0.1197815177
40
0.1890006671
40
0.2662265644
40
0.3527705526
40
0.4480764103
40
0.5475510068
40
0.6448989811
40
0.7332155529
40
0.8112676054
40
0.8806542711
40
0.9430095122
40
1.0000000000
40
1.0000000000
40
1.0000000000
40
1.0000000000
10
44.2866435209
20
26.2157037468
30
0.0000000000
10
46.0373989392
20
26.3434335147
30
0.0000000000
10
49.7025020048
20
26.5954792202
30
0.0000000000
10
55.4888370508
20
26.9427112260
30
0.0000000000
10
61.8906107035
20
27.2652404385
30
0.0000000000
10
69.0309325349
20
27.5486607003
30
0.0000000000
10
76.9739603144
20
27.7691147750
30
0.0000000000
10
85.6015767313
20
27.8942641641
30
0.0000000000
10
94.5614962517
20
27.8971178327
30
0.0000000000
10
103.3061752775
20
27.7745399289
30
0.0000000000
10
111.3915433991
20
27.5518371085
30
0.0000000000
10
118.6166507965
20
27.2652040971
30
0.0000000000
10
125.0429931747
20
26.9411066647
30
0.0000000000
10
130.8210972498
20
26.5940811473
30
0.0000000000
10
134.4728610509
20
26.3428874045
30
0.0000000000
10
136.2161310665
20
26.2157037468
30
0.0000000000
11
44.2866435209
21
26.2157037468
31
0.0000000000
11
49.5404610951
21
26.5770010645
31
0.0000000000
11
55.2850306704
21
26.9217251643
31
0.0000000000
11
61.6458354046
21
27.2421914669
31
0.0000000000
11
68.7458197254
21
27.5240146207
31
0.0000000000
11
76.7056900159
21
27.7449343572
31
0.0000000000
11
85.4738850010
21
27.8721201263
31
0.0000000000
11
94.6265686723
21
27.8750350053
31
0.0000000000
11
103.5827019298
21
27.7494960823
31
0.0000000000
11
111.7056525693
21
27.5257600049
31
0.0000000000
11
118.8815978449
21
27.2410732584
31
0.0000000000
11
125.2577797878
21
26.9195043961
31
0.0000000000
11
130.9847827447
21
26.5755495533
31
0.0000000000
11
136.2161310665
21
26.2157037468
31
0.0000000000
0
SPLINE
5
340
100
AcDbEntity
8
0
100
AcDbSpline
62
9
6
CONTINUOUS
70
0
71
3
72
20
73
16
74
14
42
0.0000001000
43
0.0000001000
44
0.0000000001
12
91.7744086250
22
6.6961034665
32
0.0000000000
13
91.7744086214
23
-6.6961035148
33
0.0000000000
40
0.0000000000
40
0.0000000000
40
0.0000000000
40
0.0000000000
40
0.0572353096
40
0.1197816324
40
0.1890007825
40
0.2662266687
40
0.3527706312
40
0.4480764447
40
0.5475509857
40
0.6448989115
40
0.7332154553
40
0.8112674963
40
0.8806541625
40
0.9430094069
40
1.0000000000
40
1.0000000000
40
1.0000000000
40
1.0000000000
10
44.2826031006
20
26.3152888515
30
0.0000000000
10
46.0335153320
20
26.4430400366
30
0.0000000000
10
49.6989432464
20
26.6951277121
30
0.0000000000
10
55.4857896478
20
27.0424174244
30
0.0000000000
10
61.8881254575
20
27.3650000423
30
0.0000000000
10
69.0290739626
20
27.6484672101
30
0.0000000000
10
76.9727981147
20
27.8689577343
30
0.0000000000
10
85.6011701555
20
27.9941277940
30
0.0000000000
10
94.5618740077
20
27.9969819268
30
0.0000000000
10
103.3073187778
20
27.8743837672
30
0.0000000000
10
111.3933955931
20
27.6516441212
30
0.0000000000
10
118.6191370281
20
27.3649636682
30
0.0000000000
10
125.0460436888
20
27.0408125663
30
0.0000000000
10
130.8246582002
20
26.6937293836
30
0.0000000000
10
134.4767454930
20
26.4424938221
30
0.0000000000
10
136.2201714868
20
26.3152888518
30
0.0000000000
11
44.2826031006
21
26.3152888515
31
0.0000000000
11
49.5368914986
21
26.6766467033
31
0.0000000000
11
55.2819655442
21
27.0214278940
31
0.0000000000
11
61.6433290895
21
27.3419472721
31
0.0000000000
11
68.7439366091
21
27.6238170664
31
0.0000000000
11
76.7045048362
21
27.8447733295
31
0.0000000000
11
85.4734675517
21
27.9719801012
31
0.0000000000
11
94.6269519168
21
27.9748954542
31
0.0000000000
11
103.5838690788
21
27.8493357924
31
0.0000000000
11
111.7075318012
21
27.6255627184
31
0.0000000000
11
118.8841069085
21
27.3408288520
31
0.0000000000
11
125.2608489899
21
27.0192067269
31
0.0000000000
11
130.9883548494
21
26.6751949172
31
0.0000000000
11
136.2201714868
21
26.3152888518
31
0.0000000000
0
SPLINE
5
341
100
AcDbEntity
8
0
100
AcDbSpline
62
9
6
CONTINUOUS
70
0
71
3
72
14
73
10
74
8
42
0.0000001000
43
0.0000001000
44
0.0000000001
12
-0.0000031408
22
1.3426362497
32
0.0000000000
13
1.3390781767
23
0.0976818084
33
0.0000000000
40
0.0000000000
40
0.0000000000
40
0.0000000000
40
0.0000000000
40
0.1188945445
40
0.2526480324
40
0.4031067679
40
0.5652453641
40
0.7255734090
40
0.8712776012
40
1.0000000000
40
1.0000000000
40
1.0000000000
40
1.0000000000
10
43.4533123080
20
25.3208305798
30
0.0000000000
10
43.4533121835
20
25.3740412882
30
0.0000000000
10
43.4634034861
20
25.4873559556
30
0.0000000000
10
43.5132641888
20
25.6619547416
30
0.0000000000
10
43.6083490292
20
25.8395958447
30
0.0000000000
10
43.7503291989
20
25.9994048706
30
0.0000000000
10
43.9246855978
20
26.1192750796
30
0.0000000000
10
44.1072495943
20
26.1907714256
30
0.0000000000
10
44.2291870692
20
26.2115124679
30
0.0000000000
10
44.2866435209
20
26.2157037468
30
0.0000000000
11
43.4533123080
21
25.3208305798
31
0.0000000000
11
43.4674958248
21
25.4798313448
31
0.0000000000
11
43.5168212398
21
25.6525067606
31
0.0000000000
11
43.6121750504
21
25.8305972918
31
0.0000000000
11
43.7567591183
21
25.9933417473
31
0.0000000000
11
43.9341218820
21
26.1153265175
31
0.0000000000
11
44.1162691237
21
26.1866889104
31
0.0000000000
11
44.2866435209
21
26.2157037468
31
0.0000000000
0
SPLINE
5
342
100
AcDbEntity
8
0
100
AcDbSpline
62
9
6
CONTINUOUS
70
0
71
3
72
14
73
10
74
8
42
0.0000001000
43
0.0000001000
44
0.0000000001
12
0.0003763414
22
1.4915957787
32
0.0000000000
13
1.4875950258
23
0.1091748507
33
0.0000000000
40
0.0000000000
40
0.0000000000
40
0.0000000000
40
0.0000000000
40
0.1188430429
40
0.2525648198
40
0.4030521947
40
0.5653002119
40
0.7257025560
40
0.8713678406
40
1.0000000000
40
1.0000000000
40
1.0000000000
40
1.0000000000
10
43.3569156494
20
25.3208305798
30
0.0000000000
10
43.3569305580
20
25.3799191735
30
0.0000000000
10
43.3681610974
20
25.5057608183
30
0.0000000000
10
43.4235521134
20
25.6997001649
30
0.0000000000
10
43.5291818926
20
25.8971093792
30
0.0000000000
10
43.6869405784
20
26.0747668741
30
0.0000000000
10
43.8806624856
20
26.2080324171
30
0.0000000000
10
44.0834269099
20
26.2875208344
30
0.0000000000
10
44.2188189941
20
26.3106066444
30
0.0000000000
10
44.2826031810
20
26.3152877767
30
0.0000000000
11
43.3569156494
21
25.3208305798
31
0.0000000000
11
43.3726980765
21
25.4973923937
31
0.0000000000
11
43.4274872789
21
25.6891786651
31
0.0000000000
11
43.5334116126
21
25.8870805939
31
0.0000000000
11
43.6941014605
21
26.0680415566
31
0.0000000000
11
43.8911962732
21
26.2036764095
31
0.0000000000
11
44.0934720684
21
26.2830009118
31
0.0000000000
11
44.2826031810
21
26.3152877767
31
0.0000000000
0
SPLINE
5
343
100
AcDbEntity
8
0
100
AcDbSpline
62
9
6
CONTINUOUS
70
0
71
3
72
10
73
6
74
4
42
0.0000001000
43
0.0000001000
44
0.0000000001
12
-0.0479588858
22
0.0874325044
32
0.0000000000
13
0.0072482950
23
0.0994583318
33
0.0000000000
40
0.0000000000
40
0.0000000000
40
0.0000000000
40
0.0000000000
40
0.1514427828
40
0.5148686615
40
1.0000000000
40
1.0000000000
40
1.0000000000
40
1.0000000000
10
44.2826031603
20
-24.5250069878
30
0.0000000000
10
44.2801821512
20
-24.5205933139
30
0.0000000000
10
44.2840987060
20
-24.5021633135
30
0.0000000000
10
44.2826149232
20
-24.4700147407
30
0.0000000000
10
44.2854713961
20
-24.4415061322
30
0.0000000000
10
44.2866435211
20
-24.4254226810
30
0.0000000000
11
44.2826031603
21
-24.5250069878
31
0.0000000000
11
44.2820812255
21
-24.5099138170
31
0.0000000000
11
44.2835504209
21
-24.4737020167
31
0.0000000000
11
44.2866435211
21
-24.4254226810
31
0.0000000000
0
SPLINE
5
344
100
AcDbEntity
8
0
100
AcDbSpline
62
9
6
CONTINUOUS
70
0
71
3
72
14
73
10
74
8
42
0.0000001000
43
0.0000001000
44
0.0000000001
12
-1.3390666071
22
0.0977054301
32
0.0000000000
13
0.0000208446
23
1.3426264294
33
0.0000000000
40
0.0000000000
40
0.0000000000
40
0.0000000000
40
0.0000000000
40
0.1241628225
40
0.2647354104
40
0.4225725351
40
0.5873652773
40
0.7429043243
40
0.8799519641
40
1.0000000000
40
1.0000000000
40
1.0000000000
40
1.0000000000
10
44.2866435209
20
-24.4254226810
30
0.0000000000
10
44.2312227578
20
-24.4213788870
30
0.0000000000
10
44.1135825519
20
-24.4017796220
30
0.0000000000
10
43.9355015469
20
-24.3342233575
30
0.0000000000
10
43.7611237075
20
-24.2185211178
30
0.0000000000
10
43.6148911180
20
-24.0592602853
30
0.0000000000
10
43.5154853494
20
-23.8781554412
30
0.0000000000
10
43.4636802537
20
-23.6995876924
30
0.0000000000
10
43.4533114739
20
-23.5842760692
30
0.0000000000
10
43.4533123080
20
-23.5305495140
30
0.0000000000
11
44.2866435209
21
-24.4254226810
31
0.0000000000
11
44.1222108699
21
-24.3979960043
31
0.0000000000
11
43.9457544177
21
-24.3310290254
31
0.0000000000
11
43.7691971214
21
-24.2138281836
31
0.0000000000
11
43.6195622259
21
-24.0508459349
31
0.0000000000
11
43.5190561289
21
-23.8677917292
31
0.0000000000
11
43.4677714839
21
-23.6910793146
31
0.0000000000
11
43.4533123080
21
-23.5305495140
31
0.0000000000
0
SPLINE
5
345
100
AcDbEntity
8
0
100
AcDbSpline
62
9
6
CONTINUOUS
70
0
71
3
72
14
73
10
74
8
42
0.0000001000
43
0.0000001000
44
0.0000000001
12
-1.4875831484
22
0.1091876511
32
0.0000000000
13
-0.0003663279
23
1.4915848726
33
0.0000000000
40
0.0000000000
40
0.0000000000
40
0.0000000000
40
0.0000000000
40
0.1240833171
40
0.2646267946
40
0.4225427629
40
0.5874569255
40
0.7430214538
40
0.8800161870
40
1.0000000000
40
1.0000000000
40
1.0000000000
40
1.0000000000
10
44.2826031603
20
-24.5250069878
30
0.0000000000
10
44.2210750765
20
-24.5204908659
30
0.0000000000
10
44.0904464508
20
-24.4986714709
30
0.0000000000
10
43.8926506020
20
-24.4235529231
30
0.0000000000
10
43.6988972318
20
-24.2949027409
30
0.0000000000
10
43.5364188803
20
-24.1178391042
30
0.0000000000
10
43.4260046722
20
-23.9165802629
30
0.0000000000
10
43.3684662779
20
-23.7182479356
30
0.0000000000
10
43.3569299982
20
-23.5902048608
30
0.0000000000
10
43.3569153471
20
-23.5305495140
30
0.0000000000
11
44.2826031603
21
-24.5250069878
31
0.0000000000
11
44.1000568421
21
-24.4944824762
31
0.0000000000
11
43.9040900353
21
-24.4200324335
31
0.0000000000
11
43.7078875754
21
-24.2897017853
31
0.0000000000
11
43.5415833976
21
-24.1084539117
31
0.0000000000
11
43.4299505206
21
-23.9050341563
31
0.0000000000
11
43.3730010862
21
-23.7087911886
31
0.0000000000
11
43.3569153471
21
-23.5305495140
31
0.0000000000
0
SPLINE
5
346
100
AcDbEntity
8
0
100
AcDbSpline
62
9
6
CONTINUOUS
70
0
71
3
72
10
73
6
74
4
42
0.0000001000
43
0.0000001000
44
0.0000000001
12
0.0479587167
22
0.0874335086
32
0.0000000000
13
-0.0072483650
23
0.0994591280
33
0.0000000000
40
0.0000000000
40
0.0000000000
40
0.0000000000
40
0.0000000000
40
0.1514430752
40
0.5148692408
40
1.0000000000
40
1.0000000000
40
1.0000000000
40
1.0000000000
10
136.2201714868
20
-24.5250077857
30
0.0000000000
10
136.2225924919
20
-24.5205940526
30
0.0000000000
10
136.2186759285
20
-24.5021639152
30
0.0000000000
10
136.2201596875
20
-24.4700150596
30
0.0000000000
10
136.2173032014
20
-24.4415062418
30
0.0000000000
10
136.2161310664
20
-24.4254226810
30
0.0000000000
11
136.2201714868
21
-24.5250077857
31
0.0000000000
11
136.2206934111
21
-24.5099144643
31
0.0000000000
11
136.2192241936
21
-24.4737023455
31
0.0000000000
11
136.2161310664
21
-24.4254226810
31
0.0000000000
0
SPLINE
5
347
100
AcDbEntity
8
0
100
AcDbSpline
62
9
6
CONTINUOUS
70
0
71
3
72
20
73
16
74
14
42
0.0000001000
43
0.0000001000
44
0.0000000001
12
-91.7663674232
22
-6.6949938794
32
0.0000000000
13
-91.7663674158
23
6.6949939810
33
0.0000000000
40
0.0000000000
40
0.0000000000
40
0.0000000000
40
0.0000000000
40
0.0571827451
40
0.1196708814
40
0.1888256351
40
0.2659804369
40
0.3524468469
40
0.4476965859
40
0.5471879671
40
0.6446333200
40
0.7330397343
40
0.8111418906
40
0.8805598075
40
0.9429494742
40
1.0000000000
40
1.0000000000
40
1.0000000000
40
1.0000000000
10
136.2161310665
20
-24.4254226810
30
0.0000000000
10
134.4669801354
20
-24.5530353904
30
0.0000000000
10
130.8052633996
20
-24.8048622715
30
0.0000000000
10
125.0242913016
20
-25.1518413724
30
0.0000000000
10
118.6284571448
20
-25.4742047850
30
0.0000000000
10
111.4946741366
20
-25.7575846373
30
0.0000000000
10
103.5579346460
20
-25.9781937649
30
0.0000000000
10
94.9339104454
20
-26.1037329905
30
0.0000000000
10
85.9722107048
20
-26.1070721300
30
0.0000000000
10
77.2212689799
20
-25.9848071822
30
0.0000000000
10
69.1286170293
20
-25.7621640914
30
0.0000000000
10
61.8982565218
20
-25.4754816939
30
0.0000000000
10
55.4683622965
20
-25.1513085277
30
0.0000000000
10
49.6864054434
20
-24.8041169207
30
0.0000000000
10
46.0317500240
20
-24.5527403232
30
0.0000000000
10
44.2866435209
20
-24.4254226810
30
0.0000000000
11
136.2161310665
21
-24.4254226810
31
0.0000000000
11
130.9671297545
21
-24.7864089364
31
0.0000000000
11
125.2279080849
21
-25.1308805390
31
0.0000000000
11
118.8730275837
21
-25.4511809420
31
0.0000000000
11
111.7795882779
21
-25.7329622046
31
0.0000000000
11
103.8268624040
21
-25.9540139076
31
0.0000000000
11
95.0638369113
21
-26.0815737650
31
0.0000000000
11
85.9096090448
21
-26.0849844290
31
0.0000000000
11
76.9445110964
21
-25.9597304057
31
0.0000000000
11
68.8132899745
21
-25.7360281331
31
0.0000000000
11
61.6327320129
21
-25.4513163154
31
0.0000000000
11
55.2536731344
21
-25.1297049293
31
0.0000000000
11
49.5235045008
21
-24.7856246791
31
0.0000000000
11
44.2866435209
21
-24.4254226810
31
0.0000000000
0
SPLINE
5
348
100
AcDbEntity
8
0
100
AcDbSpline
62
9
6
CONTINUOUS
70
0
71
3
72
20
73
16
74
14
42
0.0000001000
43
0.0000001000
44
0.0000000001
12
-91.7744085385
22
-6.6961034586
32
0.0000000000
13
-91.7744085348
23
6.6961035094
33
0.0000000000
40
0.0000000000
40
0.0000000000
40
0.0000000000
40
0.0000000000
40
0.0571828560
40
0.1196709959
40
0.1888257503
40
0.2659805411
40
0.3524469255
40
0.4476966203
40
0.5471879462
40
0.6446332506
40
0.7330396368
40
0.8111417816
40
0.8805596989
40
0.9429493688
40
1.0000000000
40
1.0000000000
40
1.0000000000
40
1.0000000000
10
136.2201714868
20
-24.5250077857
30
0.0000000000
10
134.4708638895
20
-24.6526418924
30
0.0000000000
10
130.8088226079
20
-24.9045107069
30
0.0000000000
10
125.0273396311
20
-25.2515474723
30
0.0000000000
10
118.6309438369
20
-25.5739642632
30
0.0000000000
10
111.4965347250
20
-25.8573910152
30
0.0000000000
10
103.5590994064
20
-26.0780366182
30
0.0000000000
10
94.9343198906
20
-26.2035965791
30
0.0000000000
10
85.9718356597
20
-26.2069362630
30
0.0000000000
10
77.2201276427
20
-26.0846511111
30
0.0000000000
10
69.1267663614
20
-25.8619712048
30
0.0000000000
10
61.8957713553
20
-25.5752413575
30
0.0000000000
10
55.4653125365
20
-25.2510145093
30
0.0000000000
10
49.6828449089
20
-24.9037652096
30
0.0000000000
10
46.0278657444
20
-24.6523467632
30
0.0000000000
10
44.2826031006
20
-24.5250077860
30
0.0000000000
11
136.2201714868
21
-24.5250077857
31
0.0000000000
11
130.9706997925
21
-24.8860545225
31
0.0000000000
11
125.2309741217
21
-25.2305831744
31
0.0000000000
11
118.8755353281
21
-25.5509366256
31
0.0000000000
11
111.7814733943
21
-25.8327645222
31
0.0000000000
11
103.8280502034
21
-26.0538527741
31
0.0000000000
11
95.0642574226
21
-26.1814336961
31
0.0000000000
11
85.9092287242
21
-26.1848449160
31
0.0000000000
11
76.9433460922
21
-26.0595702012
31
0.0000000000
11
68.8114121630
21
-25.8358309376
31
0.0000000000
11
61.6302239632
21
-25.5510719957
31
0.0000000000
11
55.2506046937
21
-25.2294073399
31
0.0000000000
11
49.5199328840
21
-24.8852701022
31
0.0000000000
11
44.2826031006
21
-24.5250077860
31
0.0000000000
0
SPLINE
5
349
100
AcDbEntity
8
0
100
AcDbSpline
62
9
6
CONTINUOUS
70
0
71
3
72
14
73
10
74
8
42
0.0000001000
43
0.0000001000
44
0.0000000001
12
0.0000031408
22
-1.3426362497
32
0.0000000000
13
-1.3390781767
23
-0.0976818084
33
0.0000000000
40
0.0000000000
40
0.0000000000
40
0.0000000000
40
0.0000000000
40
0.1188945445
40
0.2526480324
40
0.4031067680
40
0.5652453642
40
0.7255734091
40
0.8712776012
40
1.0000000000
40
1.0000000000
40
1.0000000000
40
1.0000000000
10
137.0494622794
20
-23.5305495140
30
0.0000000000
10
137.0494624039
20
-23.5837602224
30
0.0000000000
10
137.0393711013
20
-23.6970748899
30
0.0000000000
10
136.9895103986
20
-23.8716736759
30
0.0000000000
10
136.8944255581
20
-24.0493147789
30
0.0000000000
10
136.7524453884
20
-24.2091238048
30
0.0000000000
10
136.5780889895
20
-24.3289940138
30
0.0000000000
10
136.3955249931
20
-24.4004903599
30
0.0000000000
10
136.2735875181
20
-24.4212314021
30
0.0000000000
10
136.2161310665
20
-24.4254226810
30
0.0000000000
11
137.0494622794
21
-23.5305495140
31
0.0000000000
11
137.0352787626
21
-23.6895502790
31
0.0000000000
11
136.9859533476
21
-23.8622256949
31
0.0000000000
11
136.8905995370
21
-24.0403162261
31
0.0000000000
11
136.7460154690
21
-24.2030606816
31
0.0000000000
11
136.5686527053
21
-24.3250454517
31
0.0000000000
11
136.3865054636
21
-24.3964078446
31
0.0000000000
11
136.2161310665
21
-24.4254226810
31
0.0000000000
0
SPLINE
5
34A
100
AcDbEntity
8
0
100
AcDbSpline
62
9
6
CONTINUOUS
70
0
71
3
72
14
73
10
74
8
42
0.0000001000
43
0.0000001000
44
0.0000000001
12
-0.0003763414
22
-1.4915957787
32
0.0000000000
13
-1.4875950258
23
-0.1091748507
33
0.0000000000
40
0.0000000000
40
0.0000000000
40
0.0000000000
40
0.0000000000
40
0.1188430429
40
0.2525648199
40
0.4030521948
40
0.5653002119
40
0.7257025560
40
0.8713678407
40
1.0000000000
40
1.0000000000
40
1.0000000000
40
1.0000000000
10
137.1458589380
20
-23.5305495140
30
0.0000000000
10
137.1458440294
20
-23.5896381077
30
0.0000000000
10
137.1346134900
20
-23.7154797526
30
0.0000000000
10
137.0792224740
20
-23.9094190992
30
0.0000000000
10
136.9735926948
20
-24.1068283135
30
0.0000000000
10
136.8158340089
20
-24.2844858083
30
0.0000000000
10
136.6221121017
20
-24.4177513514
30
0.0000000000
10
136.4193476775
20
-24.4972397686
30
0.0000000000
10
136.2839555932
20
-24.5203255786
30
0.0000000000
10
136.2201714064
20
-24.5250067109
30
0.0000000000
11
137.1458589380
21
-23.5305495140
31
0.0000000000
11
137.1300765109
21
-23.7071113279
31
0.0000000000
11
137.0752873085
21
-23.8988975994
31
0.0000000000
11
136.9693629747
21
-24.0967995282
31
0.0000000000
11
136.8086731268
21
-24.2777604909
31
0.0000000000
11
136.6115783141
21
-24.4133953437
31
0.0000000000
11
136.4093025190
21
-24.4927198461
31
0.0000000000
11
136.2201714064
21
-24.5250067109
31
0.0000000000
0
SPLINE
5
34B
100
AcDbEntity
8
0
100
AcDbSpline
62
7
6
CONTINUOUS
70
0
71
3
72
11
73
7
74
5
42
0.0000001000
43
0.0000001000
44
0.0000000001
12
138.5050649204
22
-0.0000094567
32
0.0000000000
13
138.5050649204
23
0.0000094567
33
0.0000000000
40
0.0000000000
40
0.0000000000
40
0.0000000000
40
0.0000000000
40
0.2499171739
40
0.5000000000
40
0.7500828261
40
1.0000000000
40
1.0000000000
40
1.0000000000
40
1.0000000000
10
20.9988548335
20
43.2951404672
30
0.0000000000
10
32.5371196319
20
43.2951396794
30
0.0000000000
10
55.6212971187
20
43.2951252189
30
0.0000000000
10
90.2513872937
20
43.2951126997
30
0.0000000000
10
124.8814774687
20
43.2951252189
30
0.0000000000
10
147.9656549554
20
43.2951396794
30
0.0000000000
10
159.5039197539
20
43.2951404672
30
0.0000000000
11
20.9988548335
21
43.2951404672
31
0.0000000000
11
55.6136492289
21
43.2951267515
31
0.0000000000
11
90.2513872937
21
43.2951168737
31
0.0000000000
11
124.8891253585
21
43.2951267515
31
0.0000000000
11
159.5039197539
21
43.2951404672
31
0.0000000000
0
SPLINE
5
34C
100
AcDbEntity
8
0
100
AcDbSpline
62
7
6
CONTINUOUS
70
0
71
3
72
11
73
7
74
5
42
0.0000001000
43
0.0000001000
44
0.0000000001
12
138.5050649204
22
0.0000094567
32
0.0000000000
13
138.5050649204
23
-0.0000094567
33
0.0000000000
40
0.0000000000
40
0.0000000000
40
0.0000000000
40
0.0000000000
40
0.2499171739
40
0.5000000000
40
0.7500828261
40
1.0000000000
40
1.0000000000
40
1.0000000000
40
1.0000000000
10
20.9988548335
20
-41.5048594014
30
0.0000000000
10
32.5371196319
20
-41.5048586136
30
0.0000000000
10
55.6212971187
20
-41.5048441531
30
0.0000000000
10
90.2513872937
20
-41.5048316339
30
0.0000000000
10
124.8814774687
20
-41.5048441531
30
0.0000000000
10
147.9656549554
20
-41.5048586136
30
0.0000000000
10
159.5039197539
20
-41.5048594014
30
0.0000000000
11
20.9988548335
21
-41.5048594014
31
0.0000000000
11
55.6136492289
21
-41.5048456857
31
0.0000000000
11
90.2513872937
21
-41.5048358079
31
0.0000000000
11
124.8891253585
21
-41.5048456857
31
0.0000000000
11
159.5039197539
21
-41.5048594014
31
0.0000000000
0
SPLINE
5
34D
100
AcDbEntity
8
0
100
AcDbSpline
62
7
6
CONTINUOUS
70
0
71
3
72
11
73
7
74
5
42
0.0000001000
43
0.0000001000
44
0.0000000001
12
91.9916322211
22
6.7267750297
32
0.0000000000
13
91.9916322219
23
-6.7267750184
33
0.0000000000
40
0.0000000000
40
0.0000000000
40
0.0000000000
40
0.0000000000
40
0.2444190915
40
0.5000001595
40
0.7555811394
40
1.0000000000
40
1.0000000000
40
1.0000000000
40
1.0000000000
10
44.1711453112
20
26.5126053989
30
0.0000000000
10
51.6659823675
20
27.0606561460
30
0.0000000000
10
67.0192890968
20
27.9083087404
30
0.0000000000
10
90.2513992995
20
28.3417582637
30
0.0000000000
10
113.4835023842
20
27.9083079409
30
0.0000000000
10
128.8367992979
20
27.0606556274
30
0.0000000000
10
136.3316292760
20
26.5126053988
30
0.0000000000
11
44.1711453112
21
26.5126053989
31
0.0000000000
11
66.6814099404
21
27.7553706271
31
0.0000000000
11
90.2514020052
21
28.1951405329
31
0.0000000000
11
113.8213859266
21
27.7553698327
31
0.0000000000
11
136.3316292760
21
26.5126053988
31
0.0000000000
0
SPLINE
5
34E
100
AcDbEntity
8
0
100
AcDbSpline
62
7
6
CONTINUOUS
70
0
71
3
72
11
73
7
74
5
42
0.0000001000
43
0.0000001000
44
0.0000000001
12
-91.9916322211
22
-6.7267750297
32
0.0000000000
13
-91.9916322219
23
6.7267750184
33
0.0000000000
40
0.0000000000
40
0.0000000000
40
0.0000000000
40
0.0000000000
40
0.2444190915
40
0.5000001595
40
0.7555811394
40
1.0000000000
40
1.0000000000
40
1.0000000000
40
1.0000000000
10
136.3316292762
20
-24.7223243331
30
0.0000000000
10
128.8367922199
20
-25.2703750802
30
0.0000000000
10
113.4834854906
20
-26.1180276746
30
0.0000000000
10
90.2513752879
20
-26.5514771979
30
0.0000000000
10
67.0192722032
20
-26.1180268751
30
0.0000000000
10
51.6659752895
20
-25.2703745616
30
0.0000000000
10
44.1711453113
20
-24.7223243331
30
0.0000000000
11
136.3316292762
21
-24.7223243331
31
0.0000000000
11
113.8213646469
21
-25.9650895613
31
0.0000000000
11
90.2513725822
21
-26.4048594671
31
0.0000000000
11
66.6813886608
21
-25.9650887669
31
0.0000000000
11
44.1711453113
21
-24.7223243331
31
0.0000000000
0
SPLINE
5
34F
100
AcDbEntity
8
0
100
AcDbSpline
62
7
6
CONTINUOUS
70
0
71
3
72
13
73
9
74
7
42
0.0000001000
43
0.0000001000
44
0.0000000001
12
0.0000000000
22
-2.9686005544
32
0.0000000000
13
-2.9686005544
23
0.0000002027
33
0.0000000000
40
0.0000000000
40
0.0000000000
40
0.0000000000
40
0.0000000000
40
0.1644132320
40
0.3330089214
40
0.4993700471
40
0.6657103204
40
0.8345309286
40
1.0000000000
40
1.0000000000
40
1.0000000000
40
1.0000000000
10
161.4013872937
20
-39.6126997945
30
0.0000000000
10
161.4013872937
20
-39.7753921983
30
0.0000000000
10
161.3585371408
20
-40.1064784053
30
0.0000000000
10
161.1678524741
20
-40.5684636254
30
0.0000000000
10
160.8620298760
20
-40.9663099360
30
0.0000000000
10
160.4633462579
20
-41.2713642462
30
0.0000000000
10
160.0000160854
20
-41.4619355534
30
0.0000000000
10
159.6676569463
20
-41.5048594126
30
0.0000000000
10
159.5039197539
20
-41.5048594014
30
0.0000000000
11
161.4013872937
21
-39.6126997945
31
0.0000000000
11
161.3385240812
21
-40.0967117581
31
0.0000000000
11
161.1476330728
21
-40.5593715937
31
0.0000000000
11
160.8466373676
21
-40.9509057789
31
0.0000000000
11
160.4545407407
21
-41.2510666187
31
0.0000000000
11
159.9910545174
21
-41.4417045468
31
0.0000000000
11
159.5039197539
21
-41.5048594014
31
0.0000000000
0
SPLINE
5
350
100
AcDbEntity
8
0
100
AcDbSpline
62
7
6
CONTINUOUS
70
0
71
3
72
13
73
9
74
7
42
0.0000001000
43
0.0000001000
44
0.0000000001
12
2.9686005544
22
0.0000002027
32
0.0000000000
13
0.0000000000
23
-2.9686005544
33
0.0000000000
40
0.0000000000
40
0.0000000000
40
0.0000000000
40
0.0000000000
40
0.1654690714
40
0.3342896796
40
0.5006299529
40
0.6669910786
40
0.8355867680
40
1.0000000000
40
1.0000000000
40
1.0000000000
40
1.0000000000
10
159.5039197539
20
43.2951404672
30
0.0000000000
10
159.6676569463
20
43.2951404784
30
0.0000000000
10
160.0000160854
20
43.2522166192
30
0.0000000000
10
160.4633462579
20
43.0616453120
30
0.0000000000
10
160.8620298760
20
42.7565910017
30
0.0000000000
10
161.1678524741
20
42.3587446912
30
0.0000000000
10
161.3585371408
20
41.8967594711
30
0.0000000000
10
161.4013872937
20
41.5656732641
30
0.0000000000
10
161.4013872937
20
41.4029808602
30
0.0000000000
11
159.5039197539
21
43.2951404672
31
0.0000000000
11
159.9910545174
21
43.2319856126
31
0.0000000000
11
160.4545407407
21
43.0413476845
31
0.0000000000
11
160.8466373676
21
42.7411868447
31
0.0000000000
11
161.1476330728
21
42.3496526595
31
0.0000000000
11
161.3385240812
21
41.8869928239
31
0.0000000000
11
161.4013872937
21
41.4029808602
31
0.0000000000
0
SPLINE
5
351
100
AcDbEntity
8
0
100
AcDbSpline
62
7
6
CONTINUOUS
70
0
71
3
72
13
73
9
74
7
42
0.0000001000
43
0.0000001000
44
0.0000000001
12
-2.9686005544
22
-0.0000002027
32
0.0000000000
13
0.0000000000
23
2.9686005544
33
0.0000000000
40
0.0000000000
40
0.0000000000
40
0.0000000000
40
0.0000000000
40
0.1654690714
40
0.3342896796
40
0.5006299529
40
0.6669910785
40
0.8355867680
40
1.0000000000
40
1.0000000000
40
1.0000000000
40
1.0000000000
10
20.9988548335
20
-41.5048594014
30
0.0000000000
10
20.8351176411
20
-41.5048594126
30
0.0000000000
10
20.5027585020
20
-41.4619355534
30
0.0000000000
10
20.0394283295
20
-41.2713642462
30
0.0000000000
10
19.6407447114
20
-40.9663099360
30
0.0000000000
10
19.3349221132
20
-40.5684636254
30
0.0000000000
10
19.1442374466
20
-40.1064784053
30
0.0000000000
10
19.1013872937
20
-39.7753921983
30
0.0000000000
10
19.1013872937
20
-39.6126997945
30
0.0000000000
11
20.9988548335
21
-41.5048594014
31
0.0000000000
11
20.5117200699
21
-41.4417045468
31
0.0000000000
11
20.0482338467
21
-41.2510666187
31
0.0000000000
11
19.6561372198
21
-40.9509057789
31
0.0000000000
11
19.3551415146
21
-40.5593715937
31
0.0000000000
11
19.1642505062
21
-40.0967117581
31
0.0000000000
11
19.1013872937
21
-39.6126997945
31
0.0000000000
0
SPLINE
5
352
100
AcDbEntity
8
0
100
AcDbSpline
62
7
6
CONTINUOUS
70
0
71
3
72
13
73
9
74
7
42
0.0000001000
43
0.0000001000
44
0.0000000001
12
0.0000000000
22
2.9686005544
32
0.0000000000
13
2.9686005544
23
-0.0000002027
33
0.0000000000
40
0.0000000000
40
0.0000000000
40
0.0000000000
40
0.0000000000
40
0.1644132320
40
0.3330089215
40
0.4993700471
40
0.6657103204
40
0.8345309286
40
1.0000000000
40
1.0000000000
40
1.0000000000
40
1.0000000000
10
19.1013872937
20
41.4029808602
30
0.0000000000
10
19.1013872937
20
41.5656732641
30
0.0000000000
10
19.1442374466
20
41.8967594711
30
0.0000000000
10
19.3349221132
20
42.3587446912
30
0.0000000000
10
19.6407447114
20
42.7565910017
30
0.0000000000
10
20.0394283295
20
43.0616453120
30
0.0000000000
10
20.5027585020
20
43.2522166192
30
0.0000000000
10
20.8351176411
20
43.2951404784
30
0.0000000000
10
20.9988548335
20
43.2951404672
30
0.0000000000
11
19.1013872937
21
41.4029808602
31
0.0000000000
11
19.1642505062
21
41.8869928239
31
0.0000000000
11
19.3551415146
21
42.3496526595
31
0.0000000000
11
19.6561372198
21
42.7411868447
31
0.0000000000
11
20.0482338467
21
43.0413476845
31
0.0000000000
11
20.5117200699
21
43.2319856126
31
0.0000000000
11
20.9988548335
21
43.2951404672
31
0.0000000000
0
SPLINE
5
353
100
AcDbEntity
8
0
100
AcDbSpline
62
7
6
CONTINUOUS
70
0
71
3
72
12
73
8
74
6
42
0.0000001000
43
0.0000001000
44
0.0000000001
12
0.0000000000
22
1.6416152227
32
0.0000000000
13
-1.6372438167
23
0.1197214441
33
0.0000000000
40
0.0000000000
40
0.0000000000
40
0.0000000000
40
0.0000000000
40
0.1997110399
40
0.4000741012
40
0.5996956713
40
0.8005283445
40
1.0000000000
40
1.0000000000
40
1.0000000000
40
1.0000000000
10
137.3513872937
20
25.4152666279
30
0.0000000000
10
137.3513872937
20
25.5245495223
30
0.0000000000
10
137.3182834407
20
25.7448685314
30
0.0000000000
10
137.1736893321
20
26.0447273516
30
0.0000000000
10
136.9465303765
20
26.2892938184
30
0.0000000000
10
136.6579304742
20
26.4555468948
30
0.0000000000
10
136.4404905210
20
26.5046450549
30
0.0000000000
10
136.3316292761
20
26.5126053998
30
0.0000000000
11
137.3513872937
21
25.4152666279
31
0.0000000000
11
137.3025492283
21
25.7394573163
31
0.0000000000
11
137.1597631705
21
26.0357677687
31
0.0000000000
11
136.9367412427
21
26.2758712773
31
0.0000000000
11
136.6510159306
21
26.4403599537
31
0.0000000000
11
136.3316292761
21
26.5126053998
31
0.0000000000
0
SPLINE
5
354
100
AcDbEntity
8
0
100
AcDbSpline
62
7
6
CONTINUOUS
70
0
71
3
72
12
73
8
74
6
42
0.0000001000
43
0.0000001000
44
0.0000000001
12
-1.6372438240
22
-0.1197214448
32
0.0000000000
13
-0.0000000000
23
-1.6416152301
33
0.0000000000
40
0.0000000000
40
0.0000000000
40
0.0000000000
40
0.0000000000
40
0.1996936445
40
0.4000354116
40
0.5996481923
40
0.8004745474
40
1.0000000000
40
1.0000000000
40
1.0000000000
40
1.0000000000
10
44.1711453111
20
26.5126053998
30
0.0000000000
10
44.0621629157
20
26.5046361959
30
0.0000000000
10
43.8448659935
20
26.4555308275
30
0.0000000000
10
43.5564199044
20
26.2893786662
30
0.0000000000
10
43.3291715452
20
26.0449233113
30
0.0000000000
10
43.1844806606
20
25.7449146961
30
0.0000000000
10
43.1513872937
20
25.5244479686
30
0.0000000000
10
43.1513872937
20
25.4152666280
30
0.0000000000
11
44.1711453111
21
26.5126053998
31
0.0000000000
11
43.8514153389
21
26.4402259737
31
0.0000000000
11
43.5663826253
21
26.2761494646
31
0.0000000000
11
43.3432715037
21
26.0361485334
31
0.0000000000
11
43.2001346349
21
25.7391628813
31
0.0000000000
11
43.1513872937
21
25.4152666280
31
0.0000000000
0
SPLINE
5
355
100
AcDbEntity
8
0
100
AcDbSpline
62
7
6
CONTINUOUS
70
0
71
3
72
12
73
8
74
6
42
0.0000001000
43
0.0000001000
44
0.0000000001
12
0.0000000000
22
-1.6416152228
32
0.0000000000
13
1.6372438168
23
-0.1197214441
33
0.0000000000
40
0.0000000000
40
0.0000000000
40
0.0000000000
40
0.0000000000
40
0.1997111998
40
0.4000742550
40
0.5996953822
40
0.8005277105
40
1.0000000000
40
1.0000000000
40
1.0000000000
40
1.0000000000
10
43.1513872937
20
-23.6249855622
30
0.0000000000
10
43.1513872937
20
-23.7342685441
30
0.0000000000
10
43.1844911869
20
-23.9545876404
30
0.0000000000
10
43.3290852979
20
-24.2544462816
30
0.0000000000
10
43.5562439140
20
-24.4990124303
30
0.0000000000
10
43.8448436059
20
-24.6652656571
30
0.0000000000
10
44.0622837204
20
-24.7143639638
30
0.0000000000
10
44.1711453113
20
-24.7223243340
30
0.0000000000
11
43.1513872937
21
-23.6249855622
31
0.0000000000
11
43.2002254373
21
-23.9491765043
31
0.0000000000
11
43.3430115609
21
-24.2454869138
31
0.0000000000
11
43.5660329693
21
-24.4855899125
31
0.0000000000
11
43.8517576763
21
-24.6500785055
31
0.0000000000
11
44.1711453113
21
-24.7223243340
31
0.0000000000
0
SPLINE
5
356
100
AcDbEntity
8
0
100
AcDbSpline
62
7
6
CONTINUOUS
70
0
71
3
72
12
73
8
74
6
42
0.0000001000
43
0.0000001000
44
0.0000000001
12
1.6372438240
22
0.1197214448
32
0.0000000000
13
0.0000000000
23
1.6416152301
33
0.0000000000
40
0.0000000000
40
0.0000000000
40
0.0000000000
40
0.0000000000
40
0.1996936445
40
0.4000354116
40
0.5996481923
40
0.8004745474
40
1.0000000000
40
1.0000000000
40
1.0000000000
40
1.0000000000
10
136.3316292762
20
-24.7223243340
30
0.0000000000
10
136.4406116717
20
-24.7143551301
30
0.0000000000
10
136.6579085939
20
-24.6652497617
30
0.0000000000
10
136.9463546830
20
-24.4990976004
30
0.0000000000
10
137.1736030422
20
-24.2546422455
30
0.0000000000
10
137.3182939267
20
-23.9546336303
30
0.0000000000
10
137.3513872937
20
-23.7341669028
30
0.0000000000
10
137.3513872937
20
-23.6249855622
30
0.0000000000
11
136.3316292762
21
-24.7223243340
31
0.0000000000
11
136.6513592485
21
-24.6499449079
31
0.0000000000
11
136.9363919621
21
-24.4858683988
31
0.0000000000
11
137.1595030837
21
-24.2458674676
31
0.0000000000
11
137.3026399525
21
-23.9488818155
31
0.0000000000
11
137.3513872937
21
-23.6249855622
31
0.0000000000
0
SPLINE
5
357
100
AcDbEntity
8
0
100
AcDbSpline
62
9
6
CONTINUOUS
70
0
71
3
72
12
73
8
74
6
42
0.0000001000
43
0.0000001000
44
0.0000000001
12
0.0003745650
22
1.5609528968
32
0.0000000000
13
-1.5609528993
23
0.0003638121
33
0.0000000000
40
0.0000000000
40
0.0000000000
40
0.0000000000
40
0.0000000000
40
0.1991713893
40
0.3990395282
40
0.5993814620
40
0.8001110147
40
1.0000000000
40
1.0000000000
40
1.0000000000
40
1.0000000000
10
160.3329687162
20
41.1872071223
30
0.0000000000
10
160.3329935838
20
41.2908395080
30
0.0000000000
10
160.3000717359
20
41.4999340199
30
0.0000000000
10
160.1561598488
20
41.7822203453
30
0.0000000000
10
159.9309706026
20
42.0067581549
30
0.0000000000
10
159.6475973438
20
42.1503612310
30
0.0000000000
10
159.4376922868
20
42.1831156060
30
0.0000000000
10
159.3336865231
20
42.1831398467
30
0.0000000000
11
160.3329687162
21
41.1872071223
31
0.0000000000
11
160.2844621229
21
41.4942969435
31
0.0000000000
11
160.1428356205
21
41.7722833170
31
0.0000000000
11
159.9214281388
21
41.9931344756
31
0.0000000000
11
159.6419289792
21
42.1347520018
31
0.0000000000
11
159.3336865231
21
42.1831398467
31
0.0000000000
0
SPLINE
5
358
100
AcDbEntity
8
0
100
AcDbSpline
62
9
6
CONTINUOUS
70
0
71
3
72
12
73
8
74
6
42
0.0000001000
43
0.0000001000
44
0.0000000001
12
-0.0035033790
22
2.9627652378
32
0.0000000000
13
-2.9627566317
23
0.0079541872
33
0.0000000000
40
0.0000000000
40
0.0000000000
40
0.0000000000
40
0.0000000000
40
0.1997662437
40
0.3992832168
40
0.5992783677
40
0.7994261383
40
1.0000000000
40
1.0000000000
40
1.0000000000
40
1.0000000000
10
161.1849244149
20
41.1872071432
30
0.0000000000
10
161.1846911293
20
41.3844939706
30
0.0000000000
10
161.1217452318
20
41.7815388680
30
0.0000000000
10
160.8485440415
20
42.3170469538
30
0.0000000000
10
160.4230235522
20
42.7431150803
30
0.0000000000
10
159.8865631682
20
43.0176691324
30
0.0000000000
10
159.4881679343
20
43.0812791198
30
0.0000000000
10
159.2900840880
20
43.0818109205
30
0.0000000000
11
161.1849244149
21
41.1872071432
31
0.0000000000
11
161.0918985576
21
41.7717116430
31
0.0000000000
11
160.8234816630
21
42.2983785412
31
0.0000000000
11
160.4047962186
21
42.7176697026
31
0.0000000000
11
159.8768309032
21
42.9876535428
31
0.0000000000
11
159.2900840880
21
43.0818109205
31
0.0000000000
0
SPLINE
5
359
100
AcDbEntity
8
0
100
AcDbSpline
62
9
6
CONTINUOUS
70
0
71
3
72
11
73
7
74
5
42
0.0000001000
43
0.0000001000
44
0.0000000001
12
-138.0773940560
22
0.0045500415
32
0.0000000000
13
-138.0773940560
23
-0.0045500594
33
0.0000000000
40
0.0000000000
40
0.0000000000
40
0.0000000000
40
0.0000000000
40
0.2499030463
40
0.5000000574
40
0.7500970405
40
1.0000000000
40
1.0000000000
40
1.0000000000
40
1.0000000000
10
159.2900843572
20
43.0819031156
30
0.0000000000
10
147.7880972238
20
43.0822821387
30
0.0000000000
10
124.7751955639
20
43.0828362747
30
0.0000000000
10
90.2513806635
20
43.0831077376
30
0.0000000000
10
55.7275697592
20
43.0828362741
30
0.0000000000
10
32.7146733861
20
43.0822821396
30
0.0000000000
10
21.2126902488
20
43.0819031152
30
0.0000000000
11
159.2900843572
21
43.0819031156
31
0.0000000000
11
124.7841229484
21
43.0827428361
31
0.0000000000
11
90.2513793729
21
43.0830172265
31
0.0000000000
11
55.7186396692
21
43.0827428359
31
0.0000000000
11
21.2126902488
21
43.0819031152
31
0.0000000000
0
SPLINE
5
35A
100
AcDbEntity
8
0
100
AcDbSpline
62
9
6
CONTINUOUS
70
0
71
3
72
11
73
7
74
5
42
0.0000001000
43
0.0000001000
44
0.0000000001
12
0.0000295285
22
0.9011625562
32
0.0000000000
13
-0.6290554462
23
0.6452776140
33
0.0000000000
40
0.0000000000
40
0.0000000000
40
0.0000000000
40
0.0000000000
40
0.3700808523
40
0.6876286531
40
0.9076952400
40
1.0000000000
40
1.0000000000
40
1.0000000000
40
1.0000000000
10
159.3336865203
20
42.1831398467
30
0.0000000000
10
159.3336901630
20
42.2943075157
30
0.0000000000
10
159.3297590583
20
42.4993743398
30
0.0000000000
10
159.3289496993
20
42.7772976158
30
0.0000000000
10
159.3021925805
20
42.9550268286
30
0.0000000000
10
159.3094392945
20
43.0620490505
30
0.0000000000
10
159.2900843572
20
43.0819031156
30
0.0000000000
11
159.3336865203
21
42.1831398467
31
0.0000000000
11
159.3304198084
21
42.5166268544
31
0.0000000000
11
159.3210628926
21
42.8026360256
31
0.0000000000
11
159.3069478979
21
43.0004488432
31
0.0000000000
11
159.2900843572
21
43.0819031156
31
0.0000000000
0
SPLINE
5
35B
100
AcDbEntity
8
0
100
AcDbSpline
62
9
6
CONTINUOUS
70
0
71
3
72
12
73
8
74
6
42
0.0000001000
43
0.0000001000
44
0.0000000001
12
-1.5609529023
22
-0.0003636598
32
0.0000000000
13
0.0003734206
23
-1.5609529000
33
0.0000000000
40
0.0000000000
40
0.0000000000
40
0.0000000000
40
0.0000000000
40
0.1998889840
40
0.4006185363
40
0.6009604690
40
0.8008286084
40
1.0000000000
40
1.0000000000
40
1.0000000000
40
1.0000000000
10
21.1690880643
20
42.1831398467
30
0.0000000000
10
21.0650823011
20
42.1831156162
30
0.0000000000
10
20.8551772548
20
42.1503612018
30
0.0000000000
10
20.5718039602
20
42.0067581828
30
0.0000000000
10
20.3466147890
20
41.7822203159
30
0.0000000000
10
20.2027027599
20
41.4999340400
30
0.0000000000
10
20.1697810796
20
41.2908395095
30
0.0000000000
10
20.1698058711
20
41.1872071223
30
0.0000000000
11
21.1690880643
21
42.1831398467
31
0.0000000000
11
20.8608456113
21
42.1347519921
31
0.0000000000
11
20.5813464423
21
41.9931344843
31
0.0000000000
11
20.3599389817
21
41.7722833063
31
0.0000000000
11
20.2183124389
21
41.4942969518
31
0.0000000000
11
20.1698058711
21
41.1872071223
31
0.0000000000
0
SPLINE
5
35C
100
AcDbEntity
8
0
100
AcDbSpline
62
9
6
CONTINUOUS
70
0
71
3
72
12
73
8
74
6
42
0.0000001000
43
0.0000001000
44
0.0000000001
12
-2.9627566404
22
-0.0079540613
32
0.0000000000
13
-0.0035038063
23
-2.9627652456
33
0.0000000000
40
0.0000000000
40
0.0000000000
40
0.0000000000
40
0.0000000000
40
0.2005737432
40
0.4007214852
40
0.6007166067
40
0.8002334550
40
1.0000000000
40
1.0000000000
40
1.0000000000
40
1.0000000000
10
21.2126904993
20
43.0818109354
30
0.0000000000
10
21.0146067695
20
43.0812791435
30
0.0000000000
10
20.6162117103
20
43.0176691293
30
0.0000000000
10
20.0797513463
20
42.7431153960
30
0.0000000000
10
19.6542310407
20
42.3170473738
30
0.0000000000
10
19.3810292936
20
41.7815394081
30
0.0000000000
10
19.3180835245
20
41.3844942687
30
0.0000000000
10
19.3178502100
20
41.1872071431
30
0.0000000000
11
21.2126904993
21
43.0818109354
31
0.0000000000
11
20.6259440264
21
42.9876536307
31
0.0000000000
11
20.0979787086
21
42.7176699776
31
0.0000000000
11
19.6792932631
21
42.2983789382
31
0.0000000000
11
19.4108762323
21
41.7717125223
31
0.0000000000
11
19.3178502100
21
41.1872071431
31
0.0000000000
0
SPLINE
5
35D
100
AcDbEntity
8
0
100
AcDbSpline
62
9
6
CONTINUOUS
70
0
71
3
72
11
73
7
74
5
42
0.0000001000
43
0.0000001000
44
0.0000000001
12
-0.0000280433
22
0.9010706367
32
0.0000000000
13
0.6290467040
23
0.6451577615
33
0.0000000000
40
0.0000000000
40
0.0000000000
40
0.0000000000
40
0.0000000000
40
0.3700860396
40
0.6876333202
40
0.9076971915
40
1.0000000000
40
1.0000000000
40
1.0000000000
40
1.0000000000
10
21.1690880695
20
42.1831398467
30
0.0000000000
10
21.1690846100
20
42.2942977345
30
0.0000000000
10
21.1730158600
20
42.4993447017
30
0.0000000000
10
21.1738256365
20
42.7772413322
30
0.0000000000
10
21.2005818330
20
42.9549485754
30
0.0000000000
10
21.1933362402
20
43.0619609777
30
0.0000000000
10
21.2126904993
20
43.0818109354
30
0.0000000000
11
21.1690880695
21
42.1831398467
31
0.0000000000
11
21.1723551880
21
42.5165975054
31
0.0000000000
11
21.1817122163
21
42.8025769995
31
0.0000000000
11
21.1958271154
21
43.0003670909
31
0.0000000000
11
21.2126904993
21
43.0818109354
31
0.0000000000
0
SPLINE
5
35E
100
AcDbEntity
8
0
100
AcDbSpline
62
9
6
CONTINUOUS
70
0
71
3
72
12
73
8
74
6
42
0.0000001000
43
0.0000001000
44
0.0000000001
12
-0.0003745650
22
-1.5609528968
32
0.0000000000
13
1.5609528993
23
-0.0003638121
33
0.0000000000
40
0.0000000000
40
0.0000000000
40
0.0000000000
40
0.0000000000
40
0.1991713893
40
0.3990395282
40
0.5993814620
40
0.8001110147
40
1.0000000000
40
1.0000000000
40
1.0000000000
40
1.0000000000
10
20.1698058711
20
-39.3969260565
30
0.0000000000
10
20.1697810036
20
-39.5005584422
30
0.0000000000
10
20.2027028515
20
-39.7096529541
30
0.0000000000
10
20.3466147386
20
-39.9919392795
30
0.0000000000
10
20.5718039847
20
-40.2164770891
30
0.0000000000
10
20.8551772435
20
-40.3600801652
30
0.0000000000
10
21.0650823006
20
-40.3928345403
30
0.0000000000
10
21.1690880643
20
-40.3928587809
30
0.0000000000
11
20.1698058711
21
-39.3969260565
31
0.0000000000
11
20.2183124645
21
-39.7040158777
31
0.0000000000
11
20.3599389669
21
-39.9820022512
31
0.0000000000
11
20.5813464486
21
-40.2028534098
31
0.0000000000
11
20.8608456082
21
-40.3444709360
31
0.0000000000
11
21.1690880643
21
-40.3928587809
31
0.0000000000
0
SPLINE
5
35F
100
AcDbEntity
8
0
100
AcDbSpline
62
9
6
CONTINUOUS
70
0
71
3
72
12
73
8
74
6
42
0.0000001000
43
0.0000001000
44
0.0000000001
12
0.0035033790
22
-2.9627652378
32
0.0000000000
13
2.9627566317
23
-0.0079541872
33
0.0000000000
40
0.0000000000
40
0.0000000000
40
0.0000000000
40
0.0000000000
40
0.1997662437
40
0.3992832168
40
0.5992783677
40
0.7994261383
40
1.0000000000
40
1.0000000000
40
1.0000000000
40
1.0000000000
10
19.3178501725
20
-39.3969260774
30
0.0000000000
10
19.3180834581
20
-39.5942129049
30
0.0000000000
10
19.3810293556
20
-39.9912578022
30
0.0000000000
10
19.6542305459
20
-40.5267658880
30
0.0000000000
10
20.0797510352
20
-40.9528340145
30
0.0000000000
10
20.6162114191
20
-41.2273880666
30
0.0000000000
10
21.0146066530
20
-41.2909980540
30
0.0000000000
10
21.2126904994
20
-41.2915298547
30
0.0000000000
11
19.3178501725
21
-39.3969260774
31
0.0000000000
11
19.4108760298
21
-39.9814305772
31
0.0000000000
11
19.6792929244
21
-40.5080974754
31
0.0000000000
11
20.0979783688
21
-40.9273886368
31
0.0000000000
11
20.6259436842
21
-41.1973724770
31
0.0000000000
11
21.2126904994
21
-41.2915298547
31
0.0000000000
0
SPLINE
5
360
100
AcDbEntity
8
0
100
AcDbSpline
62
9
6
CONTINUOUS
70
0
71
3
72
11
73
7
74
5
42
0.0000001000
43
0.0000001000
44
0.0000000001
12
138.0773940560
22
-0.0045500415
32
0.0000000000
13
138.0773940560
23
0.0045500594
33
0.0000000000
40
0.0000000000
40
0.0000000000
40
0.0000000000
40
0.0000000000
40
0.2499030044
40
0.5000000015
40
0.7500969986
40
1.0000000000
40
1.0000000000
40
1.0000000000
40
1.0000000000
10
21.2126902302
20
-41.2916220498
30
0.0000000000
10
32.7146754353
20
-41.2920010728
30
0.0000000000
10
55.7275745227
20
-41.2925552088
30
0.0000000000
10
90.2513874953
20
-41.2928266718
30
0.0000000000
10
124.7752003279
20
-41.2925552084
30
0.0000000000
10
147.7880992734
20
-41.2920010739
30
0.0000000000
10
159.2900843386
20
-41.2916220494
30
0.0000000000
11
21.2126902302
21
-41.2916220498
31
0.0000000000
11
55.7186458540
21
-41.2924617702
31
0.0000000000
11
90.2513874973
21
-41.2927361607
31
0.0000000000
11
124.7841291346
21
-41.2924617702
31
0.0000000000
11
159.2900843386
21
-41.2916220494
31
0.0000000000
0
SPLINE
5
361
100
AcDbEntity
8
0
100
AcDbSpline
62
9
6
CONTINUOUS
70
0
71
3
72
11
73
7
74
5
42
0.0000001000
43
0.0000001000
44
0.0000000001
12
-0.0000295285
22
-0.9011625562
32
0.0000000000
13
0.6290554462
23
-0.6452776140
33
0.0000000000
40
0.0000000000
40
0.0000000000
40
0.0000000000
40
0.0000000000
40
0.3700808523
40
0.6876286531
40
0.9076952400
40
1.0000000000
40
1.0000000000
40
1.0000000000
40
1.0000000000
10
21.1690880671
20
-40.3928587809
30
0.0000000000
10
21.1690844244
20
-40.5040264499
30
0.0000000000
10
21.1730155291
20
-40.7090932740
30
0.0000000000
10
21.1738248881
20
-40.9870165500
30
0.0000000000
10
21.2005820069
20
-41.1647457629
30
0.0000000000
10
21.1933352929
20
-41.2717679847
30
0.0000000000
10
21.2126902302
20
-41.2916220498
30
0.0000000000
11
21.1690880671
21
-40.3928587809
31
0.0000000000
11
21.1723547790
21
-40.7263457886
31
0.0000000000
11
21.1817116948
21
-41.0123549598
31
0.0000000000
11
21.1958266895
21
-41.2101677774
31
0.0000000000
11
21.2126902302
21
-41.2916220498
31
0.0000000000
0
SPLINE
5
362
100
AcDbEntity
8
0
100
AcDbSpline
62
9
6
CONTINUOUS
70
0
71
3
72
12
73
8
74
6
42
0.0000001000
43
0.0000001000
44
0.0000000001
12
1.5609529023
22
0.0003636598
32
0.0000000000
13
-0.0003734206
23
1.5609529000
33
0.0000000000
40
0.0000000000
40
0.0000000000
40
0.0000000000
40
0.0000000000
40
0.1998889840
40
0.4006185363
40
0.6009604690
40
0.8008286084
40
1.0000000000
40
1.0000000000
40
1.0000000000
40
1.0000000000
10
159.3336865231
20
-40.3928587809
30
0.0000000000
10
159.4376922863
20
-40.3928345504
30
0.0000000000
10
159.6475973326
20
-40.3600801360
30
0.0000000000
10
159.9309706272
20
-40.2164771170
30
0.0000000000
10
160.1561597984
20
-39.9919392501
30
0.0000000000
10
160.3000718275
20
-39.7096529742
30
0.0000000000
10
160.3329935078
20
-39.5005584437
30
0.0000000000
10
160.3329687162
20
-39.3969260565
30
0.0000000000
11
159.3336865231
21
-40.3928587809
31
0.0000000000
11
159.6419289761
21
-40.3444709263
31
0.0000000000
11
159.9214281450
21
-40.2028534185
31
0.0000000000
11
160.1428356057
21
-39.9820022405
31
0.0000000000
11
160.2844621485
21
-39.7040158860
31
0.0000000000
11
160.3329687162
21
-39.3969260565
31
0.0000000000
0
SPLINE
5
363
100
AcDbEntity
8
0
100
AcDbSpline
62
9
6
CONTINUOUS
70
0
71
3
72
12
73
8
74
6
42
0.0000001000
43
0.0000001000
44
0.0000000001
12
2.9627566404
22
0.0079540613
32
0.0000000000
13
0.0035038063
23
2.9627652456
33
0.0000000000
40
0.0000000000
40
0.0000000000
40
0.0000000000
40
0.0000000000
40
0.2005737432
40
0.4007214852
40
0.6007166067
40
0.8002334550
40
1.0000000000
40
1.0000000000
40
1.0000000000
40
1.0000000000
10
159.2900840881
20
-41.2915298696
30
0.0000000000
10
159.4881678179
20
-41.2909980777
30
0.0000000000
10
159.8865628771
20
-41.2273880636
30
0.0000000000
10
160.4230232410
20
-40.9528343302
30
0.0000000000
10
160.8485435467
20
-40.5267663081
30
0.0000000000
10
161.1217452938
20
-39.9912583424
30
0.0000000000
10
161.1846910629
20
-39.5942132029
30
0.0000000000
10
161.1849243774
20
-39.3969260774
30
0.0000000000
11
159.2900840881
21
-41.2915298696
31
0.0000000000
11
159.8768305610
21
-41.1973725649
31
0.0000000000
11
160.4047958788
21
-40.9273889118
31
0.0000000000
11
160.8234813242
21
-40.5080978724
31
0.0000000000
11
161.0918983551
21
-39.9814314565
31
0.0000000000
11
161.1849243774
21
-39.3969260774
31
0.0000000000
0
SPLINE
5
364
100
AcDbEntity
8
0
100
AcDbSpline
62
9
6
CONTINUOUS
70
0
71
3
72
11
73
7
74
5
42
0.0000001000
43
0.0000001000
44
0.0000000001
12
0.0000280433
22
-0.9010706367
32
0.0000000000
13
-0.6290467040
23
-0.6451577615
33
0.0000000000
40
0.0000000000
40
0.0000000000
40
0.0000000000
40
0.0000000000
40
0.3700860396
40
0.6876333202
40
0.9076971915
40
1.0000000000
40
1.0000000000
40
1.0000000000
40
1.0000000000
10
159.3336865179
20
-40.3928587809
30
0.0000000000
10
159.3336899773
20
-40.5040166687
30
0.0000000000
10
159.3297587274
20
-40.7090636359
30
0.0000000000
10
159.3289489509
20
-40.9869602664
30
0.0000000000
10
159.3021927544
20
-41.1646675096
30
0.0000000000
10
159.3094383472
20
-41.2716799119
30
0.0000000000
10
159.2900840881
20
-41.2915298696
30
0.0000000000
11
159.3336865179
21
-40.3928587809
31
0.0000000000
11
159.3304193994
21
-40.7263164396
31
0.0000000000
11
159.3210623711
21
-41.0122959337
31
0.0000000000
11
159.3069474720
21
-41.2100860251
31
0.0000000000
11
159.2900840881
21
-41.2915298696
31
0.0000000000
0
SPLINE
5
365
100
AcDbEntity
8
0
100
AcDbSpline
62
9
6
CONTINUOUS
70
0
71
3
72
10
73
6
74
4
42
0.0000001000
43
0.0000001000
44
0.0000000001
12
0.0073126860
22
-0.1001051692
32
0.0000000000
13
0.0987853410
23
-0.0177757328
33
0.0000000000
40
0.0000000000
40
0.0000000000
40
0.0000000000
40
0.0000000000
40
0.4966995259
40
0.8621921921
40
1.0000000000
40
1.0000000000
40
1.0000000000
40
1.0000000000
10
44.1525926984
20
26.6196465780
30
0.0000000000
10
44.1538034343
20
26.6030725146
30
0.0000000000
10
44.1540459231
20
26.5718606398
30
0.0000000000
10
44.1633903341
20
26.5456149912
30
0.0000000000
10
44.1587329858
20
26.5207311251
30
0.0000000000
10
44.1632707829
20
26.5199145802
30
0.0000000000
11
44.1525926984
21
26.6196465780
31
0.0000000000
11
44.1566761873
21
26.5699594143
31
0.0000000000
11
44.1605816687
21
26.5334826972
31
0.0000000000
11
44.1632707829
21
26.5199145802
31
0.0000000000
0
SPLINE
5
366
100
AcDbEntity
8
0
100
AcDbSpline
62
9
6
CONTINUOUS
70
0
71
3
72
20
73
16
74
14
42
0.0000001000
43
0.0000001000
44
0.0000000001
12
92.0118886958
22
6.7293185788
32
0.0000000000
13
92.0118887107
23
-6.7293183745
33
0.0000000000
40
0.0000000000
40
0.0000000000
40
0.0000000000
40
0.0000000000
40
0.0557710773
40
0.1199004057
40
0.1915867307
40
0.2700407858
40
0.3544711511
40
0.4436479954
40
0.5354790532
40
0.6277724173
40
0.7183024742
40
0.8042002361
40
0.8820713343
40
0.9485008753
40
1.0000000000
40
1.0000000000
40
1.0000000000
40
1.0000000000
10
44.1632707829
20
26.5199145802
30
0.0000000000
10
45.8738048357
20
26.6450150291
30
0.0000000000
10
49.5523371281
20
26.8989924613
30
0.0000000000
10
55.4335340531
20
27.2533541282
30
0.0000000000
10
62.0146714989
20
27.5844376198
30
0.0000000000
10
69.2229055209
20
27.8678927217
30
0.0000000000
10
76.9717155235
20
28.0803506487
30
0.0000000000
10
85.1339622057
20
28.2006680784
30
0.0000000000
10
93.5389144757
20
28.2134800391
30
0.0000000000
10
101.9848947963
20
28.1127996948
30
0.0000000000
10
110.2463591818
20
27.9040362492
30
0.0000000000
10
118.0612148916
20
27.6057960932
30
0.0000000000
10
125.1316719846
20
27.2512554877
30
0.0000000000
10
131.1420395978
20
26.8863612410
30
0.0000000000
10
134.7599932284
20
26.6354325806
30
0.0000000000
10
136.3395038043
20
26.5199145786
30
0.0000000000
11
44.1632707829
21
26.5199145802
31
0.0000000000
11
49.2963584661
21
26.8743192188
31
0.0000000000
11
55.2020681774
21
27.2301578927
31
0.0000000000
11
61.8073258148
21
27.5624534353
31
0.0000000000
11
69.0397216752
21
27.8468588774
31
0.0000000000
11
76.8261412732
21
28.0603524065
31
0.0000000000
11
85.0524924819
21
28.1816099660
31
0.0000000000
11
93.5245989345
21
28.1945222821
31
0.0000000000
11
102.0387617029
21
28.0930364108
31
0.0000000000
11
110.3881852893
21
27.8820458297
31
0.0000000000
11
118.3071450701
21
27.5798315324
31
0.0000000000
11
125.4823335557
21
27.2200412027
31
0.0000000000
11
131.5997026339
21
26.8486507612
31
0.0000000000
11
136.3395038043
21
26.5199145786
31
0.0000000000
0
SPLINE
5
367
100
AcDbEntity
8
0
100
AcDbSpline
62
9
6
CONTINUOUS
70
0
71
3
72
20
73
16
74
14
42
0.0000001000
43
0.0000001000
44
0.0000000001
12
92.0332312830
22
6.7303761002
32
0.0000000000
13
92.0332313120
23
-6.7303757025
33
0.0000000000
40
0.0000000000
40
0.0000000000
40
0.0000000000
40
0.0000000000
40
0.0557710036
40
0.1199003324
40
0.1915866692
40
0.2700407505
40
0.3544711524
40
0.4436480426
40
0.5354791528
40
0.6277725615
40
0.7183026496
40
0.8042004247
40
0.8820715111
40
0.9485010197
40
1.0000000000
40
1.0000000000
40
1.0000000000
40
1.0000000000
10
44.1525926984
20
26.6196465780
30
0.0000000000
10
45.8635212576
20
26.7447665213
30
0.0000000000
10
49.5429043845
20
26.9987837500
30
0.0000000000
10
55.4254628275
20
27.3532010158
30
0.0000000000
10
62.0081265790
20
27.6843365964
30
0.0000000000
10
69.2180328149
20
27.9678362994
30
0.0000000000
10
76.9686408515
20
28.1803276463
30
0.0000000000
10
85.1327818056
20
28.3006639624
30
0.0000000000
10
93.5396846623
20
28.3134778466
30
0.0000000000
10
101.9876247015
20
28.2127815298
30
0.0000000000
10
110.2510051768
20
28.0039850952
30
0.0000000000
10
118.0676722801
20
27.7056979172
30
0.0000000000
10
125.1397669270
20
27.3511015247
30
0.0000000000
10
131.1515221168
20
26.9861501850
30
0.0000000000
10
134.7703093681
20
26.7351824064
30
0.0000000000
10
136.3501818889
20
26.6196465779
30
0.0000000000
11
44.1525926984
21
26.6196465780
31
0.0000000000
11
49.2868640188
21
26.9741064796
31
0.0000000000
11
55.1939428643
21
27.3300011097
31
0.0000000000
11
61.8007323267
21
27.6623489291
31
0.0000000000
11
69.0348061411
21
27.9467991305
31
0.0000000000
11
76.8230325491
21
28.1603262453
31
0.0000000000
11
85.0512929904
21
28.2816028423
31
0.0000000000
11
93.5253660604
21
28.2945170982
31
0.0000000000
11
102.0415045520
21
28.1930151218
31
0.0000000000
11
110.3928647663
21
27.9819911945
31
0.0000000000
11
118.3136603130
21
27.6797292352
31
0.0000000000
11
125.4905105044
21
27.3198822967
31
0.0000000000
11
131.6092947876
21
26.9484335573
31
0.0000000000
11
136.3501818889
21
26.6196465779
31
0.0000000000
0
SPLINE
5
368
100
AcDbEntity
8
0
100
AcDbSpline
62
9
6
CONTINUOUS
70
0
71
3
72
21
73
17
74
15
42
0.0000001000
43
0.0000001000
44
0.0000000001
12
-0.0000075879
22
1.6469621286
32
0.0000000000
13
1.6425722943
23
0.1201686776
33
0.0000000000
40
0.0000000000
40
0.0000000000
40
0.0000000000
40
0.0000000000
40
0.0656507694
40
0.1332731282
40
0.2026815571
40
0.2736591732
40
0.3459783507
40
0.4194306760
40
0.4938577415
40
0.5690094313
40
0.6443423554
40
0.7192279375
40
0.7930019316
40
0.8651594877
40
0.9330503557
40
1.0000000000
40
1.0000000000
40
1.0000000000
40
1.0000000000
10
43.1435538715
20
25.4225505460
30
0.0000000000
10
43.1435537054
20
25.4585919896
30
0.0000000000
10
43.1471534506
20
25.5318074711
30
0.0000000000
10
43.1636896985
20
25.6420253170
30
0.0000000000
10
43.1921580151
20
25.7528287022
30
0.0000000000
10
43.2329974692
20
25.8624610345
30
0.0000000000
10
43.2863397193
20
25.9690880917
30
0.0000000000
10
43.3520111628
20
26.0708711471
30
0.0000000000
10
43.4295157546
20
26.1659875149
30
0.0000000000
10
43.5179091009
20
26.2525723387
30
0.0000000000
10
43.6156790571
20
26.3288229062
30
0.0000000000
10
43.7207437278
20
26.3932161807
30
0.0000000000
10
43.8307236871
20
26.4447899401
30
0.0000000000
10
43.9420286355
20
26.4828083329
30
0.0000000000
10
44.0530034963
20
26.5081195920
30
0.0000000000
10
44.1266142765
20
26.5172323191
30
0.0000000000
10
44.1632708201
20
26.5199140692
30
0.0000000000
11
43.1435538715
21
25.4225505460
31
0.0000000000
11
43.1488652071
21
25.5305443451
31
0.0000000000
11
43.1653884993
21
25.6406832747
31
0.0000000000
11
43.1938354160
21
25.7514002435
31
0.0000000000
11
43.2346418977
21
25.8609440424
31
0.0000000000
11
43.2879314128
21
25.9674648961
31
0.0000000000
11
43.3535179717
21
26.0691158574
31
0.0000000000
11
43.4309492454
21
26.1641416477
31
0.0000000000
11
43.5193693384
21
26.2507522239
31
0.0000000000
11
43.6172042544
21
26.3270530199
31
0.0000000000
11
43.7223592561
21
26.3915016935
31
0.0000000000
11
43.8323675294
21
26.4430880543
31
0.0000000000
11
43.9448283991
21
26.4815026289
31
0.0000000000
11
44.0538429013
21
26.5063650352
31
0.0000000000
11
44.1632708201
21
26.5199140692
31
0.0000000000
0
SPLINE
5
369
100
AcDbEntity
8
0
100
AcDbSpline
62
9
6
CONTINUOUS
70
0
71
3
72
9
73
5
74
3
42
0.0000001000
43
0.0000001000
44
0.0000000001
12
0.0000005738
22
0.1580463411
32
0.0000000000
13
0.0207674508
23
0.1567450882
33
0.0000000000
40
0.0000000000
40
0.0000000000
40
0.0000000000
40
0.0000000000
40
0.7462701690
40
1.0000000000
40
1.0000000000
40
1.0000000000
40
1.0000000000
10
43.0400610440
20
25.4225505460
30
0.0000000000
10
43.0400611868
20
25.4618656359
30
0.0000000000
10
43.0426538100
20
25.5145838793
30
0.0000000000
10
43.0487034668
20
25.5669495130
30
0.0000000000
10
43.0504599074
20
25.5802064813
30
0.0000000000
11
43.0400610440
21
25.4225505460
31
0.0000000000
11
43.0458560697
21
25.5403533656
31
0.0000000000
11
43.0504599074
21
25.5802064813
31
0.0000000000
0
SPLINE
5
36A
100
AcDbEntity
8
0
100
AcDbSpline
62
9
6
CONTINUOUS
70
0
71
3
72
20
73
16
74
14
42
0.0000001000
43
0.0000001000
44
0.0000000001
12
0.2153277978
22
1.6252150983
32
0.0000000000
13
1.6343421094
23
0.1195284764
33
0.0000000000
40
0.0000000000
40
0.0000000000
40
0.0000000000
40
0.0000000000
40
0.0496650684
40
0.1257606816
40
0.2035789962
40
0.2828715792
40
0.3634109188
40
0.4450242952
40
0.5274343402
40
0.6100399536
40
0.6921515776
40
0.7730414207
40
0.8521548536
40
0.9265938296
40
1.0000000000
40
1.0000000000
40
1.0000000000
40
1.0000000000
10
43.0504599074
20
25.5802064813
30
0.0000000000
10
43.0540246640
20
25.6071119543
30
0.0000000000
10
43.0653611175
20
25.6749309925
30
0.0000000000
10
43.0930853342
20
25.7828309146
30
0.0000000000
10
43.1376391882
20
25.9024266043
30
0.0000000000
10
43.1958354982
20
26.0187480736
30
0.0000000000
10
43.2674870165
20
26.1297898965
30
0.0000000000
10
43.3520536249
20
26.2335616718
30
0.0000000000
10
43.4485029373
20
26.3280245886
30
0.0000000000
10
43.5551808695
20
26.4112087355
30
0.0000000000
10
43.6698123231
20
26.4814523953
30
0.0000000000
10
43.7897997223
20
26.5377076995
30
0.0000000000
10
43.9112291723
20
26.5791757171
30
0.0000000000
10
44.0322966331
20
26.6067824370
30
0.0000000000
10
44.1126024333
20
26.6167218688
30
0.0000000000
10
44.1525926984
20
26.6196465780
30
0.0000000000
11
43.0504599074
21
25.5802064813
31
0.0000000000
11
43.0638816167
21
25.6604962412
31
0.0000000000
11
43.0949148527
21
25.7812713874
31
0.0000000000
11
43.1394324826
21
25.9007699051
31
0.0000000000
11
43.1975709434
21
26.0169750152
31
0.0000000000
11
43.2691294710
21
26.1278722710
31
0.0000000000
11
43.3536170397
21
26.2315465301
31
0.0000000000
11
43.4500974646
21
26.3260395525
31
0.0000000000
11
43.5568463219
21
26.4092786457
31
0.0000000000
11
43.6715760406
21
26.4795826488
31
0.0000000000
11
43.7915948727
21
26.5358520534
31
0.0000000000
11
43.9142814428
21
26.5777508286
31
0.0000000000
11
44.0332126516
21
26.6048688420
31
0.0000000000
11
44.1525926984
21
26.6196465780
31
0.0000000000
0
SPLINE
5
36B
100
AcDbEntity
8
0
100
AcDbSpline
62
9
6
CONTINUOUS
70
0
71
3
72
10
73
6
74
4
42
0.0000001000
43
0.0000001000
44
0.0000000001
12
0.0073126974
22
0.1001054886
32
0.0000000000
13
0.0987856407
23
0.0177758712
33
0.0000000000
40
0.0000000000
40
0.0000000000
40
0.0000000000
40
0.0000000000
40
0.4966992560
40
0.8621920768
40
1.0000000000
40
1.0000000000
40
1.0000000000
40
1.0000000000
10
44.1525927006
20
-24.8293655121
30
0.0000000000
10
44.1538034377
20
-24.8127914049
30
0.0000000000
10
44.1540459240
20
-24.7815794381
30
0.0000000000
10
44.1633903656
20
-24.7553336999
30
0.0000000000
10
44.1587329916
20
-24.7304497474
30
0.0000000000
10
44.1632708063
20
-24.7296331954
30
0.0000000000
11
44.1525927006
21
-24.8293655121
31
0.0000000000
11
44.1566761948
21
-24.7796782169
31
0.0000000000
11
44.1605816856
21
-24.7432013678
31
0.0000000000
11
44.1632708063
21
-24.7296331954
31
0.0000000000
0
SPLINE
5
36C
100
AcDbEntity
8
0
100
AcDbSpline
62
9
6
CONTINUOUS
70
0
71
3
72
21
73
17
74
15
42
0.0000001000
43
0.0000001000
44
0.0000000001
12
-1.6425726367
22
0.1201679819
32
0.0000000000
13
0.0000078669
23
1.6469624193
33
0.0000000000
40
0.0000000000
40
0.0000000000
40
0.0000000000
40
0.0000000000
40
0.0658458170
40
0.1323654894
40
0.2013506108
40
0.2723048471
40
0.3445768517
40
0.4179929135
40
0.4923957546
40
0.5675372237
40
0.6428760733
40
0.7177825674
40
0.7917204771
40
0.8622165286
40
0.9318375918
40
1.0000000000
40
1.0000000000
40
1.0000000000
40
1.0000000000
10
44.1632708063
20
-24.7296331954
30
0.0000000000
10
44.1272186272
20
-24.7269956758
30
0.0000000000
10
44.0549564305
20
-24.7181100827
30
0.0000000000
10
43.9469498179
20
-24.6937810694
30
0.0000000000
10
43.8392756924
20
-24.6577330496
30
0.0000000000
10
43.7330790101
20
-24.6092980368
30
0.0000000000
10
43.6305752065
20
-24.5485224797
30
0.0000000000
10
43.5337773296
20
-24.4758014801
30
0.0000000000
10
43.4444516343
20
-24.3917452924
30
0.0000000000
10
43.3643910027
20
-24.2974229856
30
0.0000000000
10
43.2952883058
20
-24.1944656870
30
0.0000000000
10
43.2384860404
20
-24.0849928058
30
0.0000000000
10
43.1951688735
20
-23.9723740856
30
0.0000000000
10
43.1650087475
20
-23.8585697641
30
0.0000000000
10
43.1474182460
20
-23.7453872698
30
0.0000000000
10
43.1435538366
20
-23.6696897884
30
0.0000000000
10
43.1435540153
20
-23.6322694801
30
0.0000000000
11
44.1632708063
21
-24.7296331954
31
0.0000000000
11
44.0556360935
21
-24.7163963625
31
0.0000000000
11
43.9487583056
21
-24.6923230523
31
0.0000000000
11
43.8410201582
21
-24.6562527754
31
0.0000000000
11
43.7346974107
21
-24.6077606104
31
0.0000000000
11
43.6323117946
21
-24.5470551406
31
0.0000000000
11
43.5356397159
21
-24.4744288204
31
0.0000000000
11
43.4463994663
21
-24.3904531887
31
0.0000000000
11
43.3663153533
21
-24.2961034226
31
0.0000000000
11
43.2971663492
21
-24.1930775779
31
0.0000000000
11
43.2403473584
21
-24.0835727364
31
0.0000000000
11
43.1966310487
21
-23.9699173902
31
0.0000000000
11
43.1668873808
21
-23.8576875647
31
0.0000000000
11
43.1492794776
21
-23.7443843065
31
0.0000000000
11
43.1435540153
21
-23.6322694801
31
0.0000000000
0
SPLINE
5
36D
100
AcDbEntity
8
0
100
AcDbSpline
62
9
6
CONTINUOUS
70
0
71
3
72
9
73
5
74
3
42
0.0000001000
43
0.0000001000
44
0.0000000001
12
-0.1574618532
22
0.0115159190
32
0.0000000000
13
-0.1546520470
23
0.0321018881
33
0.0000000000
40
0.0000000000
40
0.0000000000
40
0.0000000000
40
0.0000000000
40
0.7493513507
40
1.0000000000
40
1.0000000000
40
1.0000000000
40
1.0000000000
10
44.1525926985
20
-24.8293655121
30
0.0000000000
10
44.1132612811
20
-24.8264890223
30
0.0000000000
10
44.0609268317
20
-24.8200553264
30
0.0000000000
10
44.0091978764
20
-24.8102049224
30
0.0000000000
10
43.9962767675
20
-24.8075228241
30
0.0000000000
11
44.1525926985
21
-24.8293655121
31
0.0000000000
11
44.0351675019
21
-24.8149282495
31
0.0000000000
11
43.9962767675
21
-24.8075228241
31
0.0000000000
0
SPLINE
5
36E
100
AcDbEntity
8
0
100
AcDbSpline
62
9
6
CONTINUOUS
70
0
71
3
72
20
73
16
74
14
42
0.0000001000
43
0.0000001000
44
0.0000000001
12
-1.6053393130
22
0.3332281983
32
0.0000000000
13
-0.0000053993
23
1.6388714235
33
0.0000000000
40
0.0000000000
40
0.0000000000
40
0.0000000000
40
0.0000000000
40
0.0487825437
40
0.1244126579
40
0.2022034072
40
0.2814415447
40
0.3619370236
40
0.4435180132
40
0.5259070495
40
0.6085074042
40
0.6906287102
40
0.7716821420
40
0.8489624807
40
0.9252839129
40
1.0000000000
40
1.0000000000
40
1.0000000000
40
1.0000000000
10
43.9962767675
20
-24.8075228241
30
0.0000000000
10
43.9701725891
20
-24.8021042511
30
0.0000000000
10
43.9040628726
20
-24.7860666838
30
0.0000000000
10
43.7991242162
20
-24.7509413262
30
0.0000000000
10
43.6832632613
20
-24.6981083616
30
0.0000000000
10
43.5714262932
20
-24.6318104232
30
0.0000000000
10
43.4658096224
20
-24.5524762381
30
0.0000000000
10
43.3683435544
20
-24.4607714510
30
0.0000000000
10
43.2809883530
20
-24.3578650679
30
0.0000000000
10
43.2055936440
20
-24.2455412325
30
0.0000000000
10
43.1436238077
20
-24.1261155921
30
0.0000000000
10
43.0963680690
20
-24.0032629959
30
0.0000000000
10
43.0634662471
20
-23.8791196732
30
0.0000000000
10
43.0442775038
20
-23.7556576318
30
0.0000000000
10
43.0400611785
20
-23.6730861668
30
0.0000000000
10
43.0400610440
20
-23.6322694801
30
0.0000000000
11
43.9962767675
21
-24.8075228241
31
0.0000000000
11
43.9185661492
21
-24.7886704498
31
0.0000000000
11
43.8010280775
21
-24.7493268790
31
0.0000000000
11
43.6850300055
21
-24.6964316842
31
0.0000000000
11
43.5733222074
21
-24.6302102519
31
0.0000000000
11
43.4678431347
21
-24.5509795083
31
0.0000000000
11
43.3704682723
21
-24.4593605833
31
0.0000000000
11
43.2830864062
21
-24.3564228830
31
0.0000000000
11
43.2076412917
21
-24.2440243062
31
0.0000000000
11
43.1456530515
21
-24.1245633507
31
0.0000000000
11
43.0979631137
21
-24.0005830561
31
0.0000000000
11
43.0655157434
21
-23.8781574309
31
0.0000000000
11
43.0463072438
21
-23.7545601266
31
0.0000000000
11
43.0400610440
21
-23.6322694801
31
0.0000000000
0
SPLINE
5
36F
100
AcDbEntity
8
0
100
AcDbSpline
62
9
6
CONTINUOUS
70
0
71
3
72
9
73
5
74
3
42
0.0000001000
43
0.0000001000
44
0.0000000001
12
0.1574618532
22
-0.0115159190
32
0.0000000000
13
0.1546520470
23
-0.0321018881
33
0.0000000000
40
0.0000000000
40
0.0000000000
40
0.0000000000
40
0.0000000000
40
0.7493513507
40
1.0000000000
40
1.0000000000
40
1.0000000000
40
1.0000000000
10
136.3501818889
20
26.6196465779
30
0.0000000000
10
136.3895133063
20
26.6167700881
30
0.0000000000
10
136.4418477556
20
26.6103363922
30
0.0000000000
10
136.4935767110
20
26.6004859882
30
0.0000000000
10
136.5064978199
20
26.5978038899
30
0.0000000000
11
136.3501818889
21
26.6196465779
31
0.0000000000
11
136.4676070854
21
26.6052093153
31
0.0000000000
11
136.5064978199
21
26.5978038899
31
0.0000000000
0
SPLINE
5
370
100
AcDbEntity
8
0
100
AcDbSpline
62
9
6
CONTINUOUS
70
0
71
3
72
20
73
16
74
14
42
0.0000001000
43
0.0000001000
44
0.0000000001
12
1.6053393130
22
-0.3332281983
32
0.0000000000
13
0.0000053993
23
-1.6388714235
33
0.0000000000
40
0.0000000000
40
0.0000000000
40
0.0000000000
40
0.0000000000
40
0.0487825437
40
0.1244126579
40
0.2022034072
40
0.2814415447
40
0.3619370236
40
0.4435180132
40
0.5259070495
40
0.6085074042
40
0.6906287102
40
0.7716821420
40
0.8489624807
40
0.9252839129
40
1.0000000000
40
1.0000000000
40
1.0000000000
40
1.0000000000
10
136.5064978199
20
26.5978038899
30
0.0000000000
10
136.5326019983
20
26.5923853168
30
0.0000000000
10
136.5987117147
20
26.5763477495
30
0.0000000000
10
136.7036503712
20
26.5412223920
30
0.0000000000
10
136.8195113261
20
26.4883894274
30
0.0000000000
10
136.9313482942
20
26.4220914889
30
0.0000000000
10
137.0369649650
20
26.3427573039
30
0.0000000000
10
137.1344310330
20
26.2510525167
30
0.0000000000
10
137.2217862344
20
26.1481461337
30
0.0000000000
10
137.2971809434
20
26.0358222983
30
0.0000000000
10
137.3591507797
20
25.9163966579
30
0.0000000000
10
137.4064065184
20
25.7935440617
30
0.0000000000
10
137.4393083403
20
25.6694007390
30
0.0000000000
10
137.4584970836
20
25.5459386976
30
0.0000000000
10
137.4627134089
20
25.4633672326
30
0.0000000000
10
137.4627135434
20
25.4225505459
30
0.0000000000
11
136.5064978199
21
26.5978038899
31
0.0000000000
11
136.5842084382
21
26.5789515156
31
0.0000000000
11
136.7017465099
21
26.5396079448
31
0.0000000000
11
136.8177445818
21
26.4867127500
31
0.0000000000
11
136.9294523800
21
26.4204913177
31
0.0000000000
11
137.0349314527
21
26.3412605741
31
0.0000000000
11
137.1323063151
21
26.2496416491
31
0.0000000000
11
137.2196881812
21
26.1467039488
31
0.0000000000
11
137.2951332957
21
26.0343053720
31
0.0000000000
11
137.3571215359
21
25.9148444165
31
0.0000000000
11
137.4048114737
21
25.7908641219
31
0.0000000000
11
137.4372588440
21
25.6684384967
31
0.0000000000
11
137.4564673436
21
25.5448411924
31
0.0000000000
11
137.4627135434
21
25.4225505459
31
0.0000000000
0
SPLINE
5
371
100
AcDbEntity
8
0
100
AcDbSpline
62
9
6
CONTINUOUS
70
0
71
3
72
21
73
17
74
15
42
0.0000001000
43
0.0000001000
44
0.0000000001
12
1.6425726367
22
-0.1201679819
32
0.0000000000
13
-0.0000078669
23
-1.6469624193
33
0.0000000000
40
0.0000000000
40
0.0000000000
40
0.0000000000
40
0.0000000000
40
0.0658458170
40
0.1323654894
40
0.2013506108
40
0.2723048471
40
0.3445768517
40
0.4179929135
40
0.4923957546
40
0.5675372237
40
0.6428760733
40
0.7177825674
40
0.7917204771
40
0.8622165286
40
0.9318375918
40
1.0000000000
40
1.0000000000
40
1.0000000000
40
1.0000000000
10
136.3395037811
20
26.5199142612
30
0.0000000000
10
136.3755559602
20
26.5172767415
30
0.0000000000
10
136.4478181569
20
26.5083911485
30
0.0000000000
10
136.5558247695
20
26.4840621352
30
0.0000000000
10
136.6634988950
20
26.4480141154
30
0.0000000000
10
136.7696955772
20
26.3995791026
30
0.0000000000
10
136.8721993808
20
26.3388035455
30
0.0000000000
10
136.9689972578
20
26.2660825459
30
0.0000000000
10
137.0583229531
20
26.1820263582
30
0.0000000000
10
137.1383835847
20
26.0877040514
30
0.0000000000
10
137.2074862816
20
25.9847467528
30
0.0000000000
10
137.2642885470
20
25.8752738716
30
0.0000000000
10
137.3076057139
20
25.7626551514
30
0.0000000000
10
137.3377658399
20
25.6488508299
30
0.0000000000
10
137.3553563414
20
25.5356683356
30
0.0000000000
10
137.3592207508
20
25.4599708542
30
0.0000000000
10
137.3592205721
20
25.4225505459
30
0.0000000000
11
136.3395037811
21
26.5199142612
31
0.0000000000
11
136.4471384939
21
26.5066774283
31
0.0000000000
11
136.5540162818
21
26.4826041181
31
0.0000000000
11
136.6617544292
21
26.4465338412
31
0.0000000000
11
136.7680771767
21
26.3980416762
31
0.0000000000
11
136.8704627927
21
26.3373362064
31
0.0000000000
11
136.9671348715
21
26.2647098862
31
0.0000000000
11
137.0563751211
21
26.1807342545
31
0.0000000000
11
137.1364592341
21
26.0863844884
31
0.0000000000
11
137.2056082382
21
25.9833586437
31
0.0000000000
11
137.2624272290
21
25.8738538022
31
0.0000000000
11
137.3061435387
21
25.7601984560
31
0.0000000000
11
137.3358872066
21
25.6479686305
31
0.0000000000
11
137.3534951098
21
25.5346653723
31
0.0000000000
11
137.3592205721
21
25.4225505459
31
0.0000000000
0
SPLINE
5
372
100
AcDbEntity
8
0
100
AcDbSpline
62
9
6
CONTINUOUS
70
0
71
3
72
10
73
6
74
4
42
0.0000001000
43
0.0000001000
44
0.0000000001
12
-0.0073126974
22
-0.1001054886
32
0.0000000000
13
-0.0987856407
23
-0.0177758712
33
0.0000000000
40
0.0000000000
40
0.0000000000
40
0.0000000000
40
0.0000000000
40
0.4966992560
40
0.8621920768
40
1.0000000000
40
1.0000000000
40
1.0000000000
40
1.0000000000
10
136.3501818868
20
26.6196465779
30
0.0000000000
10
136.3489711497
20
26.6030724707
30
0.0000000000
10
136.3487286633
20
26.5718605039
30
0.0000000000
10
136.3393842218
20
26.5456147657
30
0.0000000000
10
136.3440415958
20
26.5207308132
30
0.0000000000
10
136.3395037811
20
26.5199142612
30
0.0000000000
11
136.3501818868
21
26.6196465779
31
0.0000000000
11
136.3460983926
21
26.5699592826
31
0.0000000000
11
136.3421929018
21
26.5334824336
31
0.0000000000
11
136.3395037811
21
26.5199142612
31
0.0000000000
0
SPLINE
5
373
100
AcDbEntity
8
0
100
AcDbSpline
62
9
6
CONTINUOUS
70
0
71
3
72
9
73
5
74
3
42
0.0000001000
43
0.0000001000
44
0.0000000001
12
-0.0000005738
22
-0.1580463411
32
0.0000000000
13
-0.0207674508
23
-0.1567450882
33
0.0000000000
40
0.0000000000
40
0.0000000000
40
0.0000000000
40
0.0000000000
40
0.7462701690
40
1.0000000000
40
1.0000000000
40
1.0000000000
40
1.0000000000
10
137.4627135434
20
-23.6322694802
30
0.0000000000
10
137.4627134006
20
-23.6715845701
30
0.0000000000
10
137.4601207774
20
-23.7243028135
30
0.0000000000
10
137.4540711206
20
-23.7766684472
30
0.0000000000
10
137.4523146800
20
-23.7899254155
30
0.0000000000
11
137.4627135434
21
-23.6322694802
31
0.0000000000
11
137.4569185176
21
-23.7500722999
31
0.0000000000
11
137.4523146800
21
-23.7899254155
31
0.0000000000
0
SPLINE
5
374
100
AcDbEntity
8
0
100
AcDbSpline
62
9
6
CONTINUOUS
70
0
71
3
72
20
73
16
74
14
42
0.0000001000
43
0.0000001000
44
0.0000000001
12
-0.2153277978
22
-1.6252150983
32
0.0000000000
13
-1.6343421094
23
-0.1195284764
33
0.0000000000
40
0.0000000000
40
0.0000000000
40
0.0000000000
40
0.0000000000
40
0.0496650684
40
0.1257606816
40
0.2035789962
40
0.2828715792
40
0.3634109188
40
0.4450242952
40
0.5274343402
40
0.6100399536
40
0.6921515776
40
0.7730414207
40
0.8521548536
40
0.9265938296
40
1.0000000000
40
1.0000000000
40
1.0000000000
40
1.0000000000
10
137.4523146800
20
-23.7899254155
30
0.0000000000
10
137.4487499234
20
-23.8168308885
30
0.0000000000
10
137.4374134699
20
-23.8846499267
30
0.0000000000
10
137.4096892531
20
-23.9925498488
30
0.0000000000
10
137.3651353991
20
-24.1121455385
30
0.0000000000
10
137.3069390892
20
-24.2284670078
30
0.0000000000
10
137.2352875709
20
-24.3395088307
30
0.0000000000
10
137.1507209625
20
-24.4432806060
30
0.0000000000
10
137.0542716501
20
-24.5377435228
30
0.0000000000
10
136.9475937179
20
-24.6209276698
30
0.0000000000
10
136.8329622642
20
-24.6911713295
30
0.0000000000
10
136.7129748651
20
-24.7474266337
30
0.0000000000
10
136.5915454151
20
-24.7888946514
30
0.0000000000
10
136.4704779543
20
-24.8165013712
30
0.0000000000
10
136.3901721541
20
-24.8264408030
30
0.0000000000
10
136.3501818890
20
-24.8293655122
30
0.0000000000
11
137.4523146800
21
-23.7899254155
31
0.0000000000
11
137.4388929707
21
-23.8702151754
31
0.0000000000
11
137.4078597347
21
-23.9909903216
31
0.0000000000
11
137.3633421048
21
-24.1104888394
31
0.0000000000
11
137.3052036440
21
-24.2266939494
31
0.0000000000
11
137.2336451164
21
-24.3375912052
31
0.0000000000
11
137.1491575476
21
-24.4412654643
31
0.0000000000
11
137.0526771228
21
-24.5357584868
31
0.0000000000
11
136.9459282655
21
-24.6189975799
31
0.0000000000
11
136.8311985468
21
-24.6893015830
31
0.0000000000
11
136.7111797147
21
-24.7455709876
31
0.0000000000
11
136.5884931446
21
-24.7874697629
31
0.0000000000
11
136.4695619358
21
-24.8145877762
31
0.0000000000
11
136.3501818890
21
-24.8293655122
31
0.0000000000
0
SPLINE
5
375
100
AcDbEntity
8
0
100
AcDbSpline
62
9
6
CONTINUOUS
70
0
71
3
72
21
73
17
74
15
42
0.0000001000
43
0.0000001000
44
0.0000000001
12
0.0000075879
22
-1.6469621286
32
0.0000000000
13
-1.6425722943
23
-0.1201686776
33
0.0000000000
40
0.0000000000
40
0.0000000000
40
0.0000000000
40
0.0000000000
40
0.0656507694
40
0.1332731282
40
0.2026815571
40
0.2736591732
40
0.3459783507
40
0.4194306760
40
0.4938577415
40
0.5690094313
40
0.6443423554
40
0.7192279375
40
0.7930019316
40
0.8651594877
40
0.9330503557
40
1.0000000000
40
1.0000000000
40
1.0000000000
40
1.0000000000
10
137.3592207159
20
-23.6322694802
30
0.0000000000
10
137.3592208820
20
-23.6683109238
30
0.0000000000
10
137.3556211368
20
-23.7415264053
30
0.0000000000
10
137.3390848889
20
-23.8517442512
30
0.0000000000
10
137.3106165722
20
-23.9625476364
30
0.0000000000
10
137.2697771182
20
-24.0721799688
30
0.0000000000
10
137.2164348681
20
-24.1788070259
30
0.0000000000
10
137.1507634246
20
-24.2805900813
30
0.0000000000
10
137.0732588328
20
-24.3757064491
30
0.0000000000
10
136.9848654865
20
-24.4622912729
30
0.0000000000
10
136.8870955303
20
-24.5385418404
30
0.0000000000
10
136.7820308596
20
-24.6029351149
30
0.0000000000
10
136.6720509003
20
-24.6545088743
30
0.0000000000
10
136.5607459519
20
-24.6925272671
30
0.0000000000
10
136.4497710911
20
-24.7178385262
30
0.0000000000
10
136.3761603109
20
-24.7269512533
30
0.0000000000
10
136.3395037673
20
-24.7296330034
30
0.0000000000
11
137.3592207159
21
-23.6322694802
31
0.0000000000
11
137.3539093803
21
-23.7402632793
31
0.0000000000
11
137.3373860881
21
-23.8504022089
31
0.0000000000
11
137.3089391714
21
-23.9611191777
31
0.0000000000
11
137.2681326897
21
-24.0706629766
31
0.0000000000
11
137.2148431745
21
-24.1771838303
31
0.0000000000
11
137.1492566157
21
-24.2788347916
31
0.0000000000
11
137.0718253420
21
-24.3738605819
31
0.0000000000
11
136.9834052490
21
-24.4604711581
31
0.0000000000
11
136.8855703330
21
-24.5367719541
31
0.0000000000
11
136.7804153313
21
-24.6012206277
31
0.0000000000
11
136.6704070580
21
-24.6528069885
31
0.0000000000
11
136.5579461883
21
-24.6912215631
31
0.0000000000
11
136.4489316861
21
-24.7160839694
31
0.0000000000
11
136.3395037673
21
-24.7296330034
31
0.0000000000
0
SPLINE
5
376
100
AcDbEntity
8
0
100
AcDbSpline
62
9
6
CONTINUOUS
70
0
71
3
72
20
73
16
74
14
42
0.0000001000
43
0.0000001000
44
0.0000000001
12
-92.0332313325
22
-6.7303760956
32
0.0000000000
13
-92.0332313603
23
6.7303757165
33
0.0000000000
40
0.0000000000
40
0.0000000000
40
0.0000000000
40
0.0000000000
40
0.0558216684
40
0.1200363464
40
0.1918250889
40
0.2703812247
40
0.3548957513
40
0.4441219079
40
0.5359629623
40
0.6282255068
40
0.7186822711
40
0.8044734016
40
0.8822287960
40
0.9485587562
40
1.0000000000
40
1.0000000000
40
1.0000000000
40
1.0000000000
10
136.3501818890
20
-24.8293655122
30
0.0000000000
10
134.6376990499
20
-24.9545991196
30
0.0000000000
10
130.9541410369
20
-25.2088908860
30
0.0000000000
10
125.0642569882
20
-25.5636689558
30
0.0000000000
10
118.4726804732
20
-25.8950722637
30
0.0000000000
10
111.2538917129
20
-26.1786156427
30
0.0000000000
10
103.4960317188
20
-26.3908722476
30
0.0000000000
10
95.3274740355
20
-26.5107378958
30
0.0000000000
10
86.9196982952
20
-26.5229651291
30
0.0000000000
10
78.4746641145
20
-26.4217259369
30
0.0000000000
10
70.2177799814
20
-26.2125915744
30
0.0000000000
10
62.4102156312
20
-25.9142791950
30
0.0000000000
10
55.3480214322
20
-25.5599568435
30
0.0000000000
10
49.3446536205
20
-25.1954200924
30
0.0000000000
10
45.7306939948
20
-24.9447718114
30
0.0000000000
10
44.1525926985
20
-24.8293655121
30
0.0000000000
11
136.3501818890
21
-24.8293655122
31
0.0000000000
11
131.2112450671
21
-25.1841284138
31
0.0000000000
11
125.2962996730
21
-25.5404160969
31
0.0000000000
11
118.6800631501
21
-25.8730578325
31
0.0000000000
11
111.4365670781
21
-26.1575719145
31
0.0000000000
11
103.6405687191
21
-26.3708764082
31
0.0000000000
11
95.4077545726
21
-26.4916800813
31
0.0000000000
11
86.9327629753
21
-26.5040031487
31
0.0000000000
11
78.4194793608
21
-26.4019529787
31
0.0000000000
11
70.0748960501
21
-26.1905928560
31
0.0000000000
11
62.1639487977
21
-25.8883292518
31
0.0000000000
11
54.9977724354
21
-25.5287918421
31
0.0000000000
11
48.8881633189
21
-25.1578038414
31
0.0000000000
11
44.1525926985
21
-24.8293655121
31
0.0000000000
0
SPLINE
5
377
100
AcDbEntity
8
0
100
AcDbSpline
62
9
6
CONTINUOUS
70
0
71
3
72
20
73
16
74
14
42
0.0000001000
43
0.0000001000
44
0.0000000001
12
-92.0118887450
22
-6.7293185783
32
0.0000000000
13
-92.0118887593
23
6.7293183832
33
0.0000000000
40
0.0000000000
40
0.0000000000
40
0.0000000000
40
0.0000000000
40
0.0558217423
40
0.1200364200
40
0.1918251507
40
0.2703812604
40
0.3548957503
40
0.4441218610
40
0.5359628630
40
0.6282253630
40
0.7186820964
40
0.8044732137
40
0.8822286199
40
0.9485586124
40
1.0000000000
40
1.0000000000
40
1.0000000000
40
1.0000000000
10
136.3395038045
20
-24.7296335144
30
0.0000000000
10
134.6274158237
20
-24.8548476103
30
0.0000000000
10
130.9447096026
20
-25.1090995374
30
0.0000000000
10
125.0561887588
20
-25.4638219522
30
0.0000000000
10
118.4661406127
20
-25.7951731287
30
0.0000000000
10
111.2490261244
20
-26.0786718994
30
0.0000000000
10
103.4929658445
20
-26.2908951212
30
0.0000000000
10
95.3263034538
20
-26.4107419567
30
0.0000000000
10
86.9204784951
20
-26.4229673584
30
0.0000000000
10
78.4774033488
20
-26.3217442234
30
0.0000000000
10
70.2224337892
20
-26.1126429019
30
0.0000000000
10
62.4166787178
20
-25.8143775472
30
0.0000000000
10
55.3561197825
20
-25.4601109387
30
0.0000000000
10
49.3541376281
20
-25.0956312163
30
0.0000000000
10
45.7410105272
20
-24.8450220046
30
0.0000000000
10
44.1632707831
20
-24.7296335128
30
0.0000000000
11
136.3395038045
21
-24.7296335144
31
0.0000000000
11
131.2017516755
21
-25.0843411071
31
0.0000000000
11
125.2881772329
21
-25.4405727723
31
0.0000000000
11
118.6734747228
21
-25.7731621846
31
0.0000000000
11
111.4316587894
21
-26.0576314968
31
0.0000000000
11
103.6374690416
21
-26.2709024396
31
0.0000000000
11
95.4065651816
21
-26.3916871494
31
0.0000000000
11
86.9335404081
21
-26.4040083696
31
0.0000000000
11
78.4222318416
21
-26.3019743902
31
0.0000000000
11
70.0795835753
21
-26.0906476654
31
0.0000000000
11
62.1704697988
21
-25.7884317221
31
0.0000000000
11
55.0059526725
21
-25.4289508716
31
0.0000000000
11
48.8977566507
21
-25.0580210967
31
0.0000000000
11
44.1632707831
21
-24.7296335128
31
0.0000000000
0
SPLINE
5
378
100
AcDbEntity
8
0
100
AcDbSpline
62
9
6
CONTINUOUS
70
0
71
3
72
10
73
6
74
4
42
0.0000001000
43
0.0000001000
44
0.0000000001
12
-0.0073126860
22
0.1001051692
32
0.0000000000
13
-0.0987853410
23
0.0177757328
33
0.0000000000
40
0.0000000000
40
0.0000000000
40
0.0000000000
40
0.0000000000
40
0.4966995259
40
0.8621921921
40
1.0000000000
40
1.0000000000
40
1.0000000000
40
1.0000000000
10
136.3501818890
20
-24.8293655122
30
0.0000000000
10
136.3489711531
20
-24.8127914488
30
0.0000000000
10
136.3487286643
20
-24.7815795740
30
0.0000000000
10
136.3393842533
20
-24.7553339254
30
0.0000000000
10
136.3440416016
20
-24.7304500593
30
0.0000000000
10
136.3395038045
20
-24.7296335144
30
0.0000000000
11
136.3501818890
21
-24.8293655122
31
0.0000000000
11
136.3460984001
21
-24.7796783485
31
0.0000000000
11
136.3421929187
21
-24.7432016314
31
0.0000000000
11
136.3395038045
21
-24.7296335144
31
0.0000000000
0
SPLINE
5
379
100
AcDbEntity
8
0
100
AcDbSpline
62
7
6
CONTINUOUS
70
0
71
3
72
9
73
5
74
3
42
0.0000001000
43
0.0000001000
44
0.0000000001
12
0.0000000000
22
-0.9467954256
32
0.0000000000
13
-0.0318929593
23
-0.9379799037
33
0.0000000000
40
0.0000000000
40
0.0000000000
40
0.0000000000
40
0.0000000000
40
0.5112230175
40
1.0000000000
40
1.0000000000
40
1.0000000000
40
1.0000000000
10
-17.1084140141
20
-39.6126997945
30
0.0000000000
10
-17.1084140141
20
-39.7740409993
30
0.0000000000
10
-17.1107716004
20
-40.0889296967
30
0.0000000000
10
-17.1167558302
20
-40.4065505981
30
0.0000000000
10
-17.1219520116
20
-40.5593715937
30
0.0000000000
11
-17.1084140141
21
-39.6126997945
31
0.0000000000
11
-17.1117723384
21
-40.0967117581
31
0.0000000000
11
-17.1219520116
21
-40.5593715937
31
0.0000000000
0
SPLINE
5
37A
100
AcDbEntity
8
0
100
AcDbSpline
62
7
6
CONTINUOUS
70
0
71
3
72
8
73
4
74
2
42
0.0000001000
43
0.0000001000
44
0.0000000001
12
-0.0047404887
22
-0.1394189569
32
0.0000000000
13
-0.0057102985
23
-0.1392599169
33
0.0000000000
40
0.0000000000
40
0.0000000000
40
0.0000000000
40
0.0000000000
40
1.0000000000
40
1.0000000000
40
1.0000000000
40
1.0000000000
10
-17.1219520116
20
-40.5593715937
30
0.0000000000
10
-17.1235321745
20
-40.6058445794
30
0.0000000000
10
-17.1253223744
20
-40.6520933270
30
0.0000000000
10
-17.1272258073
20
-40.6985132993
30
0.0000000000
11
-17.1219520116
21
-40.5593715937
31
0.0000000000
11
-17.1272258073
21
-40.6985132993
31
0.0000000000
0
SPLINE
5
37B
100
AcDbEntity
8
0
100
AcDbSpline
62
7
6
CONTINUOUS
70
0
71
3
72
11
73
7
74
5
42
0.0000001000
43
0.0000001000
44
0.0000000001
12
-0.0329593676
22
-0.8037966418
32
0.0000000000
13
-0.8122776472
23
0.0000010660
33
0.0000000000
40
0.0000000000
40
0.0000000000
40
0.0000000000
40
0.0000000000
40
0.3091695437
40
0.6795799938
40
0.9161838568
40
1.0000000000
40
1.0000000000
40
1.0000000000
40
1.0000000000
10
-17.1272258073
20
-40.6985132993
30
0.0000000000
10
-17.1306224848
20
-40.7813497796
30
0.0000000000
10
-17.1388812536
20
-40.9646296677
30
0.0000000000
10
-17.1487809381
20
-41.2299104067
30
0.0000000000
10
-17.1820874649
20
-41.3761866568
30
0.0000000000
10
-17.1857768139
20
-41.5048594312
30
0.0000000000
10
-17.2084708071
20
-41.5048594014
30
0.0000000000
11
-17.1272258073
21
-40.6985132993
31
0.0000000000
11
-17.1379474893
21
-40.9509057789
31
0.0000000000
11
-17.1586818869
21
-41.2510666187
31
0.0000000000
11
-17.1830420776
21
-41.4417045468
31
0.0000000000
11
-17.2084708071
21
-41.5048594014
31
0.0000000000
0
SPLINE
5
37C
100
AcDbEntity
8
0
100
AcDbSpline
62
7
6
CONTINUOUS
70
0
71
3
72
12
73
8
74
6
42
0.0000001000
43
0.0000001000
44
0.0000000001
12
1.1018962475
22
0.0000014461
32
0.0000000000
13
0.0277167303
23
-1.1005064356
33
0.0000000000
40
0.0000000000
40
0.0000000000
40
0.0000000000
40
0.0000000000
40
0.0617861979
40
0.2362019195
40
0.5092549675
40
0.8648789967
40
1.0000000000
40
1.0000000000
40
1.0000000000
40
1.0000000000
10
-17.2084708071
20
43.2951404672
30
0.0000000000
10
-17.1857768139
20
43.2951404970
30
0.0000000000
10
-17.1820874649
20
43.1664677226
30
0.0000000000
10
-17.1487809381
20
43.0201914725
30
0.0000000000
10
-17.1370091983
20
42.7047454781
30
0.0000000000
10
-17.1240614294
20
42.4305496461
30
0.0000000000
10
-17.1188435381
20
42.2510663083
30
0.0000000000
10
-17.1175951673
20
42.2014991304
30
0.0000000000
11
-17.2084708071
21
43.2951404672
31
0.0000000000
11
-17.1830420776
21
43.2319856126
31
0.0000000000
11
-17.1586818869
21
43.0413476845
31
0.0000000000
11
-17.1379474893
21
42.7411868447
31
0.0000000000
11
-17.1219520116
21
42.3496526595
31
0.0000000000
11
-17.1175951673
21
42.2014991304
31
0.0000000000
0
SPLINE
5
37D
100
AcDbEntity
8
0
100
AcDbSpline
62
7
6
CONTINUOUS
70
0
71
3
72
9
73
5
74
3
42
0.0000001000
43
0.0000001000
44
0.0000000001
12
0.0200702636
22
-0.7968997073
32
0.0000000000
13
0.0000000000
23
-0.7979060991
33
0.0000000000
40
0.0000000000
40
0.0000000000
40
0.0000000000
40
0.0000000000
40
0.3933827364
40
1.0000000000
40
1.0000000000
40
1.0000000000
40
1.0000000000
10
-17.1175951673
20
42.2014991304
30
0.0000000000
10
-17.1149634022
20
42.0970036012
30
0.0000000000
10
-17.1104008556
20
41.8296926039
30
0.0000000000
10
-17.1084140141
20
41.5643220650
30
0.0000000000
10
-17.1084140141
20
41.4029808602
30
0.0000000000
11
-17.1175951673
21
42.2014991304
31
0.0000000000
11
-17.1117723384
21
41.8869928239
31
0.0000000000
11
-17.1084140141
21
41.4029808602
31
0.0000000000
0
SPLINE
5
37E
100
AcDbEntity
8
0
100
AcDbSpline
62
7
6
CONTINUOUS
70
0
71
3
72
9
73
5
74
3
42
0.0000001000
43
0.0000001000
44
0.0000000001
12
-1.7671289969
22
0.0011367689
32
0.0000000000
13
-0.0000000004
23
-0.0000000001
33
0.0000000000
40
0.0000000000
40
0.0000000000
40
0.0000000000
40
0.0000000000
40
0.7499289030
40
1.0000000000
40
1.0000000000
40
1.0000000000
40
1.0000000000
10
-21.2883874059
20
43.0819031156
30
0.0000000000
10
-21.7301277759
20
43.0821872809
30
0.0000000000
10
-22.0983006537
20
43.0824240341
30
0.0000000000
10
-23.0555163747
20
43.0830172265
30
0.0000000000
10
-23.0555163747
20
43.0830172265
30
0.0000000000
11
-21.2883874059
21
43.0819031156
31
0.0000000000
11
-22.6136085241
21
43.0827428361
31
0.0000000000
11
-23.0555163747
21
43.0830172265
31
0.0000000000
0
SPLINE
5
37F
100
AcDbEntity
8
0
100
AcDbSpline
62
7
6
CONTINUOUS
70
0
71
3
72
8
73
4
74
2
42
0.0000001000
43
0.0000001000
44
0.0000000001
12
0.0393499925
22
-0.0840773468
32
0.0000000000
13
0.0393472450
23
-0.0840786329
33
0.0000000000
40
0.0000000000
40
0.0000000000
40
0.0000000000
40
0.0000000000
40
1.0000000000
40
1.0000000000
40
1.0000000000
40
1.0000000000
10
-23.8989865526
20
28.2606109729
30
0.0000000000
10
-23.8858698884
20
28.2325851906
30
0.0000000000
10
-23.8727536765
20
28.2045591967
30
0.0000000000
10
-23.8596379282
20
28.1765329857
30
0.0000000000
11
-23.8989865526
21
28.2606109729
31
0.0000000000
11
-23.8596379282
21
28.1765329857
31
0.0000000000
0
SPLINE
5
380
100
AcDbEntity
8
0
100
AcDbSpline
62
7
6
CONTINUOUS
70
0
71
3
72
9
73
5
74
3
42
0.0000001000
43
0.0000001000
44
0.0000000001
12
0.0618912930
22
-0.1322515796
32
0.0000000000
13
0.0618842786
23
-0.1322548623
33
0.0000000000
40
0.0000000000
40
0.0000000000
40
0.0000000000
40
0.0000000000
40
0.7947344953
40
1.0000000000
40
1.0000000000
40
1.0000000000
40
1.0000000000
10
-23.8596379282
20
28.1765329857
30
0.0000000000
10
-23.8432422130
20
28.1414980216
30
0.0000000000
10
-23.8226126936
20
28.0974137350
30
0.0000000000
10
-23.8019843563
20
28.0533288953
30
0.0000000000
10
-23.7977501204
20
28.0442797750
30
0.0000000000
11
-23.8596379282
21
28.1765329857
31
0.0000000000
11
-23.8104529782
21
28.0714270658
31
0.0000000000
11
-23.7977501204
21
28.0442797750
31
0.0000000000
0
SPLINE
5
381
100
AcDbEntity
8
0
100
AcDbSpline
62
7
6
CONTINUOUS
70
0
71
3
72
8
73
4
74
2
42
0.0000001000
43
0.0000001000
44
0.0000000001
12
0.0213127592
22
-0.0455481764
32
0.0000000000
13
0.0213119061
23
-0.0455485756
33
0.0000000000
40
0.0000000000
40
0.0000000000
40
0.0000000000
40
0.0000000000
40
1.0000000000
40
1.0000000000
40
1.0000000000
40
1.0000000000
10
-23.7977501204
20
28.0442797750
30
0.0000000000
10
-23.7906458673
20
28.0290970495
30
0.0000000000
10
-23.7835417555
20
28.0139142579
30
0.0000000000
10
-23.7764377868
20
27.9987313994
30
0.0000000000
11
-23.7977501204
21
28.0442797750
31
0.0000000000
11
-23.7764377868
21
27.9987313994
31
0.0000000000
0
SPLINE
5
382
100
AcDbEntity
8
0
100
AcDbSpline
62
7
6
CONTINUOUS
70
0
71
3
72
8
73
4
74
2
42
0.0000001000
43
0.0000001000
44
0.0000000001
12
0.0348411361
22
-0.0744637344
32
0.0000000000
13
0.0348388181
23
-0.0744648190
33
0.0000000000
40
0.0000000000
40
0.0000000000
40
0.0000000000
40
0.0000000000
40
1.0000000000
40
1.0000000000
40
1.0000000000
40
1.0000000000
10
-23.7764377868
20
27.9987313994
30
0.0000000000
10
-23.7648240748
20
27.9739101546
30
0.0000000000
10
-23.7532107451
20
27.9490887309
30
0.0000000000
10
-23.7415978058
20
27.9242671245
30
0.0000000000
11
-23.7764377868
21
27.9987313994
31
0.0000000000
11
-23.7415978058
21
27.9242671245
31
0.0000000000
0
SPLINE
5
383
100
AcDbEntity
8
0
100
AcDbSpline
62
7
6
CONTINUOUS
70
0
71
3
72
9
73
5
74
3
42
0.0000001000
43
0.0000001000
44
0.0000000001
12
0.4721165811
22
-1.0091064424
32
0.0000000000
13
0.4716277959
23
-1.0093349884
33
0.0000000000
40
0.0000000000
40
0.0000000000
40
0.0000000000
40
0.0000000000
40
0.4166915445
40
1.0000000000
40
1.0000000000
40
1.0000000000
40
1.0000000000
10
-23.7415978058
20
27.9242671245
30
0.0000000000
10
-23.6760221433
20
27.7841050838
30
0.0000000000
10
-23.5186798138
20
27.4477222973
30
0.0000000000
10
-23.3614173167
20
27.1113021793
30
0.0000000000
10
-23.2697158229
20
26.9150509683
30
0.0000000000
11
-23.7415978058
21
27.9242671245
31
0.0000000000
11
-23.5449095682
21
27.5037628761
31
0.0000000000
11
-23.2697158229
21
26.9150509683
31
0.0000000000
0
SPLINE
5
384
100
AcDbEntity
8
0
100
AcDbSpline
62
7
6
CONTINUOUS
70
0
71
3
72
8
73
4
74
2
42
0.0000001000
43
0.0000001000
44
0.0000000001
12
0.1398954326
22
-0.2993915032
32
0.0000000000
13
0.1398457226
23
-0.2994147326
33
0.0000000000
40
0.0000000000
40
0.0000000000
40
0.0000000000
40
0.0000000000
40
1.0000000000
40
1.0000000000
40
1.0000000000
40
1.0000000000
10
-23.2697158229
20
26.9150509683
30
0.0000000000
10
-23.2230840121
20
26.8152538005
30
0.0000000000
10
-23.1764602306
20
26.7154528802
30
0.0000000000
10
-23.1298449897
20
26.6156479693
30
0.0000000000
11
-23.2697158229
21
26.9150509683
31
0.0000000000
11
-23.1298449897
21
26.6156479693
31
0.0000000000
0
SPLINE
5
385
100
AcDbEntity
8
0
100
AcDbSpline
62
7
6
CONTINUOUS
70
0
71
3
72
8
73
4
74
2
42
0.0000001000
43
0.0000001000
44
0.0000000001
12
0.0147389531
22
-0.0315566298
32
0.0000000000
13
0.0147383821
23
-0.0315568966
33
0.0000000000
40
0.0000000000
40
0.0000000000
40
0.0000000000
40
0.0000000000
40
1.0000000000
40
1.0000000000
40
1.0000000000
40
1.0000000000
10
-23.1298449897
20
26.6156479693
30
0.0000000000
10
-23.1249320054
20
26.6051290928
30
0.0000000000
10
-23.1200191159
20
26.5946101718
30
0.0000000000
10
-23.1151063219
20
26.5840912063
30
0.0000000000
11
-23.1298449897
21
26.6156479693
31
0.0000000000
11
-23.1151063219
21
26.5840912063
31
0.0000000000
0
SPLINE
5
386
100
AcDbEntity
8
0
100
AcDbSpline
62
7
6
CONTINUOUS
70
0
71
3
72
8
73
4
74
2
42
0.0000001000
43
0.0000001000
44
0.0000000001
12
-0.0147318341
22
-0.0315428985
32
0.0000000000
13
-0.0147324060
23
-0.0315426312
33
0.0000000000
40
0.0000000000
40
0.0000000000
40
0.0000000000
40
0.0000000000
40
1.0000000000
40
1.0000000000
40
1.0000000000
40
1.0000000000
10
-23.1151127963
20
-24.7938241765
30
0.0000000000
10
-23.1200234077
20
-24.8043384760
30
0.0000000000
10
-23.1249341146
20
-24.8148527308
30
0.0000000000
10
-23.1298449166
20
-24.8253669412
30
0.0000000000
11
-23.1151127963
21
-24.7938241765
31
0.0000000000
11
-23.1298449166
21
-24.8253669412
31
0.0000000000
0
SPLINE
5
387
100
AcDbEntity
8
0
100
AcDbSpline
62
7
6
CONTINUOUS
70
0
71
3
72
8
73
4
74
2
42
0.0000001000
43
0.0000001000
44
0.0000000001
12
-0.1391884255
22
-0.2980076161
32
0.0000000000
13
-0.1392377732
23
-0.2979845560
33
0.0000000000
40
0.0000000000
40
0.0000000000
40
0.0000000000
40
0.0000000000
40
1.0000000000
40
1.0000000000
40
1.0000000000
40
1.0000000000
10
-23.1298449166
20
-24.8253669412
30
0.0000000000
10
-23.1762410584
20
-24.9247028132
30
0.0000000000
10
-23.2226456810
20
-25.0240347227
30
0.0000000000
10
-23.2690582721
20
-25.1233629080
30
0.0000000000
11
-23.1298449166
21
-24.8253669412
31
0.0000000000
11
-23.2690582721
21
-25.1233629080
31
0.0000000000
0
SPLINE
5
388
100
AcDbEntity
8
0
100
AcDbSpline
62
7
6
CONTINUOUS
70
0
71
3
72
9
73
5
74
3
42
0.0000001000
43
0.0000001000
44
0.0000000001
12
-0.4721201182
22
-1.0103903600
32
0.0000000000
13
-0.4726098872
23
-1.0101613542
33
0.0000000000
40
0.0000000000
40
0.0000000000
40
0.0000000000
40
0.0000000000
40
0.5833077283
40
1.0000000000
40
1.0000000000
40
1.0000000000
40
1.0000000000
10
-23.2690582721
20
-25.1233629080
30
0.0000000000
10
-23.3608553766
20
-25.3198190765
30
0.0000000000
10
-23.5182821889
20
-25.6565908879
30
0.0000000000
10
-23.6757889654
20
-25.9933253063
30
0.0000000000
10
-23.7414332613
20
-26.1336341161
30
0.0000000000
11
-23.2690582721
21
-25.1233629080
31
0.0000000000
11
-23.5445391368
21
-25.7126895542
31
0.0000000000
11
-23.7414332613
21
-26.1336341161
31
0.0000000000
0
SPLINE
5
389
100
AcDbEntity
8
0
100
AcDbSpline
62
7
6
CONTINUOUS
70
0
71
3
72
8
73
4
74
2
42
0.0000001000
43
0.0000001000
44
0.0000000001
12
-0.0689227202
22
-0.1473161486
32
0.0000000000
13
-0.0689316762
23
-0.1473119579
33
0.0000000000
40
0.0000000000
40
0.0000000000
40
0.0000000000
40
0.0000000000
40
1.0000000000
40
1.0000000000
40
1.0000000000
40
1.0000000000
10
-23.7414332613
20
-26.1336341161
30
0.0000000000
10
-23.7644075013
20
-26.1827394990
30
0.0000000000
10
-23.7873832650
20
-26.2318441690
30
0.0000000000
10
-23.8103604904
20
-26.2809481549
30
0.0000000000
11
-23.7414332613
21
-26.1336341161
31
0.0000000000
11
-23.8103604904
21
-26.2809481549
31
0.0000000000
0
SPLINE
5
38A
100
AcDbEntity
8
0
100
AcDbSpline
62
7
6
CONTINUOUS
70
0
71
3
72
8
73
4
74
2
42
0.0000001000
43
0.0000001000
44
0.0000000001
12
-0.0787730511
22
-0.1683436850
32
0.0000000000
13
-0.0787842270
23
-0.1683384544
33
0.0000000000
40
0.0000000000
40
0.0000000000
40
0.0000000000
40
0.0000000000
40
1.0000000000
40
1.0000000000
40
1.0000000000
40
1.0000000000
10
-23.8103604904
20
-26.2809481549
30
0.0000000000
10
-23.8366181741
20
-26.3370627166
30
0.0000000000
10
-23.8628777667
20
-26.3931763850
30
0.0000000000
10
-23.8891391757
20
-26.4492892031
30
0.0000000000
11
-23.8103604904
21
-26.2809481549
31
0.0000000000
11
-23.8891391757
21
-26.4492892031
31
0.0000000000
0
SPLINE
5
38B
100
AcDbEntity
8
0
100
AcDbSpline
62
7
6
CONTINUOUS
70
0
71
3
72
8
73
4
74
2
42
0.0000001000
43
0.0000001000
44
0.0000000001
12
-0.0098472655
22
-0.0210406767
32
0.0000000000
13
-0.0098474352
23
-0.0210405973
33
0.0000000000
40
0.0000000000
40
0.0000000000
40
0.0000000000
40
0.0000000000
40
1.0000000000
40
1.0000000000
40
1.0000000000
40
1.0000000000
10
-23.8891391757
20
-26.4492892031
30
0.0000000000
10
-23.8924215976
20
-26.4563027620
30
0.0000000000
10
-23.8957040478
20
-26.4633163077
30
0.0000000000
10
-23.8989865262
20
-26.4703298401
30
0.0000000000
11
-23.8891391757
21
-26.4492892031
31
0.0000000000
11
-23.8989865262
21
-26.4703298401
31
0.0000000000
0
SPLINE
5
38C
100
AcDbEntity
8
0
100
AcDbSpline
62
7
6
CONTINUOUS
70
0
71
3
72
8
73
4
74
2
42
0.0000001000
43
0.0000001000
44
0.0000000001
12
-0.0017487034
22
-0.0095493275
32
0.0000000000
13
-0.0007798383
23
-0.0060043855
33
0.0000000000
40
0.0000000000
40
0.0000000000
40
0.0000000000
40
0.0000000000
40
1.0000000000
40
1.0000000000
40
1.0000000000
40
1.0000000000
10
-23.1138874276
20
-24.7854600867
30
0.0000000000
10
-23.1144703288
20
-24.7886431959
30
0.0000000000
10
-23.1150701479
20
-24.7917940132
30
0.0000000000
10
-23.1153300940
20
-24.7937954751
30
0.0000000000
11
-23.1138874276
21
-24.7854600867
31
0.0000000000
11
-23.1153300940
21
-24.7937954751
31
0.0000000000
0
SPLINE
5
38D
100
AcDbEntity
8
0
100
AcDbSpline
62
7
6
CONTINUOUS
70
0
71
3
72
14
73
10
74
8
42
0.0000001000
43
0.0000001000
44
0.0000000001
12
0.0000011165
22
-0.7664565204
32
0.0000000000
13
-0.0222239057
23
-0.7660958816
33
0.0000000000
40
0.0000000000
40
0.0000000000
40
0.0000000000
40
0.0000000000
40
0.1545769174
40
0.3340760679
40
0.5061959295
40
0.6686477958
40
0.8195034193
40
0.9572227939
40
1.0000000000
40
1.0000000000
40
1.0000000000
40
1.0000000000
10
-23.0828841612
20
-23.6322694802
30
0.0000000000
10
-23.0828841037
20
-23.6717616423
30
0.0000000000
10
-23.0830316636
20
-23.7571132393
30
0.0000000000
10
-23.0837445270
20
-23.8864373057
30
0.0000000000
10
-23.0850202095
20
-24.0177689931
30
0.0000000000
10
-23.0867691830
20
-24.1417769615
30
0.0000000000
10
-23.0889348675
20
-24.2569867904
30
0.0000000000
10
-23.0909632686
20
-24.3416212315
30
0.0000000000
10
-23.0922516246
20
-24.3877144342
30
0.0000000000
10
-23.0925685168
20
-24.3986382480
30
0.0000000000
11
-23.0828841612
21
-23.6322694802
31
0.0000000000
11
-23.0830897880
21
-23.7507457348
31
0.0000000000
11
-23.0838532647
21
-23.8883218185
31
0.0000000000
11
-23.0851434996
21
-24.0202378107
31
0.0000000000
11
-23.0869119346
21
-24.1447374603
31
0.0000000000
11
-23.0891020335
21
-24.2603409153
31
0.0000000000
11
-23.0916512537
21
-24.3658659703
31
0.0000000000
11
-23.0925685168
21
-24.3986382480
31
0.0000000000
0
SPLINE
5
38E
100
AcDbEntity
8
0
100
AcDbSpline
62
7
6
CONTINUOUS
70
0
71
3
72
15
73
11
74
9
42
0.0000001000
43
0.0000001000
44
0.0000000001
12
-0.0112196319
22
-0.3867598199
32
0.0000000000
13
-0.0885587667
23
-0.4836021307
33
0.0000000000
40
0.0000000000
40
0.0000000000
40
0.0000000000
40
0.0000000000
40
0.1597829256
40
0.3745764603
40
0.5589328605
40
0.7127759852
40
0.8364406148
40
0.9301138073
40
0.9941483816
40
1.0000000000
40
1.0000000000
40
1.0000000000
40
1.0000000000
10
-23.0925685168
20
-24.3986382480
30
0.0000000000
10
-23.0931660854
20
-24.4192374532
30
0.0000000000
10
-23.0946632812
20
-24.4675265629
30
0.0000000000
10
-23.0973031780
20
-24.5395987915
30
0.0000000000
10
-23.1004467610
20
-24.6107581137
30
0.0000000000
10
-23.1037897061
20
-24.6705162405
30
0.0000000000
10
-23.1067656373
20
-24.7175461966
30
0.0000000000
10
-23.1104782878
20
-24.7555297880
30
0.0000000000
10
-23.1116694225
20
-24.7732172297
30
0.0000000000
10
-23.1137146903
20
-24.7845168017
30
0.0000000000
10
-23.1138874276
20
-24.7854600867
30
0.0000000000
11
-23.0925685168
21
-24.3986382480
31
0.0000000000
11
-23.0944928893
21
-24.4604367994
31
0.0000000000
11
-23.0975580798
21
-24.5434928180
31
0.0000000000
11
-23.1007763144
21
-24.6147553523
31
0.0000000000
11
-23.1040746195
21
-24.6741922160
31
0.0000000000
11
-23.1073703943
21
-24.7219295745
31
0.0000000000
11
-23.1105404151
21
-24.7580367435
31
0.0000000000
11
-23.1133829578
21
-24.7826507947
31
0.0000000000
11
-23.1138874276
21
-24.7854600867
31
0.0000000000
0
SPLINE
5
38F
100
AcDbEntity
8
0
100
AcDbSpline
62
7
6
CONTINUOUS
70
0
71
3
72
13
73
9
74
7
42
0.0000001000
43
0.0000001000
44
0.0000000001
12
-0.0074493756
22
-0.0629831336
32
0.0000000000
13
0.0080351247
23
-0.1402019730
33
0.0000000000
40
0.0000000000
40
0.0000000000
40
0.0000000000
40
0.0000000000
40
0.0031013675
40
0.0600200710
40
0.2075095615
40
0.4149757973
40
0.6794266096
40
1.0000000000
40
1.0000000000
40
1.0000000000
40
1.0000000000
10
-23.1146087536
20
26.5840315624
30
0.0000000000
10
-23.1146164546
20
26.5839664511
30
0.0000000000
10
-23.1147335956
20
26.5825936605
30
0.0000000000
10
-23.1129659105
20
26.5701360326
30
0.0000000000
10
-23.1109562382
20
26.5533847566
30
0.0000000000
10
-23.1081669309
20
26.5234215712
30
0.0000000000
10
-23.1054465691
20
26.4869167344
30
0.0000000000
10
-23.1037479062
20
26.4595267782
30
0.0000000000
10
-23.1028892905
20
26.4445451043
30
0.0000000000
11
-23.1146087536
21
26.5840315624
31
0.0000000000
11
-23.1146268826
21
26.5838186256
31
0.0000000000
11
-23.1137951239
21
26.5758802524
31
0.0000000000
11
-23.1112719361
21
26.5553519776
31
0.0000000000
11
-23.1085211825
21
26.5263888860
31
0.0000000000
11
-23.1057024683
21
26.4894116731
31
0.0000000000
11
-23.1028892905
21
26.4445451043
31
0.0000000000
0
SPLINE
5
390
100
AcDbEntity
8
0
100
AcDbSpline
62
7
6
CONTINUOUS
70
0
71
3
72
8
73
4
74
2
42
0.0000001000
43
0.0000001000
44
0.0000000001
12
0.0019655825
22
-0.0342967353
32
0.0000000000
13
0.0017419626
23
-0.0342441959
33
0.0000000000
40
0.0000000000
40
0.0000000000
40
0.0000000000
40
0.0000000000
40
1.0000000000
40
1.0000000000
40
1.0000000000
40
1.0000000000
10
-23.1028892905
20
26.4445451043
30
0.0000000000
10
-23.1022340963
20
26.4331128592
30
0.0000000000
10
-23.1016209402
20
26.4216963894
30
0.0000000000
10
-23.1010402860
20
26.4102816574
30
0.0000000000
11
-23.1028892905
21
26.4445451043
31
0.0000000000
11
-23.1010402860
21
26.4102816574
31
0.0000000000
0
SPLINE
5
391
100
AcDbEntity
8
0
100
AcDbSpline
62
7
6
CONTINUOUS
70
0
71
3
72
11
73
7
74
5
42
0.0000001000
43
0.0000001000
44
0.0000000001
12
0.0113059209
22
-0.2222562985
32
0.0000000000
13
0.0064449133
23
-0.2225540807
33
0.0000000000
40
0.0000000000
40
0.0000000000
40
0.0000000000
40
0.0000000000
40
0.0829225638
40
0.3546813754
40
0.6606599416
40
1.0000000000
40
1.0000000000
40
1.0000000000
40
1.0000000000
10
-23.1010402860
20
26.4102816574
30
0.0000000000
10
-23.1007277806
20
26.4041383034
30
0.0000000000
10
-23.0994313816
20
26.3778637332
30
0.0000000000
10
-23.0972867563
20
26.3288650476
30
0.0000000000
10
-23.0947667679
20
26.2608559827
30
0.0000000000
10
-23.0932661493
20
26.2129858082
30
0.0000000000
10
-23.0925371436
20
26.1878119700
30
0.0000000000
11
-23.1010402860
21
26.4102816574
31
0.0000000000
11
-23.1001295264
21
26.3918509171
31
0.0000000000
11
-23.0974615433
21
26.3314039960
31
0.0000000000
11
-23.0949197300
21
26.2633267987
31
0.0000000000
11
-23.0925371436
21
26.1878119700
31
0.0000000000
0
SPLINE
5
392
100
AcDbEntity
8
0
100
AcDbSpline
62
7
6
CONTINUOUS
70
0
71
3
72
15
73
11
74
9
42
0.0000001000
43
0.0000001000
44
0.0000000001
12
0.0221545080
22
-0.7650337450
32
0.0000000000
13
-0.0000001805
23
-0.7653470409
33
0.0000000000
40
0.0000000000
40
0.0000000000
40
0.0000000000
40
0.0000000000
40
0.1080562109
40
0.2249123418
40
0.3499083764
40
0.4822522620
40
0.6210074425
40
0.7651038863
40
0.9133416015
40
1.0000000000
40
1.0000000000
40
1.0000000000
40
1.0000000000
10
-23.0925371436
20
26.1878119700
30
0.0000000000
10
-23.0917391662
20
26.1602564207
30
0.0000000000
10
-23.0902280922
20
26.1028978471
30
0.0000000000
10
-23.0882759161
20
26.0136516928
30
0.0000000000
10
-23.0865771761
20
25.9182033777
30
0.0000000000
10
-23.0851617809
20
25.8171630260
30
0.0000000000
10
-23.0840578434
20
25.7112457313
30
0.0000000000
10
-23.0832906451
20
25.6012705960
30
0.0000000000
10
-23.0829423022
20
25.5045841448
30
0.0000000000
10
-23.0828841721
20
25.4446584622
30
0.0000000000
10
-23.0828841773
20
25.4225505459
30
0.0000000000
11
-23.0925371436
21
26.1878119700
31
0.0000000000
11
-23.0903463653
21
26.1051405307
31
0.0000000000
11
-23.0883800157
21
26.0157266984
31
0.0000000000
11
-23.0866692027
21
25.9200766975
31
0.0000000000
11
-23.0852437762
21
25.8187977751
31
0.0000000000
11
-23.0841318874
21
25.7126077800
31
0.0000000000
11
-23.0833591376
21
25.6023267531
31
0.0000000000
11
-23.0829485361
21
25.4888742537
31
0.0000000000
11
-23.0828841773
21
25.4225505459
31
0.0000000000
0
SPLINE
5
393
100
AcDbEntity
8
0
100
AcDbSpline
62
7
6
CONTINUOUS
70
0
71
3
72
11
73
7
74
5
42
0.0000001000
43
0.0000001000
44
0.0000000001
12
-3.5998864144
22
-0.0000047251
32
0.0000000000
13
3.5998864144
23
0.0000047251
33
0.0000000000
40
0.0000000000
40
0.0000000000
40
0.0000000000
40
0.0000000000
40
0.3749804979
40
0.5000000000
40
0.6250195021
40
1.0000000000
40
1.0000000000
40
1.0000000000
40
1.0000000000
10
-17.2084708071
20
43.2951404672
30
0.0000000000
10
-17.6584332072
20
43.2951398766
30
0.0000000000
10
-18.0334330763
20
43.2951393772
30
0.0000000000
10
-19.2521972769
20
43.2951112470
30
0.0000000000
10
-18.0334330763
20
43.2951393772
30
0.0000000000
10
-17.6584332072
20
43.2951398766
30
0.0000000000
10
-17.2084708071
20
43.2951404672
30
0.0000000000
11
-17.2084708071
21
43.2951404672
31
0.0000000000
11
-18.5583580072
21
43.2951267515
31
0.0000000000
11
-19.0084140141
21
43.2951168737
31
0.0000000000
11
-18.5583580072
21
43.2951267515
31
0.0000000000
11
-17.2084708071
21
43.2951404672
31
0.0000000000
0
SPLINE
5
394
100
AcDbEntity
8
0
100
AcDbSpline
62
7
6
CONTINUOUS
70
0
71
3
72
11
73
7
74
5
42
0.0000001000
43
0.0000001000
44
0.0000000001
12
-3.5998864144
22
0.0000047251
32
0.0000000000
13
3.5998864144
23
-0.0000047251
33
0.0000000000
40
0.0000000000
40
0.0000000000
40
0.0000000000
40
0.0000000000
40
0.3749804979
40
0.5000000000
40
0.6250195021
40
1.0000000000
40
1.0000000000
40
1.0000000000
40
1.0000000000
10
-17.2084708071
20
-41.5048594014
30
0.0000000000
10
-17.6584332072
20
-41.5048588108
30
0.0000000000
10
-18.0334330763
20
-41.5048583114
30
0.0000000000
10
-19.2521972769
20
-41.5048301812
30
0.0000000000
10
-18.0334330763
20
-41.5048583114
30
0.0000000000
10
-17.6584332072
20
-41.5048588108
30
0.0000000000
10
-17.2084708071
20
-41.5048594014
30
0.0000000000
11
-17.2084708071
21
-41.5048594014
31
0.0000000000
11
-18.5583580072
21
-41.5048456857
31
0.0000000000
11
-19.0084140141
21
-41.5048358079
31
0.0000000000
11
-18.5583580072
21
-41.5048456857
31
0.0000000000
11
-17.2084708071
21
-41.5048594014
31
0.0000000000
0
SPLINE
5
395
100
AcDbEntity
8
0
100
AcDbSpline
62
9
6
CONTINUOUS
70
0
71
3
72
12
73
8
74
6
42
0.0000001000
43
0.0000001000
44
0.0000000001
12
0.0000126046
22
0.9995908082
32
0.0000000000
13
-0.9995804629
23
0.0045477627
33
0.0000000000
40
0.0000000000
40
0.0000000000
40
0.0000000000
40
0.0000000000
40
0.3072258754
40
0.5854231794
40
0.8066618524
40
0.9490690162
40
1.0000000000
40
1.0000000000
40
1.0000000000
40
1.0000000000
10
-22.0885443629
20
41.1872071223
30
0.0000000000
10
-22.0885430720
20
41.2895738427
30
0.0000000000
10
-22.0893426136
20
41.4862724758
30
0.0000000000
10
-22.0988604298
20
41.7486556868
30
0.0000000000
10
-22.1017937752
20
41.9785548951
30
0.0000000000
10
-22.1274526039
20
42.0849866258
30
0.0000000000
10
-22.1231367370
20
42.1830626394
30
0.0000000000
10
-22.1401066092
20
42.1831398467
30
0.0000000000
11
-22.0885443629
21
41.1872071223
31
0.0000000000
11
-22.0910644142
21
41.4942969435
31
0.0000000000
11
-22.0984122903
21
41.7722833170
31
0.0000000000
11
-22.1098694856
21
41.9931344756
31
0.0000000000
11
-22.1242807078
21
42.1347520018
31
0.0000000000
11
-22.1401066092
21
42.1831398467
31
0.0000000000
0
SPLINE
5
396
100
AcDbEntity
8
0
100
AcDbSpline
62
9
6
CONTINUOUS
70
0
71
3
72
12
73
8
74
6
42
0.0000001000
43
0.0000001000
44
0.0000000001
12
-0.0465184795
22
1.8947430254
32
0.0000000000
13
-1.3062820899
23
1.3732596997
33
0.0000000000
40
0.0000000000
40
0.0000000000
40
0.0000000000
40
0.0000000000
40
0.3084916637
40
0.5864642719
40
0.8077716845
40
0.9502820420
40
1.0000000000
40
1.0000000000
40
1.0000000000
40
1.0000000000
10
-21.2368544503
20
41.1872071432
30
0.0000000000
10
-21.2416379714
20
41.3820446193
30
0.0000000000
10
-21.2486746790
20
41.7534248816
30
0.0000000000
10
-21.2707294218
20
42.2597741241
30
0.0000000000
10
-21.2590575523
20
42.6748678576
30
0.0000000000
10
-21.3100441352
20
42.9172592654
30
0.0000000000
10
-21.2667340164
20
43.0590523645
30
0.0000000000
10
-21.2883825758
20
43.0818109205
30
0.0000000000
11
-21.2368544503
21
41.1872071432
31
0.0000000000
11
-21.2515243906
21
41.7717116430
31
0.0000000000
11
-21.2652365727
21
42.2983785412
31
0.0000000000
11
-21.2766705766
21
42.7176697026
31
0.0000000000
11
-21.2846548200
21
42.9876535428
31
0.0000000000
11
-21.2883825758
21
43.0818109205
31
0.0000000000
0
SPLINE
5
397
100
AcDbEntity
8
0
100
AcDbSpline
62
9
6
CONTINUOUS
70
0
71
3
72
11
73
7
74
5
42
0.0000001000
43
0.0000001000
44
0.0000000001
12
0.0000022785
22
1.3574829440
32
0.0000000000
13
1.3556126804
23
0.0712334473
33
0.0000000000
40
0.0000000000
40
0.0000000000
40
0.0000000000
40
0.0000000000
40
0.2501462708
40
0.5002091358
40
0.7501507921
40
1.0000000000
40
1.0000000000
40
1.0000000000
40
1.0000000000
10
-22.1401065558
20
42.1831398467
30
0.0000000000
10
-22.1401063658
20
42.2963296121
30
0.0000000000
10
-22.0964572961
20
42.5249832636
30
0.0000000000
10
-21.9091110339
20
42.8175497842
30
0.0000000000
10
-21.6271468312
20
43.0202960746
30
0.0000000000
10
-21.4012869907
20
43.0759705755
30
0.0000000000
10
-21.2883874059
20
43.0819031156
30
0.0000000000
11
-22.1401065558
21
42.1831398467
31
0.0000000000
11
-22.0761243507
21
42.5166268544
31
0.0000000000
11
-21.8932878656
21
42.8026360256
31
0.0000000000
11
-21.6176271408
21
43.0004488432
31
0.0000000000
11
-21.2883874059
21
43.0819031156
31
0.0000000000
0
SPLINE
5
398
100
AcDbEntity
8
0
100
AcDbSpline
62
9
6
CONTINUOUS
70
0
71
3
72
12
73
8
74
6
42
0.0000001000
43
0.0000001000
44
0.0000000001
12
0.9995804711
22
0.0045458597
32
0.0000000000
13
-0.0000125666
23
0.9995908077
33
0.0000000000
40
0.0000000000
40
0.0000000000
40
0.0000000000
40
0.0000000000
40
0.0509309930
40
0.1933381386
40
0.4145768311
40
0.6927741162
40
1.0000000000
40
1.0000000000
40
1.0000000000
40
1.0000000000
10
-22.1401066092
20
-40.3928587809
30
0.0000000000
10
-22.1231367338
20
-40.3927816059
30
0.0000000000
10
-22.1274526086
20
-40.2947055177
30
0.0000000000
10
-22.1017937691
20
-40.1882738522
30
0.0000000000
10
-22.0988604349
20
-39.9583746127
30
0.0000000000
10
-22.0893426078
20
-39.6959914130
30
0.0000000000
10
-22.0885430759
20
-39.4992927796
30
0.0000000000
10
-22.0885443629
20
-39.3969260565
30
0.0000000000
11
-22.1401066092
21
-40.3928587809
31
0.0000000000
11
-22.1242807080
21
-40.3444709263
31
0.0000000000
11
-22.1098694853
21
-40.2028534185
31
0.0000000000
11
-22.0984122910
21
-39.9820022405
31
0.0000000000
11
-22.0910644129
21
-39.7040158860
31
0.0000000000
11
-22.0885443629
21
-39.3969260565
31
0.0000000000
0
SPLINE
5
399
100
AcDbEntity
8
0
100
AcDbSpline
62
9
6
CONTINUOUS
70
0
71
3
72
12
73
8
74
6
42
0.0000001000
43
0.0000001000
44
0.0000000001
12
1.3062877718
22
1.3732543157
32
0.0000000000
13
0.0465183397
23
1.8947430439
33
0.0000000000
40
0.0000000000
40
0.0000000000
40
0.0000000000
40
0.0000000000
40
0.0497179190
40
0.1922281767
40
0.4135355231
40
0.6915078747
40
1.0000000000
40
1.0000000000
40
1.0000000000
40
1.0000000000
10
-21.2883825765
20
-41.2915298696
30
0.0000000000
10
-21.2667339400
20
-41.2687714207
30
0.0000000000
10
-21.3100442560
20
-41.1269782109
30
0.0000000000
10
-21.2590574753
20
-40.8845871161
30
0.0000000000
10
-21.2707294772
20
-40.4694935480
30
0.0000000000
10
-21.2486746600
20
-39.9631442533
30
0.0000000000
10
-21.2416379622
20
-39.5917638469
30
0.0000000000
10
-21.2368544484
20
-39.3969260774
30
0.0000000000
11
-21.2883825765
21
-41.2915298696
31
0.0000000000
11
-21.2846548258
21
-41.1973725649
31
0.0000000000
11
-21.2766705811
21
-40.9273889118
31
0.0000000000
11
-21.2652365890
21
-40.5080978724
31
0.0000000000
11
-21.2515244037
21
-39.9814314565
31
0.0000000000
11
-21.2368544484
21
-39.3969260774
31
0.0000000000
0
SPLINE
5
39A
100
AcDbEntity
8
0
100
AcDbSpline
62
9
6
CONTINUOUS
70
0
71
3
72
11
73
7
74
5
42
0.0000001000
43
0.0000001000
44
0.0000000001
12
0.0000877543
22
-1.3574039850
32
0.0000000000
13
1.3555343613
23
-0.0712192496
33
0.0000000000
40
0.0000000000
40
0.0000000000
40
0.0000000000
40
0.0000000000
40
0.2501418353
40
0.5002027942
40
0.7501462209
40
1.0000000000
40
1.0000000000
40
1.0000000000
40
1.0000000000
10
-22.1401065078
20
-40.3928587809
30
0.0000000000
10
-22.1400991908
20
-40.5060399556
30
0.0000000000
10
-22.0964385159
20
-40.7346746154
30
0.0000000000
10
-21.9090862955
20
-41.0272104275
30
0.0000000000
10
-21.6271276070
20
-41.2299318764
30
0.0000000000
10
-21.4012777042
20
-41.2855984034
30
0.0000000000
10
-21.2883825765
20
-41.2915298696
30
0.0000000000
11
-22.1401065078
21
-40.3928587809
31
0.0000000000
11
-22.0761081091
21
-40.7263164396
31
0.0000000000
11
-21.8932666622
21
-41.0122959337
31
0.0000000000
11
-21.6176109614
21
-41.2100860251
31
0.0000000000
11
-21.2883825765
21
-41.2915298696
31
0.0000000000
0
SPLINE
5
39B
100
AcDbEntity
8
0
100
AcDbSpline
62
9
6
CONTINUOUS
70
0
71
3
72
9
73
5
74
3
42
0.0000001000
43
0.0000001000
44
0.0000000001
12
0.0168629934
22
-0.0361027413
32
0.0000000000
13
0.0051010211
23
-0.0394265830
33
0.0000000000
40
0.0000000000
40
0.0000000000
40
0.0000000000
40
0.0000000000
40
0.3760778351
40
1.0000000000
40
1.0000000000
40
1.0000000000
40
1.0000000000
10
-23.1212858078
20
26.6196465779
30
0.0000000000
10
-23.1191718751
20
26.6151207643
30
0.0000000000
10
-23.1165118540
20
26.6019231967
30
0.0000000000
10
-23.1145473658
20
26.5888329315
30
0.0000000000
10
-23.1134864857
20
26.5806332251
30
0.0000000000
11
-23.1212858078
21
26.6196465779
31
0.0000000000
11
-23.1172694975
21
26.6052093153
31
0.0000000000
11
-23.1134864857
21
26.5806332251
31
0.0000000000
0
SPLINE
5
39C
100
AcDbEntity
8
0
100
AcDbSpline
62
9
6
CONTINUOUS
70
0
71
3
72
12
73
8
74
6
42
0.0000001000
43
0.0000001000
44
0.0000000001
12
0.0237657715
22
-0.1836893336
32
0.0000000000
13
0.0088860596
23
-0.1854367538
33
0.0000000000
40
0.0000000000
40
0.0000000000
40
0.0000000000
40
0.0000000000
40
0.0091525828
40
0.2221938352
40
0.5079296272
40
0.8652406741
40
1.0000000000
40
1.0000000000
40
1.0000000000
40
1.0000000000
10
-23.1134864857
20
26.5806332251
30
0.0000000000
10
-23.1134139796
20
26.5800728145
30
0.0000000000
10
-23.1116724658
20
26.5664642613
30
0.0000000000
10
-23.1086829903
20
26.5351196489
30
0.0000000000
10
-23.1047716410
20
26.4823114060
30
0.0000000000
10
-23.1020407506
20
26.4342474040
30
0.0000000000
10
-23.1005299174
20
26.4038333200
30
0.0000000000
10
-23.1001307576
20
26.3955035427
30
0.0000000000
11
-23.1134864857
21
26.5806332251
31
0.0000000000
11
-23.1132712432
21
26.5789515156
31
0.0000000000
11
-23.1092306603
21
26.5396079448
31
0.0000000000
11
-23.1052329689
21
26.4867127500
31
0.0000000000
11
-23.1013736993
21
26.4204913177
31
0.0000000000
11
-23.1001307576
21
26.3955035427
31
0.0000000000
0
SPLINE
5
39D
100
AcDbEntity
8
0
100
AcDbSpline
62
9
6
CONTINUOUS
70
0
71
3
72
8
73
4
74
2
42
0.0000001000
43
0.0000001000
44
0.0000000001
12
-0.0001079820
22
-0.0432122204
32
0.0000000000
13
0.0184404344
23
-0.0397795820
33
0.0000000000
40
0.0000000000
40
0.0000000000
40
0.0000000000
40
0.0000000000
40
1.0000000000
40
1.0000000000
40
1.0000000000
40
1.0000000000
10
-23.1212857482
20
26.6196465779
30
0.0000000000
10
-23.1213217421
20
26.6052425045
30
0.0000000000
10
-23.1180750215
20
26.5905968974
30
0.0000000000
10
-23.1119282100
20
26.5773370367
30
0.0000000000
11
-23.1212857482
21
26.6196465779
31
0.0000000000
11
-23.1119282100
21
26.5773370367
31
0.0000000000
0
SPLINE
5
39E
100
AcDbEntity
8
0
100
AcDbSpline
62
9
6
CONTINUOUS
70
0
71
3
72
14
73
10
74
8
42
0.0000001000
43
0.0000001000
44
0.0000000001
12
-0.0114009397
22
-0.4178623845
32
0.0000000000
13
-0.0536317944
23
-0.4135162505
33
0.0000000000
40
0.0000000000
40
0.0000000000
40
0.0000000000
40
0.0000000000
40
0.1633195021
40
0.3895116368
40
0.5888360841
40
0.7572875197
40
0.8922609147
40
0.9929995969
40
1.0000000000
40
1.0000000000
40
1.0000000000
40
1.0000000000
10
-23.0917482283
20
-24.3730243940
30
0.0000000000
10
-23.0923688935
20
-24.3957727529
30
0.0000000000
10
-23.0939588458
20
-24.4500238973
30
0.0000000000
10
-23.0968278950
20
-24.5320237024
30
0.0000000000
10
-23.1004481215
20
-24.6147048670
30
0.0000000000
10
-23.1042915050
20
-24.6846656734
30
0.0000000000
10
-23.1083372709
20
-24.7408092035
30
0.0000000000
10
-23.1114764837
20
-24.7745443841
30
0.0000000000
10
-23.1133678062
20
-24.7894008799
30
0.0000000000
10
-23.1134929543
20
-24.7903658067
30
0.0000000000
11
-23.0917482283
21
-24.3730243940
31
0.0000000000
11
-23.0937563373
21
-24.4412654643
31
0.0000000000
11
-23.0971058046
21
-24.5357584868
31
0.0000000000
11
-23.1008037087
21
-24.6189975799
31
0.0000000000
11
-23.1047686530
21
-24.6893015830
31
0.0000000000
11
-23.1089059326
21
-24.7455709876
31
0.0000000000
11
-23.1131241287
21
-24.7874697629
31
0.0000000000
11
-23.1134929543
21
-24.7903658067
31
0.0000000000
0
SPLINE
5
39F
100
AcDbEntity
8
0
100
AcDbSpline
62
9
6
CONTINUOUS
70
0
71
3
72
9
73
5
74
3
42
0.0000001000
43
0.0000001000
44
0.0000000001
12
-0.0046201666
22
-0.0356227868
32
0.0000000000
13
-0.0116528554
23
-0.0340076017
33
0.0000000000
40
0.0000000000
40
0.0000000000
40
0.0000000000
40
0.0000000000
40
0.6802635826
40
1.0000000000
40
1.0000000000
40
1.0000000000
40
1.0000000000
10
-23.1134929543
20
-24.7903658067
30
0.0000000000
10
-23.1145405980
20
-24.7984434349
30
0.0000000000
10
-23.1163133030
20
-24.8102783733
30
0.0000000000
10
-23.1186265440
20
-24.8222053383
30
0.0000000000
10
-23.1198684914
20
-24.8258298279
30
0.0000000000
11
-23.1134929543
21
-24.7903658067
31
0.0000000000
11
-23.1172025490
21
-24.8145877762
31
0.0000000000
11
-23.1198684914
21
-24.8258298279
31
0.0000000000
0
SPLINE
5
3A0
100
AcDbEntity
8
0
100
AcDbSpline
62
9
6
CONTINUOUS
70
0
71
3
72
20
73
16
74
14
42
0.0000001000
43
0.0000001000
44
0.0000000001
12
-1.5096644179
22
-3.2319346619
32
0.0000000000
13
1.5080393380
23
3.2279898633
33
0.0000000000
40
0.0000000000
40
0.0000000000
40
0.0000000000
40
0.0000000000
40
0.1097722915
40
0.2200250463
40
0.3229684480
40
0.4110239946
40
0.4770444138
40
0.5144355463
40
0.5182497601
40
0.5498363132
40
0.6152553266
40
0.7088048035
40
0.8200717209
40
0.9348729893
40
1.0000000000
40
1.0000000000
40
1.0000000000
40
1.0000000000
10
-23.1212858078
20
-24.8293655122
30
0.0000000000
10
-23.1765255820
20
-24.9476244701
30
0.0000000000
10
-23.2872906816
20
-25.1847013576
30
0.0000000000
10
-23.4497984002
20
-25.5323739241
30
0.0000000000
10
-23.6018723137
20
-25.8575864884
30
0.0000000000
10
-23.7303669777
20
-26.1322661386
30
0.0000000000
10
-23.8292504566
20
-26.3435724622
30
0.0000000000
10
-23.8795258867
20
-26.4509903793
30
0.0000000000
10
-23.9207346798
20
-26.5390430887
30
0.0000000000
10
-23.8118857605
20
-26.3064668261
30
0.0000000000
10
-23.7573808234
20
-26.1899953849
30
0.0000000000
10
-23.6021668468
20
-25.8582267200
30
0.0000000000
10
-23.4478926315
20
-25.5282968348
30
0.0000000000
10
-23.2995556100
20
-25.2109389792
30
0.0000000000
10
-23.2090833763
20
-25.0173066024
30
0.0000000000
10
-23.1763453450
20
-24.9472301589
30
0.0000000000
11
-23.1212858078
21
-24.8293655122
31
0.0000000000
11
-23.2870350388
21
-25.1841284138
31
0.0000000000
11
-23.4535696214
21
-25.5404160969
31
0.0000000000
11
-23.6091178617
21
-25.8730578325
31
0.0000000000
11
-23.7422141086
21
-26.1575719145
31
0.0000000000
11
-23.8420307712
21
-26.3708764082
31
0.0000000000
11
-23.8985687129
21
-26.4916800813
31
0.0000000000
11
-23.9043359263
21
-26.5040031487
31
0.0000000000
11
-23.8565748922
21
-26.4019529787
31
0.0000000000
11
-23.7576647272
21
-26.1905928560
31
0.0000000000
11
-23.6162605835
21
-25.8883292518
31
0.0000000000
11
-23.4481351068
21
-25.5287918421
31
0.0000000000
11
-23.2747334066
21
-25.1578038414
31
0.0000000000
11
-23.1763453450
21
-24.9472301589
31
0.0000000000
0
SPLINE
5
3A1
100
AcDbEntity
8
0
100
AcDbSpline
62
9
6
CONTINUOUS
70
0
71
3
72
16
73
12
74
10
42
0.0000001000
43
0.0000001000
44
0.0000000001
12
-0.8244183963
22
-1.7641652686
32
0.0000000000
13
0.8386860898
23
1.7927069521
33
0.0000000000
40
0.0000000000
40
0.0000000000
40
0.0000000000
40
0.0000000000
40
0.2019229302
40
0.3904591110
40
0.5517288589
40
0.6726422684
40
0.7411224352
40
0.7481079951
40
0.8059573375
40
0.9257692995
40
1.0000000000
40
1.0000000000
40
1.0000000000
40
1.0000000000
10
-23.2870350388
20
-25.1841284138
30
0.0000000000
10
-23.3425246983
20
-25.3028702206
30
0.0000000000
10
-23.4497984002
20
-25.5323739241
30
0.0000000000
10
-23.6018723137
20
-25.8575864884
30
0.0000000000
10
-23.7303669777
20
-26.1322661386
30
0.0000000000
10
-23.8292504566
20
-26.3435724622
30
0.0000000000
10
-23.8795258867
20
-26.4509903793
30
0.0000000000
10
-23.9207346798
20
-26.5390430887
30
0.0000000000
10
-23.8118857605
20
-26.3064668261
30
0.0000000000
10
-23.7725458300
20
-26.2224014433
30
0.0000000000
10
-23.7218803037
20
-26.1141102908
30
0.0000000000
10
-23.7011282184
20
-26.0697523265
30
0.0000000000
11
-23.2870350388
21
-25.1841284138
31
0.0000000000
11
-23.4535696214
21
-25.5404160969
31
0.0000000000
11
-23.6091178617
21
-25.8730578325
31
0.0000000000
11
-23.7422141086
21
-26.1575719145
31
0.0000000000
11
-23.8420307712
21
-26.3708764082
31
0.0000000000
11
-23.8985687129
21
-26.4916800813
31
0.0000000000
11
-23.9043359263
21
-26.5040031487
31
0.0000000000
11
-23.8565748922
21
-26.4019529787
31
0.0000000000
11
-23.7576647272
21
-26.1905928560
31
0.0000000000
11
-23.7011282184
21
-26.0697523265
31
0.0000000000
0
SPLINE
5
3A2
100
AcDbEntity
8
0
100
AcDbSpline
62
9
6
CONTINUOUS
70
0
71
3
72
9
73
5
74
3
42
0.0000001000
43
0.0000001000
44
0.0000000001
12
0.1362011260
22
0.2910345177
32
0.0000000000
13
0.1294819615
23
0.2767700757
33
0.0000000000
40
0.0000000000
40
0.0000000000
40
0.0000000000
40
0.0000000000
40
0.5191897372
40
1.0000000000
40
1.0000000000
40
1.0000000000
40
1.0000000000
10
-23.8131852515
20
-26.3092403997
30
0.0000000000
10
-23.7896138425
20
-26.2588730214
30
0.0000000000
10
-23.7621914514
20
-26.2002702691
30
0.0000000000
10
-23.7218803037
20
-26.1141102908
30
0.0000000000
10
-23.7011282184
20
-26.0697523265
30
0.0000000000
11
-23.8131852515
21
-26.3092403997
31
0.0000000000
11
-23.7576647272
21
-26.1905928560
31
0.0000000000
11
-23.7011282184
21
-26.0697523265
31
0.0000000000
0
SPLINE
5
3A3
100
AcDbEntity
8
0
100
AcDbSpline
62
9
6
CONTINUOUS
70
0
71
3
72
11
73
7
74
5
42
0.0000001000
43
0.0000001000
44
0.0000000001
12
-0.1149584526
22
-0.2456271569
32
0.0000000000
13
0.1260039933
23
0.2692452881
33
0.0000000000
40
0.0000000000
40
0.0000000000
40
0.0000000000
40
0.0000000000
40
0.2684147123
40
0.3173235990
40
0.7223515415
40
1.0000000000
40
1.0000000000
40
1.0000000000
40
1.0000000000
10
-23.8659934663
20
-26.4220770106
30
0.0000000000
10
-23.8762789796
20
-26.4440536581
30
0.0000000000
10
-23.8888433450
20
-26.4708994177
30
0.0000000000
10
-23.9207346798
20
-26.5390430887
30
0.0000000000
10
-23.8591375341
20
-26.4074291596
30
0.0000000000
10
-23.8248468563
20
-26.3341589127
30
0.0000000000
10
-23.8131852515
20
-26.3092403997
30
0.0000000000
11
-23.8659934663
21
-26.4220770106
31
0.0000000000
11
-23.8985687129
21
-26.4916800813
31
0.0000000000
11
-23.9043359263
21
-26.5040031487
31
0.0000000000
11
-23.8565748922
21
-26.4019529787
31
0.0000000000
11
-23.8131852515
21
-26.3092403997
31
0.0000000000
0
SPLINE
5
3A4
100
AcDbEntity
8
0
100
AcDbSpline
62
9
6
CONTINUOUS
70
0
71
3
72
10
73
6
74
4
42
0.0000001000
43
0.0000001000
44
0.0000000001
12
-0.0468040118
22
-0.1000042720
32
0.0000000000
13
0.0169112126
23
0.0361324310
33
0.0000000000
40
0.0000000000
40
0.0000000000
40
0.0000000000
40
0.0000000000
40
0.6592712627
40
0.7793996388
40
1.0000000000
40
1.0000000000
40
1.0000000000
40
1.0000000000
10
-23.8659934663
20
-26.4220770106
30
0.0000000000
10
-23.8762789796
20
-26.4440536581
30
0.0000000000
10
-23.8888433450
20
-26.4708994177
30
0.0000000000
10
-23.9068182359
20
-26.5093071878
30
0.0000000000
10
-23.9075016660
20
-26.5107677071
30
0.0000000000
10
-23.9062581262
20
-26.5081107647
30
0.0000000000
11
-23.8659934663
21
-26.4220770106
31
0.0000000000
11
-23.8985687129
21
-26.4916800813
31
0.0000000000
11
-23.9043359263
21
-26.5040031487
31
0.0000000000
11
-23.9062581262
21
-26.5081107647
31
0.0000000000
0
SPLINE
5
3A5
100
AcDbEntity
8
0
100
AcDbSpline
62
9
6
CONTINUOUS
70
0
71
3
72
8
73
4
74
2
42
0.0000001000
43
0.0000001000
44
0.0000000001
12
-0.0001078306
22
0.0432122096
32
0.0000000000
13
0.0184405622
23
0.0397795072
33
0.0000000000
40
0.0000000000
40
0.0000000000
40
0.0000000000
40
0.0000000000
40
1.0000000000
40
1.0000000000
40
1.0000000000
40
1.0000000000
10
-23.1212858074
20
-24.8293655122
30
0.0000000000
10
-23.1213217509
20
-24.8149614423
30
0.0000000000
10
-23.1180749811
20
-24.8003158510
30
0.0000000000
10
-23.1119281270
20
-24.7870560153
30
0.0000000000
11
-23.1212858074
21
-24.8293655122
31
0.0000000000
11
-23.1119281270
21
-24.7870560153
31
0.0000000000
0
SPLINE
5
3A6
100
AcDbEntity
8
0
100
AcDbSpline
62
9
6
CONTINUOUS
70
0
71
3
72
9
73
5
74
3
42
0.0000001000
43
0.0000001000
44
0.0000000001
12
0.0000021650
22
0.0000010767
32
0.0000000000
13
0.1120809601
23
-0.2395439144
33
0.0000000000
40
0.0000000000
40
0.0000000000
40
0.0000000000
40
0.0000000000
40
0.2917761494
40
1.0000000000
40
1.0000000000
40
1.0000000000
40
1.0000000000
10
-23.9069585430
20
28.2998882755
30
0.0000000000
10
-23.9069583324
20
28.2998883802
30
0.0000000000
10
-23.8111284548
20
28.0951294601
30
0.0000000000
10
-23.7846469850
20
28.0385414323
30
0.0000000000
10
-23.7581875153
20
27.9819911945
30
0.0000000000
11
-23.9069585430
21
28.2998882755
31
0.0000000000
11
-23.8569404473
21
28.1930151218
31
0.0000000000
11
-23.7581875153
21
27.9819911945
31
0.0000000000
0
SPLINE
5
3A7
100
AcDbEntity
8
0
100
AcDbSpline
62
9
6
CONTINUOUS
70
0
71
3
72
16
73
12
74
10
42
0.0000001000
43
0.0000001000
44
0.0000000001
12
-0.8224853424
22
1.7579881226
32
0.0000000000
13
0.8208721239
23
-1.7566228333
33
0.0000000000
40
0.0000000000
40
0.0000000000
40
0.0000000000
40
0.0000000000
40
0.0321327416
40
0.1541554111
40
0.2234620399
40
0.2308421846
40
0.2888481013
40
0.4094410779
40
0.5821633801
40
0.7877757206
40
1.0000000000
40
1.0000000000
40
1.0000000000
40
1.0000000000
10
-23.7152075045
20
27.8901311223
30
0.0000000000
10
-23.7240170742
20
27.9089607816
30
0.0000000000
10
-23.7664029901
20
27.9995533003
30
0.0000000000
10
-23.8289722063
20
28.1332590121
30
0.0000000000
10
-23.8792717854
20
28.2407284906
30
0.0000000000
10
-23.9207934996
20
28.3294498455
30
0.0000000000
10
-23.8124229645
20
28.0978956868
30
0.0000000000
10
-23.7577849422
20
27.9811401612
30
0.0000000000
10
-23.6026588018
20
27.6495596310
30
0.0000000000
10
-23.4482434724
20
27.3193284123
30
0.0000000000
10
-23.3329659953
20
27.0726995623
30
0.0000000000
10
-23.2748963303
20
26.9484335573
30
0.0000000000
11
-23.7152075045
21
27.8901311223
31
0.0000000000
11
-23.7417210191
21
27.9467991305
31
0.0000000000
11
-23.8416417525
21
28.1603262453
31
0.0000000000
11
-23.8984010240
21
28.2816028423
31
0.0000000000
11
-23.9044449137
21
28.2945170982
31
0.0000000000
11
-23.8569404473
21
28.1930151218
31
0.0000000000
11
-23.7581875153
21
27.9819911945
31
0.0000000000
11
-23.6167839263
21
27.6797292352
31
0.0000000000
11
-23.4485135057
21
27.3198822967
31
0.0000000000
11
-23.2748963303
21
26.9484335573
31
0.0000000000
0
SPLINE
5
3A8
100
AcDbEntity
8
0
100
AcDbSpline
62
9
6
CONTINUOUS
70
0
71
3
72
19
73
15
74
13
42
0.0000001000
43
0.0000001000
44
0.0000000001
12
-1.4113992542
22
3.0215656687
32
0.0000000000
13
1.4169491739
23
-3.0321961240
33
0.0000000000
40
0.0000000000
40
0.0000000000
40
0.0000000000
40
0.0000000000
40
0.1173146272
40
0.2351133450
40
0.3451266125
40
0.4392916367
40
0.5099822513
40
0.5501332183
40
0.5544087105
40
0.5880129081
40
0.6578752678
40
0.7579373770
40
0.8770534623
40
1.0000000000
40
1.0000000000
40
1.0000000000
40
1.0000000000
10
-23.1212858078
20
26.6196465779
30
0.0000000000
10
-23.1764784002
20
26.7378045279
30
0.0000000000
10
-23.2871360097
20
26.9746513886
30
0.0000000000
10
-23.4494852454
20
27.3219851201
30
0.0000000000
10
-23.6014556520
20
27.6469766367
30
0.0000000000
10
-23.7298881960
20
27.9215239301
30
0.0000000000
10
-23.8289722063
20
28.1332590121
30
0.0000000000
10
-23.8792717854
20
28.2407284906
30
0.0000000000
10
-23.9207934996
20
28.3294498455
30
0.0000000000
10
-23.8124229645
20
28.0978956868
30
0.0000000000
10
-23.7577849422
20
27.9811401612
30
0.0000000000
10
-23.6026588018
20
27.6495596310
30
0.0000000000
10
-23.4482434724
20
27.3193284123
30
0.0000000000
10
-23.3329659953
20
27.0726995623
30
0.0000000000
10
-23.2748963303
20
26.9484335573
30
0.0000000000
11
-23.1212858078
21
26.6196465779
31
0.0000000000
11
-23.2868934428
21
26.9741064796
31
0.0000000000
11
-23.4532442039
21
27.3300011097
31
0.0000000000
11
-23.6086548408
21
27.6623489291
31
0.0000000000
11
-23.7417210191
21
27.9467991305
31
0.0000000000
11
-23.8416417525
21
28.1603262453
31
0.0000000000
11
-23.8984010240
21
28.2816028423
31
0.0000000000
11
-23.9044449137
21
28.2945170982
31
0.0000000000
11
-23.8569404473
21
28.1930151218
31
0.0000000000
11
-23.7581875153
21
27.9819911945
31
0.0000000000
11
-23.6167839263
21
27.6797292352
31
0.0000000000
11
-23.4485135057
21
27.3198822967
31
0.0000000000
11
-23.2748963303
21
26.9484335573
31
0.0000000000
0
SPLINE
5
3A9
100
AcDbEntity
8
0
100
AcDbSpline
62
9
6
CONTINUOUS
70
0
71
3
72
9
73
5
74
3
42
0.0000001000
43
0.0000001000
44
0.0000000001
12
-1.7671289526
22
-0.0011367689
32
0.0000000000
13
-0.0000000054
23
0.0000000001
33
0.0000000000
40
0.0000000000
40
0.0000000000
40
0.0000000000
40
0.0000000000
40
0.7499288370
40
1.0000000000
40
1.0000000000
40
1.0000000000
40
1.0000000000
10
-21.2883874068
20
-41.2916220498
30
0.0000000000
10
-21.7301277269
20
-41.2919062150
30
0.0000000000
10
-22.0983005523
20
-41.2921429683
30
0.0000000000
10
-23.0555163743
20
-41.2927361607
30
0.0000000000
10
-23.0555163747
20
-41.2927361607
30
0.0000000000
11
-21.2883874068
21
-41.2916220498
31
0.0000000000
11
-22.6136083760
21
-41.2924617702
31
0.0000000000
11
-23.0555163747
21
-41.2927361607
31
0.0000000000
0
SPLINE
5
3AA
100
AcDbEntity
8
0
100
AcDbSpline
62
7
6
CONTINUOUS
70
0
71
3
72
9
73
5
74
3
42
0.0000001000
43
0.0000001000
44
0.0000000001
12
-0.0000001484
22
-0.0872413252
32
0.0000000000
13
0.0367532004
23
-0.0788174945
33
0.0000000000
40
0.0000000000
40
0.0000000000
40
0.0000000000
40
0.0000000000
40
0.3400697915
40
1.0000000000
40
1.0000000000
40
1.0000000000
40
1.0000000000
10
-24.0084172100
20
26.6735625114
30
0.0000000000
10
-24.0084172268
20
26.6636731317
30
0.0000000000
10
-24.0062594898
20
26.6345935124
30
0.0000000000
10
-23.9977604206
20
26.6063768743
30
0.0000000000
10
-23.9896755715
20
26.5890388591
30
0.0000000000
11
-24.0084172100
21
26.6735625114
31
0.0000000000
11
-24.0062163055
21
26.6439947331
31
0.0000000000
11
-23.9896755715
21
26.5890388591
31
0.0000000000
0
SPLINE
5
3AB
100
AcDbEntity
8
0
100
AcDbSpline
62
7
6
CONTINUOUS
70
0
71
3
72
9
73
5
74
3
42
0.0000001000
43
0.0000001000
44
0.0000000001
12
-0.0367531905
22
-0.0788174732
32
0.0000000000
13
0.0000001504
23
-0.0872412777
33
0.0000000000
40
0.0000000000
40
0.0000000000
40
0.0000000000
40
0.0000000000
40
0.6599714085
40
1.0000000000
40
1.0000000000
40
1.0000000000
40
1.0000000000
10
-23.9896755715
20
-24.7987577933
30
0.0000000000
10
-23.9977609231
20
-24.8160968862
30
0.0000000000
10
-24.0062597539
20
-24.8443136595
30
0.0000000000
10
-24.0084172286
20
-24.8733932694
30
0.0000000000
10
-24.0084172116
20
-24.8832814457
30
0.0000000000
11
-23.9896755715
21
-24.7987577933
31
0.0000000000
11
-24.0062168384
21
-24.8537172325
31
0.0000000000
11
-24.0084172116
21
-24.8832814457
31
0.0000000000
0
SPLINE
5
3AC
100
AcDbEntity
8
0
100
AcDbSpline
62
7
6
CONTINUOUS
70
0
71
3
72
8
73
4
74
2
42
0.0000001000
43
0.0000001000
44
0.0000000001
12
-0.0011493680
22
0.0197509937
32
0.0000000000
13
0.0014732844
23
0.0196990480
33
0.0000000000
40
0.0000000000
40
0.0000000000
40
0.0000000000
40
0.0000000000
40
1.0000000000
40
1.0000000000
40
1.0000000000
40
1.0000000000
10
-23.2480922691
20
25.0231703732
30
0.0000000000
10
-23.2484753918
20
25.0297540377
30
0.0000000000
10
-23.2484163249
20
25.0363642202
30
0.0000000000
10
-23.2479252301
20
25.0429305695
30
0.0000000000
11
-23.2480922691
21
25.0231703732
31
0.0000000000
11
-23.2479252301
21
25.0429305695
31
0.0000000000
0
SPLINE
5
3AD
100
AcDbEntity
8
0
100
AcDbSpline
62
7
6
CONTINUOUS
70
0
71
3
72
8
73
4
74
2
42
0.0000001000
43
0.0000001000
44
0.0000000001
12
-0.0008942474
22
-0.0183626690
32
0.0000000000
13
0.0013579504
23
-0.0182743042
33
0.0000000000
40
0.0000000000
40
0.0000000000
40
0.0000000000
40
0.0000000000
40
1.0000000000
40
1.0000000000
40
1.0000000000
40
1.0000000000
10
-23.2481605209
20
-23.2343043611
30
0.0000000000
10
-23.2484586034
20
-23.2404252507
30
0.0000000000
10
-23.2483783489
20
-23.2465590943
30
0.0000000000
10
-23.2479256988
20
-23.2526505290
30
0.0000000000
11
-23.2481605209
21
-23.2343043611
31
0.0000000000
11
-23.2479256988
21
-23.2526505290
31
0.0000000000
0
SPLINE
5
3AE
100
AcDbEntity
8
0
100
AcDbSpline
62
9
6
CONTINUOUS
70
0
71
3
72
8
73
4
74
2
42
0.0000001000
43
0.0000001000
44
0.0000000001
12
-0.0978842332
22
0.2098799618
32
0.0000000000
13
-0.0000000031
23
-0.0000000014
33
0.0000000000
40
0.0000000000
40
0.0000000000
40
0.0000000000
40
0.0000000000
40
1.0000000000
40
1.0000000000
40
1.0000000000
40
1.0000000000
10
-23.9239397746
20
26.4924242884
30
0.0000000000
10
-23.9565678523
20
26.5623842757
30
0.0000000000
10
-23.9780034244
20
26.6083456256
30
0.0000000000
10
-23.9780034254
20
26.6083456251
30
0.0000000000
11
-23.9239397746
21
26.4924242884
31
0.0000000000
11
-23.9780034254
21
26.6083456251
31
0.0000000000
0
SPLINE
5
3AF
100
AcDbEntity
8
0
100
AcDbSpline
62
9
6
CONTINUOUS
70
0
71
3
72
8
73
4
74
2
42
0.0000001000
43
0.0000001000
44
0.0000000001
12
-0.0904785125
22
0.1940011516
32
0.0000000000
13
-0.0682479016
23
0.1463347724
33
0.0000000000
40
0.0000000000
40
0.0000000000
40
0.0000000000
40
0.0000000000
40
1.0000000000
40
1.0000000000
40
1.0000000000
40
1.0000000000
10
-23.8428406478
20
26.3185342467
30
0.0000000000
10
-23.8730001520
20
26.3832012972
30
0.0000000000
10
-23.9011904740
20
26.4436460309
30
0.0000000000
10
-23.9239397746
20
26.4924242884
30
0.0000000000
11
-23.8428406478
21
26.3185342467
31
0.0000000000
11
-23.9239397746
21
26.4924242884
31
0.0000000000
0
SPLINE
5
3B0
100
AcDbEntity
8
0
100
AcDbSpline
62
9
6
CONTINUOUS
70
0
71
3
72
9
73
5
74
3
42
0.0000001000
43
0.0000001000
44
0.0000000001
12
-0.3955380486
22
0.8481066398
32
0.0000000000
13
-0.5918090413
23
1.2689381418
33
0.0000000000
40
0.0000000000
40
0.0000000000
40
0.0000000000
40
0.0000000000
40
0.8215253673
40
1.0000000000
40
1.0000000000
40
1.0000000000
40
1.0000000000
10
-23.3638571082
20
25.2915053366
30
0.0000000000
10
-23.4721719551
20
25.5237523762
30
0.0000000000
10
-23.5953272523
20
25.7878234375
30
0.0000000000
10
-23.8076330141
20
26.2430431571
30
0.0000000000
10
-23.8428406478
20
26.3185342467
30
0.0000000000
11
-23.3638571082
21
25.2915053366
31
0.0000000000
11
-23.7346903554
21
26.0866415080
31
0.0000000000
11
-23.8428406478
21
26.3185342467
31
0.0000000000
0
SPLINE
5
3B1
100
AcDbEntity
8
0
100
AcDbSpline
62
9
6
CONTINUOUS
70
0
71
3
72
8
73
4
74
2
42
0.0000001000
43
0.0000001000
44
0.0000000001
12
-0.1237531272
22
0.2653468010
32
0.0000000000
13
-0.1107748591
23
0.2375217602
33
0.0000000000
40
0.0000000000
40
0.0000000000
40
0.0000000000
40
0.0000000000
40
1.0000000000
40
1.0000000000
40
1.0000000000
40
1.0000000000
10
-23.2479264224
20
25.0429297731
30
0.0000000000
10
-23.2891774648
20
25.1313787068
30
0.0000000000
10
-23.3269321552
20
25.2123314166
30
0.0000000000
10
-23.3638571082
20
25.2915053366
30
0.0000000000
11
-23.2479264224
21
25.0429297731
31
0.0000000000
11
-23.3638571082
21
25.2915053366
31
0.0000000000
0
SPLINE
5
3B2
100
AcDbEntity
8
0
100
AcDbSpline
62
9
6
CONTINUOUS
70
0
71
3
72
8
73
4
74
2
42
0.0000001000
43
0.0000001000
44
0.0000000001
12
-0.1237536947
22
-0.2653479897
32
0.0000000000
13
-0.1107752961
23
-0.2375227267
33
0.0000000000
40
0.0000000000
40
0.0000000000
40
0.0000000000
40
0.0000000000
40
1.0000000000
40
1.0000000000
40
1.0000000000
40
1.0000000000
10
-23.2479260596
20
-23.2526478681
30
0.0000000000
10
-23.2891772912
20
-23.3410971980
30
0.0000000000
10
-23.3269321343
20
-23.4220502381
30
0.0000000000
10
-23.3638572330
20
-23.5012244803
30
0.0000000000
11
-23.2479260596
21
-23.2526478681
31
0.0000000000
11
-23.3638572330
21
-23.5012244803
31
0.0000000000
0
SPLINE
5
3B3
100
AcDbEntity
8
0
100
AcDbSpline
62
9
6
CONTINUOUS
70
0
71
3
72
8
73
4
74
2
42
0.0000001000
43
0.0000001000
44
0.0000000001
12
-0.0736923510
22
-0.1580100327
32
0.0000000000
13
-0.0738443316
23
-0.1583365239
33
0.0000000000
40
0.0000000000
40
0.0000000000
40
0.0000000000
40
0.0000000000
40
1.0000000000
40
1.0000000000
40
1.0000000000
40
1.0000000000
10
-23.3638572330
20
-23.5012244803
30
0.0000000000
10
-23.3884213500
20
-23.5538944912
30
0.0000000000
10
-23.4126182665
20
-23.6057773012
30
0.0000000000
10
-23.4372330437
20
-23.6585561425
30
0.0000000000
11
-23.3638572330
21
-23.5012244803
31
0.0000000000
11
-23.4372330437
21
-23.6585561425
31
0.0000000000
0
SPLINE
5
3B4
100
AcDbEntity
8
0
100
AcDbSpline
62
9
6
CONTINUOUS
70
0
71
3
72
8
73
4
74
2
42
0.0000001000
43
0.0000001000
44
0.0000000001
12
-0.1504176235
22
-0.3225244662
32
0.0000000000
13
-0.1807256540
23
-0.3875098616
33
0.0000000000
40
0.0000000000
40
0.0000000000
40
0.0000000000
40
0.0000000000
40
1.0000000000
40
1.0000000000
40
1.0000000000
40
1.0000000000
10
-23.4372330437
20
-23.6585561425
30
0.0000000000
10
-23.4873722515
20
-23.7660642979
30
0.0000000000
10
-23.5392452421
20
-23.8772902558
30
0.0000000000
10
-23.5994871267
20
-24.0064602096
30
0.0000000000
11
-23.4372330437
21
-23.6585561425
31
0.0000000000
11
-23.5994871267
21
-24.0064602096
31
0.0000000000
0
SPLINE
5
3B5
100
AcDbEntity
8
0
100
AcDbSpline
62
9
6
CONTINUOUS
70
0
71
3
72
9
73
5
74
3
42
0.0000001000
43
0.0000001000
44
0.0000000001
12
-0.2067660021
22
-0.4433452754
32
0.0000000000
13
-0.2569552229
23
-0.5509552055
33
0.0000000000
40
0.0000000000
40
0.0000000000
40
0.0000000000
40
0.0000000000
40
0.5889493561
40
1.0000000000
40
1.0000000000
40
1.0000000000
40
1.0000000000
10
-23.5994871267
20
-24.0064602096
30
0.0000000000
10
-23.6400786947
20
-24.0934961811
30
0.0000000000
10
-23.7154522544
20
-24.2551109201
30
0.0000000000
10
-23.8076321647
20
-24.4527603515
30
0.0000000000
10
-23.8428393680
20
-24.5282505155
30
0.0000000000
11
-23.5994871267
21
-24.0064602096
31
0.0000000000
11
-23.7346905870
21
-24.2963610159
31
0.0000000000
11
-23.8428393680
21
-24.5282505155
31
0.0000000000
0
SPLINE
5
3B6
100
AcDbEntity
8
0
100
AcDbSpline
62
9
6
CONTINUOUS
70
0
71
3
72
8
73
4
74
2
42
0.0000001000
43
0.0000001000
44
0.0000000001
12
-0.2202486877
22
-0.4722502218
32
0.0000000000
13
-0.0000000361
23
0.0000000168
33
0.0000000000
40
0.0000000000
40
0.0000000000
40
0.0000000000
40
0.0000000000
40
1.0000000000
40
1.0000000000
40
1.0000000000
40
1.0000000000
10
-23.8428393680
20
-24.5282505155
30
0.0000000000
10
-23.9162555972
20
-24.6856672561
30
0.0000000000
10
-23.9780035197
20
-24.8180648214
30
0.0000000000
10
-23.9780035318
20
-24.8180648158
30
0.0000000000
11
-23.8428393680
21
-24.5282505155
31
0.0000000000
11
-23.9780035318
21
-24.8180648158
31
0.0000000000
0
SPLINE
5
3B7
100
AcDbEntity
8
0
100
AcDbSpline
62
9
6
CONTINUOUS
70
0
71
3
72
8
73
4
74
2
42
0.0000001000
43
0.0000001000
44
0.0000000001
12
-0.0245756857
22
0.0011952590
32
0.0000000000
13
-0.0245756852
23
0.0011952681
33
0.0000000000
40
0.0000000000
40
0.0000000000
40
0.0000000000
40
0.0000000000
40
1.0000000000
40
1.0000000000
40
1.0000000000
40
1.0000000000
10
-23.0779953775
20
-23.5317447775
30
0.0000000000
10
-23.0861872727
20
-23.5313463578
30
0.0000000000
10
-23.0943791679
20
-23.5309479367
30
0.0000000000
10
-23.1025710629
20
-23.5305495140
30
0.0000000000
11
-23.0779953775
21
-23.5317447775
31
0.0000000000
11
-23.1025710629
21
-23.5305495140
31
0.0000000000
0
SPLINE
5
3B8
100
AcDbEntity
8
0
100
AcDbSpline
62
9
6
CONTINUOUS
70
0
71
3
72
8
73
4
74
2
42
0.0000001000
43
0.0000001000
44
0.0000000001
12
-0.0343140289
22
0.0016687018
32
0.0000000000
13
-0.0343140287
23
0.0016687063
33
0.0000000000
40
0.0000000000
40
0.0000000000
40
0.0000000000
40
0.0000000000
40
1.0000000000
40
1.0000000000
40
1.0000000000
40
1.0000000000
10
-23.0968937499
20
-24.5266764910
30
0.0000000000
10
-23.1083317595
20
-24.5261202571
30
0.0000000000
10
-23.1197697691
20
-24.5255640224
30
0.0000000000
10
-23.1312077787
20
-24.5250077870
30
0.0000000000
11
-23.0968937499
21
-24.5266764910
31
0.0000000000
11
-23.1312077787
21
-24.5250077870
31
0.0000000000
0
SPLINE
5
3B9
100
AcDbEntity
8
0
100
AcDbSpline
62
9
6
CONTINUOUS
70
0
71
3
72
8
73
4
74
2
42
0.0000001000
43
0.0000001000
44
0.0000000001
12
0.0343167419
22
0.0016688383
32
0.0000000000
13
0.0343167421
23
0.0016688337
33
0.0000000000
40
0.0000000000
40
0.0000000000
40
0.0000000000
40
0.0000000000
40
1.0000000000
40
1.0000000000
40
1.0000000000
40
1.0000000000
10
-23.1312077787
20
26.3152888528
30
0.0000000000
10
-23.1197688647
20
26.3158451322
30
0.0000000000
10
-23.1083299507
20
26.3164014109
30
0.0000000000
10
-23.0968910367
20
26.3169576888
30
0.0000000000
11
-23.1312077787
21
26.3152888528
31
0.0000000000
11
-23.0968910367
21
26.3169576888
31
0.0000000000
0
SPLINE
5
3BA
100
AcDbEntity
8
0
100
AcDbSpline
62
9
6
CONTINUOUS
70
0
71
3
72
8
73
4
74
2
42
0.0000001000
43
0.0000001000
44
0.0000000001
12
0.0245756460
22
0.0011952662
32
0.0000000000
13
0.0245756465
23
0.0011952571
33
0.0000000000
40
0.0000000000
40
0.0000000000
40
0.0000000000
40
0.0000000000
40
1.0000000000
40
1.0000000000
40
1.0000000000
40
1.0000000000
10
-23.1025710629
20
25.3208305798
30
0.0000000000
10
-23.0943791809
20
25.3212290018
30
0.0000000000
10
-23.0861872988
20
25.3216274224
30
0.0000000000
10
-23.0779954167
20
25.3220258414
30
0.0000000000
11
-23.1025710629
21
25.3208305798
31
0.0000000000
11
-23.0779954167
21
25.3220258414
31
0.0000000000
0
SPLINE
5
3BB
100
AcDbEntity
8
0
100
AcDbSpline
62
9
6
CONTINUOUS
70
0
71
3
72
8
73
4
74
2
42
0.0000001000
43
0.0000001000
44
0.0000000001
12
-0.0219088731
22
0.0468405129
32
0.0000000000
13
0.0000000079
23
0.0000000039
33
0.0000000000
40
0.0000000000
40
0.0000000000
40
0.0000000000
40
0.0000000000
40
1.0000000000
40
1.0000000000
40
1.0000000000
40
1.0000000000
10
-23.9879410309
20
27.8464176887
30
0.0000000000
10
-23.9952439886
20
27.8620311930
30
0.0000000000
10
-23.9999654067
20
27.8721253440
30
0.0000000000
10
-23.9999654040
20
27.8721253453
30
0.0000000000
11
-23.9879410309
21
27.8464176887
31
0.0000000000
11
-23.9999654040
21
27.8721253453
31
0.0000000000
0
SPLINE
5
3BC
100
AcDbEntity
8
0
100
AcDbSpline
62
9
6
CONTINUOUS
70
0
71
3
72
13
73
9
74
7
42
0.0000001000
43
0.0000001000
44
0.0000000001
12
-0.5100053824
22
1.0903761946
32
0.0000000000
13
0.5200942487
23
-1.1133202933
33
0.0000000000
40
0.0000000000
40
0.0000000000
40
0.0000000000
40
0.0000000000
40
0.0435215206
40
0.1536062178
40
0.3544574877
40
0.6100120267
40
0.8986535648
40
1.0000000000
40
1.0000000000
40
1.0000000000
40
1.0000000000
10
-23.9879410309
20
27.8464176887
30
0.0000000000
10
-23.9953397674
20
27.8622359653
30
0.0000000000
10
-24.0121011734
20
27.8980709892
30
0.0000000000
10
-23.9106500345
20
27.6811738796
30
0.0000000000
10
-23.8354214845
20
27.5203000842
30
0.0000000000
10
-23.6967938662
20
27.2237959793
30
0.0000000000
10
-23.5870683754
20
26.9889984370
30
0.0000000000
10
-23.5196298867
20
26.8446490522
30
0.0000000000
10
-23.5020599874
20
26.8070387046
30
0.0000000000
11
-23.9879410309
21
27.8464176887
31
0.0000000000
11
-23.9999629627
21
27.8721201263
31
0.0000000000
11
-23.9426082231
21
27.7494960823
31
0.0000000000
11
-23.8379776445
21
27.5257600049
31
0.0000000000
11
-23.7048813244
21
27.2410732584
31
0.0000000000
11
-23.5546027508
21
26.9195043961
31
0.0000000000
11
-23.5020599874
21
26.8070387046
31
0.0000000000
0
SPLINE
5
3BD
100
AcDbEntity
8
0
100
AcDbSpline
62
9
6
CONTINUOUS
70
0
71
3
72
9
73
5
74
3
42
0.0000001000
43
0.0000001000
44
0.0000000001
12
0.2190419648
22
-0.4688839861
32
0.0000000000
13
0.2189542744
23
-0.4689703518
33
0.0000000000
40
0.0000000000
40
0.0000000000
40
0.0000000000
40
0.0000000000
40
0.4923664847
40
1.0000000000
40
1.0000000000
40
1.0000000000
40
1.0000000000
10
-23.5020599874
20
26.8070387046
30
0.0000000000
10
-23.4661103466
20
26.7300844513
30
0.0000000000
10
-23.3927170122
20
26.5729550132
30
0.0000000000
10
-23.3197225084
20
26.4166325891
30
0.0000000000
10
-23.2826729991
20
26.3372775663
30
0.0000000000
11
-23.5020599874
21
26.8070387046
31
0.0000000000
11
-23.3939341969
21
26.5755495533
31
0.0000000000
11
-23.2826729991
21
26.3372775663
31
0.0000000000
0
SPLINE
5
3BE
100
AcDbEntity
8
0
100
AcDbSpline
62
9
6
CONTINUOUS
70
0
71
3
72
19
73
15
74
13
42
0.0000001000
43
0.0000001000
44
0.0000000001
12
-1.4899977100
22
3.1918181698
32
0.0000000000
13
1.4891757620
23
-3.1896124568
33
0.0000000000
40
0.0000000000
40
0.0000000000
40
0.0000000000
40
0.0000000000
40
0.1131991297
40
0.2212141554
40
0.3216363209
40
0.4099555340
40
0.4791920206
40
0.5190533596
40
0.5574850198
40
0.6276041912
40
0.7168208168
40
0.8175884420
40
0.9253623845
40
1.0000000000
40
1.0000000000
40
1.0000000000
40
1.0000000000
10
-23.2259162457
20
26.2157037468
30
0.0000000000
10
-23.2821383937
20
26.3361407598
30
0.0000000000
10
-23.3918009067
20
26.5710082828
30
0.0000000000
10
-23.5525852960
20
26.9152096470
30
0.0000000000
10
-23.6970061111
20
27.2242498307
30
0.0000000000
10
-23.8346632023
20
27.5186780879
30
0.0000000000
10
-23.9093635522
20
27.6784233119
30
0.0000000000
10
-24.0323246816
20
27.9413077681
30
0.0000000000
10
-23.9106500345
20
27.6811738796
30
0.0000000000
10
-23.8354214845
20
27.5203000842
30
0.0000000000
10
-23.6967938662
20
27.2237959793
30
0.0000000000
10
-23.5518218393
20
26.9135756708
30
0.0000000000
10
-23.4102822228
20
26.6105720415
30
0.0000000000
10
-23.3197225084
20
26.4166325891
30
0.0000000000
10
-23.2826729991
20
26.3372775663
30
0.0000000000
11
-23.2259162457
21
26.2157037468
31
0.0000000000
11
-23.3946120796
21
26.5770010645
31
0.0000000000
11
-23.5556403547
21
26.9217251643
31
0.0000000000
11
-23.7054040119
21
27.2421914669
31
0.0000000000
11
-23.8371615097
21
27.5240146207
31
0.0000000000
11
-23.9404746886
21
27.7449343572
31
0.0000000000
11
-23.9999629627
21
27.8721201263
31
0.0000000000
11
-23.9426082231
21
27.7494960823
31
0.0000000000
11
-23.8379776445
21
27.5257600049
31
0.0000000000
11
-23.7048813244
21
27.2410732584
31
0.0000000000
11
-23.5546027508
21
26.9195043961
31
0.0000000000
11
-23.3939341969
21
26.5755495533
31
0.0000000000
11
-23.2826729991
21
26.3372775663
31
0.0000000000
0
SPLINE
5
3BF
100
AcDbEntity
8
0
100
AcDbSpline
62
9
6
CONTINUOUS
70
0
71
3
72
8
73
4
74
2
42
0.0000001000
43
0.0000001000
44
0.0000000001
12
-0.0782070479
22
0.1672507829
32
0.0000000000
13
0.0000000206
23
0.0000000096
33
0.0000000000
40
0.0000000000
40
0.0000000000
40
0.0000000000
40
0.0000000000
40
1.0000000000
40
1.0000000000
40
1.0000000000
40
1.0000000000
10
-23.8478467820
20
27.8493357724
30
0.0000000000
10
-23.8739157979
20
27.9050860333
30
0.0000000000
10
-23.9051996412
20
27.9719853178
30
0.0000000000
10
-23.9051996343
20
27.9719853210
30
0.0000000000
11
-23.8478467820
21
27.8493357724
31
0.0000000000
11
-23.9051996343
21
27.9719853210
31
0.0000000000
0
SPLINE
5
3C0
100
AcDbEntity
8
0
100
AcDbSpline
62
9
6
CONTINUOUS
70
0
71
3
72
13
73
9
74
7
42
0.0000001000
43
0.0000001000
44
0.0000000001
12
-0.7552324573
22
1.6151130006
32
0.0000000000
13
0.5553604767
23
-1.1890973867
33
0.0000000000
40
0.0000000000
40
0.0000000000
40
0.0000000000
40
0.0000000000
40
0.1040811983
40
0.2071689248
40
0.3952541322
40
0.6345657228
40
0.9048613543
40
1.0000000000
40
1.0000000000
40
1.0000000000
40
1.0000000000
10
-23.8478467820
20
27.8493357724
30
0.0000000000
10
-23.8740486150
20
27.9053700712
30
0.0000000000
10
-23.9366880953
20
28.0393221412
30
0.0000000000
10
-23.8158909315
20
27.7810022842
30
0.0000000000
10
-23.7406679911
20
27.6201018820
30
0.0000000000
10
-23.6020506920
20
27.3235486950
30
0.0000000000
10
-23.4922909454
20
27.0886214763
30
0.0000000000
10
-23.4248135783
20
26.9441541798
30
0.0000000000
10
-23.4072014971
20
26.9064444748
30
0.0000000000
11
-23.8478467820
21
27.8493357724
31
0.0000000000
11
-23.9051971932
21
27.9719801012
31
0.0000000000
11
-23.8478467390
21
27.8493357924
31
0.0000000000
11
-23.7432239667
21
27.6255627184
31
0.0000000000
11
-23.6101375572
21
27.3408288520
31
0.0000000000
11
-23.4598701591
21
27.0192067269
31
0.0000000000
11
-23.4072014971
21
26.9064444748
31
0.0000000000
0
SPLINE
5
3C1
100
AcDbEntity
8
0
100
AcDbSpline
62
9
6
CONTINUOUS
70
0
71
3
72
9
73
5
74
3
42
0.0000001000
43
0.0000001000
44
0.0000000001
12
0.2191989296
22
-0.4693327762
32
0.0000000000
13
0.2191082897
23
-0.4694131940
33
0.0000000000
40
0.0000000000
40
0.0000000000
40
0.0000000000
40
0.0000000000
40
0.4913912731
40
1.0000000000
40
1.0000000000
40
1.0000000000
40
1.0000000000
10
-23.4072014971
20
26.9064444748
30
0.0000000000
10
-23.3712973501
20
26.8295691314
30
0.0000000000
10
-23.2978525761
20
26.6722917986
30
0.0000000000
10
-23.2248072178
20
26.5158228771
30
0.0000000000
10
-23.1876604217
20
26.4362403281
30
0.0000000000
11
-23.4072014971
21
26.9064444748
31
0.0000000000
11
-23.2992135532
21
26.6751949172
31
0.0000000000
11
-23.1876604217
21
26.4362403281
31
0.0000000000
0
SPLINE
5
3C2
100
AcDbEntity
8
0
100
AcDbSpline
62
9
6
CONTINUOUS
70
0
71
3
72
19
73
15
74
13
42
0.0000001000
43
0.0000001000
44
0.0000000001
12
-1.4901872806
22
3.1929905887
32
0.0000000000
13
1.4893643354
23
-3.1907842033
33
0.0000000000
40
0.0000000000
40
0.0000000000
40
0.0000000000
40
0.0000000000
40
0.1131765243
40
0.2211697668
40
0.3215716775
40
0.4098730639
40
0.4790955634
40
0.5189488409
40
0.5573727336
40
0.6274777410
40
0.7166763604
40
0.8174236627
40
0.9251758716
40
1.0000000000
40
1.0000000000
40
1.0000000000
40
1.0000000000
10
-23.1312077787
20
26.3152888517
30
0.0000000000
10
-23.1874258511
20
26.4357460441
30
0.0000000000
10
-23.2970803300
20
26.6706526865
30
0.0000000000
10
-23.4578528662
20
27.0149112933
30
0.0000000000
10
-23.6022629337
20
27.3240026482
30
0.0000000000
10
-23.7399097748
20
27.6184796374
30
0.0000000000
10
-23.8146045531
20
27.7782512788
30
0.0000000000
10
-23.9375564917
20
28.0411791717
30
0.0000000000
10
-23.8158909315
20
27.7810022842
30
0.0000000000
10
-23.7406679911
20
27.6201018820
30
0.0000000000
10
-23.6020506920
20
27.3235486950
30
0.0000000000
10
-23.4570894522
20
27.0132770160
30
0.0000000000
10
-23.3154596071
20
26.7100074484
30
0.0000000000
10
-23.2248072178
20
26.5158228771
30
0.0000000000
10
-23.1876604217
20
26.4362403281
30
0.0000000000
11
-23.1312077787
21
26.3152888517
31
0.0000000000
11
-23.2998914016
21
26.6766467033
31
0.0000000000
11
-23.4609077003
21
27.0214278940
31
0.0000000000
11
-23.6106602181
21
27.3419472721
31
0.0000000000
11
-23.7424079025
21
27.6238170664
31
0.0000000000
11
-23.8457133713
21
27.8447733295
31
0.0000000000
11
-23.9051971932
21
27.9719801012
31
0.0000000000
11
-23.8478467390
21
27.8493357924
31
0.0000000000
11
-23.7432239667
21
27.6255627184
31
0.0000000000
11
-23.6101375572
21
27.3408288520
31
0.0000000000
11
-23.4598701591
21
27.0192067269
31
0.0000000000
11
-23.2992135532
21
26.6751949172
31
0.0000000000
11
-23.1876604217
21
26.4362403281
31
0.0000000000
0
SPLINE
5
3C3
100
AcDbEntity
8
0
100
AcDbSpline
62
9
6
CONTINUOUS
70
0
71
3
72
10
73
6
74
4
42
0.0000001000
43
0.0000001000
44
0.0000000001
12
-0.1496399286
22
-0.0082003396
32
0.0000000000
13
-0.0003730450
23
-0.1498639871
33
0.0000000000
40
0.0000000000
40
0.0000000000
40
0.0000000000
40
0.0000000000
40
0.3335823969
40
0.6670387595
40
1.0000000000
40
1.0000000000
40
1.0000000000
40
1.0000000000
10
-23.1312077364
20
26.3152880478
30
0.0000000000
10
-23.1478468184
20
26.3143762181
30
0.0000000000
10
-23.1812348445
20
26.3038420159
30
0.0000000000
10
-23.2170576787
20
26.2661991020
30
0.0000000000
10
-23.2258748374
20
26.2323367131
30
0.0000000000
10
-23.2259162405
20
26.2157037468
30
0.0000000000
11
-23.1312077364
21
26.3152880478
31
0.0000000000
11
-23.1788670544
21
26.3001948783
31
0.0000000000
11
-23.2133058682
21
26.2639830805
31
0.0000000000
11
-23.2259162405
21
26.2157037468
31
0.0000000000
0
SPLINE
5
3C4
100
AcDbEntity
8
0
100
AcDbSpline
62
9
6
CONTINUOUS
70
0
71
3
72
11
73
7
74
5
42
0.0000001000
43
0.0000001000
44
0.0000000001
12
0.1621697783
22
-0.3473537200
32
0.0000000000
13
0.0095860970
23
-0.3830329212
33
0.0000000000
40
0.0000000000
40
0.0000000000
40
0.0000000000
40
0.0000000000
40
0.0750111830
40
0.2566554476
40
0.5713852493
40
1.0000000000
40
1.0000000000
40
1.0000000000
40
1.0000000000
10
-23.2259162457
20
26.2157037468
30
0.0000000000
10
-23.2218613968
20
26.2070186090
30
0.0000000000
10
-23.2191083008
20
26.1734816405
30
0.0000000000
10
-23.2118443119
20
26.1015664691
30
0.0000000000
10
-23.2072542293
20
25.9829786724
30
0.0000000000
10
-23.2042144476
20
25.8881618280
30
0.0000000000
10
-23.2028448668
20
25.8334373080
30
0.0000000000
11
-23.2259162457
21
26.2157037468
31
0.0000000000
11
-23.2202085923
21
26.1875207118
31
0.0000000000
11
-23.2140514158
21
26.1181609858
31
0.0000000000
11
-23.2079356915
21
25.9976658872
31
0.0000000000
11
-23.2028448668
21
25.8334373080
31
0.0000000000
0
SPLINE
5
3C5
100
AcDbEntity
8
0
100
AcDbSpline
62
9
6
CONTINUOUS
70
0
71
3
72
10
73
6
74
4
42
0.0000001000
43
0.0000001000
44
0.0000000001
12
0.0115452602
22
-0.4613154600
32
0.0000000000
13
0.0008986385
23
-0.4616965413
33
0.0000000000
40
0.0000000000
40
0.0000000000
40
0.0000000000
40
0.0000000000
40
0.3921330947
40
0.7680603228
40
1.0000000000
40
1.0000000000
40
1.0000000000
40
1.0000000000
10
-23.2028448668
20
25.8334373080
30
0.0000000000
10
-23.2013357739
20
25.7731382883
30
0.0000000000
10
-23.1992911390
20
25.6549066075
30
0.0000000000
10
-23.1977728830
20
25.5010315468
30
0.0000000000
10
-23.1973961821
20
25.4074817463
30
0.0000000000
10
-23.1973267055
20
25.3717864974
30
0.0000000000
11
-23.2028448668
21
25.8334373080
31
0.0000000000
11
-23.1994769945
21
25.6524240330
31
0.0000000000
11
-23.1977631736
21
25.4788700060
31
0.0000000000
11
-23.1973267055
21
25.3717864974
31
0.0000000000
0
SPLINE
5
3C6
100
AcDbEntity
8
0
100
AcDbSpline
62
9
6
CONTINUOUS
70
0
71
3
72
8
73
4
74
2
42
0.0000001000
43
0.0000001000
44
0.0000000001
12
0.0000991801
22
-0.0509560764
32
0.0000000000
13
-0.0000000039
23
-0.0509555443
33
0.0000000000
40
0.0000000000
40
0.0000000000
40
0.0000000000
40
0.0000000000
40
1.0000000000
40
1.0000000000
40
1.0000000000
40
1.0000000000
10
-23.1973267055
20
25.3717864974
30
0.0000000000
10
-23.1972936455
20
25.3548011386
30
0.0000000000
10
-23.1972773996
20
25.3378157612
30
0.0000000000
10
-23.1972774009
20
25.3208305798
30
0.0000000000
11
-23.1973267055
21
25.3717864974
31
0.0000000000
11
-23.1972774009
21
25.3208305798
31
0.0000000000
0
SPLINE
5
3C7
100
AcDbEntity
8
0
100
AcDbSpline
62
9
6
CONTINUOUS
70
0
71
3
72
12
73
8
74
6
42
0.0000001000
43
0.0000001000
44
0.0000000001
12
0.1633046898
22
-0.4641755224
32
0.0000000000
13
0.0098915081
23
-0.4919514978
33
0.0000000000
40
0.0000000000
40
0.0000000000
40
0.0000000000
40
0.0000000000
40
0.0645015334
40
0.2215616580
40
0.4940642728
40
0.8653615348
40
1.0000000000
40
1.0000000000
40
1.0000000000
40
1.0000000000
10
-23.1312077364
20
26.3152880478
30
0.0000000000
10
-23.1276966021
20
26.3053080368
30
0.0000000000
10
-23.1254281310
20
26.2684656823
30
0.0000000000
10
-23.1188314456
20
26.1881886066
30
0.0000000000
10
-23.1144727709
20
26.0565797669
30
0.0000000000
10
-23.1107635457
20
25.9290513157
30
0.0000000000
10
-23.1089615306
20
25.8460972852
30
0.0000000000
10
-23.1085176048
20
25.8240187537
30
0.0000000000
11
-23.1312077364
21
26.3152880478
31
0.0000000000
11
-23.1263173357
21
26.2839281669
31
0.0000000000
11
-23.1208270204
21
26.2068397423
31
0.0000000000
11
-23.1150886089
21
26.0728737624
31
0.0000000000
11
-23.1099637375
21
25.8902435032
31
0.0000000000
11
-23.1085176048
21
25.8240187537
31
0.0000000000
0
SPLINE
5
3C8
100
AcDbEntity
8
0
100
AcDbSpline
62
9
6
CONTINUOUS
70
0
71
3
72
10
73
6
74
4
42
0.0000001000
43
0.0000001000
44
0.0000000001
12
0.0089886278
22
-0.4470469885
32
0.0000000000
13
0.0028101965
23
-0.4471440379
33
0.0000000000
40
0.0000000000
40
0.0000000000
40
0.0000000000
40
0.0000000000
40
0.3018195508
40
0.7329285020
40
1.0000000000
40
1.0000000000
40
1.0000000000
40
1.0000000000
10
-23.1085176048
20
25.8240187537
30
0.0000000000
10
-23.1076132902
20
25.7790429133
30
0.0000000000
10
-23.1057762503
20
25.6697949203
30
0.0000000000
10
-23.1039498521
20
25.5207649505
30
0.0000000000
10
-23.1031328070
20
25.4167034480
30
0.0000000000
10
-23.1028826325
20
25.3768969720
30
0.0000000000
11
-23.1085176048
21
25.8240187537
31
0.0000000000
11
-23.1061848277
21
25.6890697248
31
0.0000000000
11
-23.1038249206
21
25.4963139962
31
0.0000000000
11
-23.1028826325
21
25.3768969720
31
0.0000000000
0
SPLINE
5
3C9
100
AcDbEntity
8
0
100
AcDbSpline
62
9
6
CONTINUOUS
70
0
71
3
72
8
73
4
74
2
42
0.0000001000
43
0.0000001000
44
0.0000000001
12
0.0003523637
22
-0.0560663042
32
0.0000000000
13
0.0002713323
23
-0.0560663390
33
0.0000000000
40
0.0000000000
40
0.0000000000
40
0.0000000000
40
0.0000000000
40
1.0000000000
40
1.0000000000
40
1.0000000000
40
1.0000000000
10
-23.1028826325
20
25.3768969720
30
0.0000000000
10
-23.1027651779
20
25.3582082039
30
0.0000000000
10
-23.1026614701
20
25.3395193594
30
0.0000000000
10
-23.1025710260
20
25.3208305798
30
0.0000000000
11
-23.1028826325
21
25.3768969720
31
0.0000000000
11
-23.1025710260
21
25.3208305798
31
0.0000000000
0
SPLINE
5
3CA
100
AcDbEntity
8
0
100
AcDbSpline
62
9
6
CONTINUOUS
70
0
71
3
72
10
73
6
74
4
42
0.0000001000
43
0.0000001000
44
0.0000000001
12
-0.1496406482
22
0.0082004449
32
0.0000000000
13
-0.0003719727
23
0.1498647141
33
0.0000000000
40
0.0000000000
40
0.0000000000
40
0.0000000000
40
0.0000000000
40
0.3335822671
40
0.6670386317
40
1.0000000000
40
1.0000000000
40
1.0000000000
40
1.0000000000
10
-23.1312077786
20
-24.5250077857
30
0.0000000000
10
-23.1478469342
20
-24.5240959447
30
0.0000000000
10
-23.1812351130
20
-24.5135616270
30
0.0000000000
10
-23.2170579690
20
-24.4759183612
30
0.0000000000
10
-23.2258749606
20
-24.4420557344
30
0.0000000000
10
-23.2259162447
20
-24.4254226810
30
0.0000000000
11
-23.1312077786
21
-24.5250077857
31
0.0000000000
11
-23.1788672815
21
-24.5099144643
31
0.0000000000
11
-23.2133061088
21
-24.4737023455
31
0.0000000000
11
-23.2259162447
21
-24.4254226810
31
0.0000000000
0
SPLINE
5
3CB
100
AcDbEntity
8
0
100
AcDbSpline
62
9
6
CONTINUOUS
70
0
71
3
72
19
73
15
74
13
42
0.0000001000
43
0.0000001000
44
0.0000000001
12
-1.4333289366
22
-3.0704244102
32
0.0000000000
13
1.4337019716
23
3.0703484966
33
0.0000000000
40
0.0000000000
40
0.0000000000
40
0.0000000000
40
0.0000000000
40
0.1175733072
40
0.2297766101
40
0.3341150554
40
0.4259124365
40
0.4979292739
40
0.5394884656
40
0.5791852308
40
0.6520656610
40
0.7448177760
40
0.8495832632
40
0.9616590668
40
1.0000000000
40
1.0000000000
40
1.0000000000
40
1.0000000000
10
-23.2259162457
20
-24.4254226810
30
0.0000000000
10
-23.2820899869
20
-24.5457559985
30
0.0000000000
10
-23.3916642947
20
-24.7804346544
30
0.0000000000
10
-23.5523371561
20
-25.1243974460
30
0.0000000000
10
-23.6966781212
20
-25.4332670702
30
0.0000000000
10
-23.8343530340
20
-25.7277336753
30
0.0000000000
10
-23.9090226097
20
-25.8874132871
30
0.0000000000
10
-24.0321450386
20
-26.1506426494
30
0.0000000000
10
-23.9108452102
20
-25.8913100840
30
0.0000000000
10
-23.8356525889
20
-25.7305132780
30
0.0000000000
10
-23.6970413954
20
-25.4340444641
30
0.0000000000
10
-23.5520325203
20
-25.1237455475
30
0.0000000000
10
-23.4293389773
20
-24.8610871441
30
0.0000000000
10
-23.3574026668
20
-24.7070428806
30
0.0000000000
10
-23.3390795096
20
-24.6678028717
30
0.0000000000
11
-23.2259162457
21
-24.4254226810
31
0.0000000000
11
-23.3944668076
21
-24.7864089364
31
0.0000000000
11
-23.5553770439
21
-25.1308805390
31
0.0000000000
11
-23.7050630386
21
-25.4511809420
31
0.0000000000
11
-23.8368008296
21
-25.7329622046
31
0.0000000000
11
-23.9401756474
21
-25.9540139076
31
0.0000000000
11
-23.9998388716
21
-26.0815737650
31
0.0000000000
11
-23.9428492730
21
-25.9597304057
31
0.0000000000
11
-23.8382344459
21
-25.7360281331
31
0.0000000000
11
-23.7051263166
21
-25.4513163154
31
0.0000000000
11
-23.5548277668
21
-25.1297049293
31
0.0000000000
11
-23.3941005449
21
-24.7856246791
31
0.0000000000
11
-23.3390795096
21
-24.6678028717
31
0.0000000000
0
SPLINE
5
3CC
100
AcDbEntity
8
0
100
AcDbSpline
62
9
6
CONTINUOUS
70
0
71
3
72
9
73
5
74
3
42
0.0000001000
43
0.0000001000
44
0.0000000001
12
0.1633899219
22
0.3497537873
32
0.0000000000
13
0.1634657561
23
0.3500705506
33
0.0000000000
40
0.0000000000
40
0.0000000000
40
0.0000000000
40
0.0000000000
40
0.6637248508
40
1.0000000000
40
1.0000000000
40
1.0000000000
40
1.0000000000
10
-23.5028287223
20
-25.0184032016
30
0.0000000000
10
-23.4666800717
20
-24.9410231082
30
0.0000000000
10
-23.4119307087
20
-24.8238091144
30
0.0000000000
10
-23.3574026668
20
-24.7070428806
30
0.0000000000
10
-23.3390795096
20
-24.6678028717
30
0.0000000000
11
-23.5028287223
21
-25.0184032016
31
0.0000000000
11
-23.3941005449
21
-24.7856246791
31
0.0000000000
11
-23.3390795096
21
-24.6678028717
31
0.0000000000
0
SPLINE
5
3CD
100
AcDbEntity
8
0
100
AcDbSpline
62
9
6
CONTINUOUS
70
0
71
3
72
12
73
8
74
6
42
0.0000001000
43
0.0000001000
44
0.0000000001
12
0.0000002239
22
-0.0000001093
32
0.0000000000
13
0.4969098328
23
1.0636892036
33
0.0000000000
40
0.0000000000
40
0.0000000000
40
0.0000000000
40
0.0000000000
40
0.1152254940
40
0.3254051597
40
0.5928927209
40
0.8950256118
40
1.0000000000
40
1.0000000000
40
1.0000000000
40
1.0000000000
10
-23.9998427612
20
-26.0815820802
30
0.0000000000
10
-23.9998427526
20
-26.0815820844
30
0.0000000000
10
-23.9109423190
20
-25.8915177464
30
0.0000000000
10
-23.8356514620
20
-25.7305108688
30
0.0000000000
10
-23.6970417879
20
-25.4340453032
30
0.0000000000
10
-23.5874777988
20
-25.1995935364
30
0.0000000000
10
-23.5202163242
20
-25.0556232427
30
0.0000000000
10
-23.5028287223
20
-25.0184032016
30
0.0000000000
11
-23.9998427612
21
-26.0815820802
31
0.0000000000
11
-23.9428492730
21
-25.9597304057
31
0.0000000000
11
-23.8382344459
21
-25.7360281331
31
0.0000000000
11
-23.7051263166
21
-25.4513163154
31
0.0000000000
11
-23.5548277668
21
-25.1297049293
31
0.0000000000
11
-23.5028287223
21
-25.0184032016
31
0.0000000000
0
SPLINE
5
3CE
100
AcDbEntity
8
0
100
AcDbSpline
62
9
6
CONTINUOUS
70
0
71
3
72
19
73
15
74
13
42
0.0000001000
43
0.0000001000
44
0.0000000001
12
-1.4334622630
22
-3.0714471741
32
0.0000000000
13
1.4338264929
23
3.0713537818
33
0.0000000000
40
0.0000000000
40
0.0000000000
40
0.0000000000
40
0.0000000000
40
0.1175538493
40
0.2297383616
40
0.3340593307
40
0.4258413226
40
0.4978460744
40
0.5393982827
40
0.5790883823
40
0.6519565831
40
0.7446931506
40
0.8494410914
40
0.9614981269
40
1.0000000000
40
1.0000000000
40
1.0000000000
40
1.0000000000
10
-23.1312077786
20
-24.5250077857
30
0.0000000000
10
-23.1873774476
20
-24.6453612651
30
0.0000000000
10
-23.2969437277
20
-24.8800790088
30
0.0000000000
10
-23.4576047443
20
-25.2240990034
30
0.0000000000
10
-23.6019349678
20
-25.5330197708
30
0.0000000000
10
-23.7395996293
20
-25.8275351147
30
0.0000000000
10
-23.8142636359
20
-25.9872411331
30
0.0000000000
10
-23.9373768621
20
-26.2505139896
30
0.0000000000
10
-23.8160860926
20
-25.9911385577
30
0.0000000000
10
-23.7408990783
20
-25.8303151576
30
0.0000000000
10
-23.6022982028
20
-25.5337972674
30
0.0000000000
10
-23.4573001175
20
-25.2234469674
30
0.0000000000
10
-23.3345352277
20
-24.9605727414
30
0.0000000000
10
-23.2625246445
20
-24.8063323846
30
0.0000000000
10
-23.2441229760
20
-24.7669147601
30
0.0000000000
11
-23.1312077786
21
-24.5250077857
31
0.0000000000
11
-23.2997461399
21
-24.8860545225
31
0.0000000000
11
-23.4606444086
21
-25.2305831744
31
0.0000000000
11
-23.6103192698
21
-25.5509366256
31
0.0000000000
11
-23.7420472491
21
-25.8327645222
31
0.0000000000
11
-23.8454143523
21
-26.0538527741
31
0.0000000000
11
-23.9050731114
21
-26.1814336961
31
0.0000000000
11
-23.8480877709
21
-26.0595702012
31
0.0000000000
11
-23.7434807490
21
-25.8358309376
31
0.0000000000
11
-23.6103825311
21
-25.5510719957
31
0.0000000000
11
-23.4600951584
21
-25.2294073399
31
0.0000000000
11
-23.2993798889
21
-24.8852701022
31
0.0000000000
11
-23.2441229760
21
-24.7669147601
31
0.0000000000
0
SPLINE
5
3CF
100
AcDbEntity
8
0
100
AcDbSpline
62
9
6
CONTINUOUS
70
0
71
3
72
9
73
5
74
3
42
0.0000001000
43
0.0000001000
44
0.0000000001
12
0.1635009460
22
0.3500755654
32
0.0000000000
13
0.1635739333
23
0.3503864807
33
0.0000000000
40
0.0000000000
40
0.0000000000
40
0.0000000000
40
0.0000000000
40
0.6625073167
40
1.0000000000
40
1.0000000000
40
1.0000000000
40
1.0000000000
10
-23.4079814251
20
-25.1178333331
30
0.0000000000
10
-23.3718745674
20
-25.0405241253
30
0.0000000000
10
-23.3170887911
20
-24.9232040035
30
0.0000000000
10
-23.2625246445
20
-24.8063323846
30
0.0000000000
10
-23.2441229760
20
-24.7669147601
30
0.0000000000
11
-23.4079814251
21
-25.1178333331
31
0.0000000000
11
-23.2993798889
21
-24.8852701022
31
0.0000000000
11
-23.2441229760
21
-24.7669147601
31
0.0000000000
0
SPLINE
5
3D0
100
AcDbEntity
8
0
100
AcDbSpline
62
9
6
CONTINUOUS
70
0
71
3
72
12
73
8
74
6
42
0.0000001000
43
0.0000001000
44
0.0000000001
12
0.0000002256
22
-0.0000001055
32
0.0000000000
13
0.4969970445
23
1.0641315883
33
0.0000000000
40
0.0000000000
40
0.0000000000
40
0.0000000000
40
0.0000000000
40
0.1151979733
40
0.3253274669
40
0.5927512230
40
0.8948120878
40
1.0000000000
40
1.0000000000
40
1.0000000000
40
1.0000000000
10
-23.9050770007
20
-26.1814420127
30
0.0000000000
10
-23.9050769920
20
-26.1814420167
30
0.0000000000
10
-23.8161831939
20
-25.9913462538
30
0.0000000000
10
-23.7408979515
20
-25.8303127480
30
0.0000000000
10
-23.6022985953
20
-25.5337981066
30
0.0000000000
10
-23.4927040110
20
-25.2992245816
30
0.0000000000
10
-23.4254074522
20
-25.1551445931
30
0.0000000000
10
-23.4079814251
20
-25.1178333331
30
0.0000000000
11
-23.9050770007
21
-26.1814420127
31
0.0000000000
11
-23.8480877709
21
-26.0595702012
31
0.0000000000
11
-23.7434807490
21
-25.8358309376
31
0.0000000000
11
-23.6103825311
21
-25.5510719957
31
0.0000000000
11
-23.4600951584
21
-25.2294073399
31
0.0000000000
11
-23.4079814251
21
-25.1178333331
31
0.0000000000
0
SPLINE
5
3D1
100
AcDbEntity
8
0
100
AcDbSpline
62
9
6
CONTINUOUS
70
0
71
3
72
9
73
5
74
3
42
0.0000001000
43
0.0000001000
44
0.0000000001
12
0.0000000244
22
-0.2732188181
32
0.0000000000
13
-0.0030216206
23
-0.2732053008
33
0.0000000000
40
0.0000000000
40
0.0000000000
40
0.0000000000
40
0.0000000000
40
0.5819567136
40
1.0000000000
40
1.0000000000
40
1.0000000000
40
1.0000000000
10
-23.1972774009
20
-23.5305495140
30
0.0000000000
10
-23.1972773962
20
-23.5835500225
30
0.0000000000
10
-23.1975491173
20
-23.6746262541
30
0.0000000000
10
-23.1983390219
20
-23.7656889259
30
0.0000000000
10
-23.1987600780
20
-23.8037594731
30
0.0000000000
11
-23.1972774009
21
-23.5305495140
31
0.0000000000
11
-23.1977691511
21
-23.6895502790
31
0.0000000000
11
-23.1987600780
21
-23.8037594731
31
0.0000000000
0
SPLINE
5
3D2
100
AcDbEntity
8
0
100
AcDbSpline
62
9
6
CONTINUOUS
70
0
71
3
72
9
73
5
74
3
42
0.0000001000
43
0.0000001000
44
0.0000000001
12
-0.0026165040
22
-0.2365759520
32
0.0000000000
13
-0.0058724890
23
-0.2363960939
33
0.0000000000
40
0.0000000000
40
0.0000000000
40
0.0000000000
40
0.0000000000
40
0.2471243880
40
1.0000000000
40
1.0000000000
40
1.0000000000
40
1.0000000000
10
-23.1987600780
20
-23.8037594731
30
0.0000000000
10
-23.1989756120
20
-23.8232473689
30
0.0000000000
10
-23.1999441011
20
-23.9021085736
30
0.0000000000
10
-23.2013029813
20
-23.9809906082
30
0.0000000000
10
-23.2027767325
20
-24.0403162261
30
0.0000000000
11
-23.1987600780
21
-23.8037594731
31
0.0000000000
11
-23.1994781279
21
-23.8622256949
31
0.0000000000
11
-23.2027767325
21
-24.0403162261
31
0.0000000000
0
SPLINE
5
3D3
100
AcDbEntity
8
0
100
AcDbSpline
62
9
6
CONTINUOUS
70
0
71
3
72
11
73
7
74
5
42
0.0000001000
43
0.0000001000
44
0.0000000001
12
-0.0095857148
22
-0.3858713953
32
0.0000000000
13
-0.1633731882
23
-0.3499247765
33
0.0000000000
40
0.0000000000
40
0.0000000000
40
0.0000000000
40
0.0000000000
40
0.4216147342
40
0.7378813250
40
0.9233746942
40
1.0000000000
40
1.0000000000
40
1.0000000000
40
1.0000000000
10
-23.2027767325
20
-24.0403162261
30
0.0000000000
10
-23.2041238921
20
-24.0945459147
30
0.0000000000
10
-23.2071406695
20
-24.1893632607
30
0.0000000000
10
-23.2116599107
20
-24.3086306029
30
0.0000000000
10
-23.2190289223
20
-24.3819552210
30
0.0000000000
10
-23.2217434056
20
-24.4164849833
30
0.0000000000
10
-23.2259162457
20
-24.4254226810
30
0.0000000000
11
-23.2027767325
21
-24.0403162261
31
0.0000000000
11
-23.2077655073
21
-24.2030606816
31
0.0000000000
11
-23.2138641086
21
-24.3250454517
31
0.0000000000
11
-23.2201029349
21
-24.3964078446
31
0.0000000000
11
-23.2259162457
21
-24.4254226810
31
0.0000000000
0
SPLINE
5
3D4
100
AcDbEntity
8
0
100
AcDbSpline
62
9
6
CONTINUOUS
70
0
71
3
72
9
73
5
74
3
42
0.0000001000
43
0.0000001000
44
0.0000000001
12
-0.0011574269
22
-0.2391650518
32
0.0000000000
13
-0.0027094257
23
-0.2391461007
33
0.0000000000
40
0.0000000000
40
0.0000000000
40
0.0000000000
40
0.0000000000
40
0.7382528114
40
1.0000000000
40
1.0000000000
40
1.0000000000
40
1.0000000000
10
-23.1025710211
20
-23.5305495140
30
0.0000000000
10
-23.1028558457
20
-23.5894042712
30
0.0000000000
10
-23.1034197763
20
-23.6691268314
30
0.0000000000
10
-23.1042528303
20
-23.7488425080
30
0.0000000000
10
-23.1044892252
20
-23.7697077812
30
0.0000000000
11
-23.1025710211
21
-23.5305495140
31
0.0000000000
11
-23.1038351693
21
-23.7071113279
31
0.0000000000
11
-23.1044892252
21
-23.7697077812
31
0.0000000000
0
SPLINE
5
3D5
100
AcDbEntity
8
0
100
AcDbSpline
62
9
6
CONTINUOUS
70
0
71
3
72
9
73
5
74
3
42
0.0000001000
43
0.0000001000
44
0.0000000001
12
-0.0029673044
22
-0.2619076296
32
0.0000000000
13
-0.0052428706
23
-0.2618718082
33
0.0000000000
40
0.0000000000
40
0.0000000000
40
0.0000000000
40
0.0000000000
40
0.4932556618
40
1.0000000000
40
1.0000000000
40
1.0000000000
40
1.0000000000
10
-23.1044892252
20
-23.7697077812
30
0.0000000000
10
-23.1049771051
20
-23.8127702549
30
0.0000000000
10
-23.1061246240
20
-23.9000720980
30
0.0000000000
10
-23.1075899587
20
-23.9873866320
30
0.0000000000
10
-23.1084755570
20
-24.0316206507
30
0.0000000000
11
-23.1044892252
21
-23.7697077812
31
0.0000000000
11
-23.1061864704
21
-23.8988975994
31
0.0000000000
11
-23.1084755570
21
-24.0316206507
31
0.0000000000
0
SPLINE
5
3D6
100
AcDbEntity
8
0
100
AcDbSpline
62
9
6
CONTINUOUS
70
0
71
3
72
12
73
8
74
6
42
0.0000001000
43
0.0000001000
44
0.0000000001
12
-0.0098916036
22
-0.4940675263
32
0.0000000000
13
-0.1640088564
23
-0.4661705918
33
0.0000000000
40
0.0000000000
40
0.0000000000
40
0.0000000000
40
0.0000000000
40
0.1319444765
40
0.4982702510
40
0.7729797173
40
0.9338922969
40
1.0000000000
40
1.0000000000
40
1.0000000000
40
1.0000000000
10
-23.1084755570
20
-24.0316206507
30
0.0000000000
10
-23.1089106045
20
-24.0533504777
30
0.0000000000
10
-23.1106838653
20
-24.1353991429
30
0.0000000000
10
-23.1143596192
20
-24.2625782932
30
0.0000000000
10
-23.1186615982
20
-24.3949391336
30
0.0000000000
10
-23.1253592886
20
-24.4768054184
30
0.0000000000
10
-23.1275936392
20
-24.5147342219
30
0.0000000000
10
-23.1312077221
20
-24.5250067109
30
0.0000000000
11
-23.1084755570
21
-24.0316206507
31
0.0000000000
11
-23.1098915455
21
-24.0967995282
31
0.0000000000
11
-23.1149227936
21
-24.2777604909
31
0.0000000000
11
-23.1206553018
21
-24.4133953437
31
0.0000000000
11
-23.1262248518
21
-24.4927198461
31
0.0000000000
11
-23.1312077221
21
-24.5250067109
31
0.0000000000
0
ENDSEC
0
SECTION
2
OBJECTS
0
DICTIONARY
5
3D7
100
AcDbDictionary
3
ACAD_GROUP
350
3D8
3
ACAD_MLINESTYLE
350
3D9
0
DICTIONARY
5
3D8
102
{ACAD_REACTORS
330
3D7
102
}
100
AcDbDictionary
0
DICTIONARY
5
3D9
102
{ACAD_REACTORS
330
3D7
102
}
100
AcDbDictionary
3
STANDARD
350
3DA
0
MLINESTYLE
5
3DA
102
{ACAD_REACTORS
330
3D9
102
}
100
AcDbMlineStyle
2
STANDARD
70
0
3

62
256
51
90.0
52
90.0
71
2
49
0.5
62
256
6
BYLAYER
49
-0.5
62
256
6
BYLAYER
0
ENDSEC
0
EOF
