  0
SECTION
  2
HEADER
  9
$ACADVER
  1
AC1024
  9
$DWGCODEPAGE
  3
ANSI_1252
  9
$EXTMAX
 10
210.0
 20
297.0
 30
0.0
  9
$EXTMIN
 10
0.0
 20
0.0
 30
0.0
  9
$LIMMIN
 10
0.0
 20
0.0
  9
$LIMMAX
 10
210.0
 20
297.0
  9
$VIEWCTR
 10
105.0
 20
148.5
  9
$VIEWSIZE
 40
297.0
  9
$CLAYER
  8
0
  9
$LTSCALE
 40
19.36
  9
$CELTYPE
  6
BYLAYER
  9
$DIMSCALE
 40
1.0
  9
$DIMASZ
 40
3.0
  9
$DIMEXO
 40
0.5
  9
$DIMDLI
 40
13.376
  9
$DIMEXE
 40
1.5
  9
$DIMCEN
 40
3.168
  9
$DIMLFAC
 40
1.0
  9
$DIMBLK
  1
_FILLED
  9
$DIMALT
 70
0
  9
$DIMALTF
 40
0.0393700787
  9
$DIMTXT
 40
3.0
  9
$DIMTOL
 70
1
  9
$DIMLIM
 70
0
  9
$DIMTFAC
 40
1.0
  9
$DIMTP
 40
0.01
  9
$DIMTM
 40
0.01
  9
$DIMGAP
 40
0.625
  9
$DIMDSEP
 70
44
  9
$AUNITS
 70
0
  9
$PDMODE
 70
3
  9
$PDSIZE
 40
3.0
  9
$HANDSEED
  5
307
  9
$TILEMODE
 70
1
  9
$MEASUREMENT
 70
1
  9
$INSUNITS
 70
4
  0
ENDSEC
  0
SECTION
  2
CLASSES
  0
CLASS
  1
ACDBDICTIONARYWDFLT
  2
AcDbDictionaryWithDefault
  3
AutoCAD 2000
 90
0
 91
1
280
0
281
0
  0
CLASS
  1
ACDBPLACEHOLDER
  2
AcDbPlaceHolder
  3
AutoCAD 2000
 90
0
 91
1
280
0
281
0
  0
CLASS
  1
LAYOUT
  2
AcDbLayout
  3
AutoCAD 2000
 90
0
 91
0
280
0
281
0
  0
ENDSEC
  0
SECTION
  2
TABLES
  0
TABLE
  2
VPORT
  5
8
100
AcDbSymbolTable
 70
2
  0
VPORT
  5
1F4
100
AcDbSymbolTableRecord
100
AcDbViewportTableRecord
  2
*ACTIVE
 70
0
 10
0.0
 20
0.0
 11
1.0
 21
1.0
 12
105.0
 22
148.5
 13
0.0
 23
0.0
 14
1.0
 24
1.0
 15
0.0
 25
0.0
 16
0.0
 26
0.0
 36
1.0
 17
0.0
 27
0.0
 37
0.0
 40
297.0
 41
0.7070707071
 42
50.0
 43
0.0
 44
0.0
 50
0.0
 51
0.0
 71
0
 72
100
 73
1
 74
1
 75
0
 76
0
 77
0
 78
0
  0
ENDTAB
  0
TABLE
  2
LTYPE
  5
5
100
AcDbSymbolTable
 70
6
  0
LTYPE
  5
14
100
AcDbSymbolTableRecord
100
AcDbLinetypeTableRecord
  2
BYBLOCK
 70
0
  3

 72
65
 73
0
 40
0.0
  0
LTYPE
  5
15
100
AcDbSymbolTableRecord
100
AcDbLinetypeTableRecord
  2
BYLAYER
 70
0
  3

 72
65
 73
0
 40
0.0
  0
LTYPE
  5
16
100
AcDbSymbolTableRecord
100
AcDbLinetypeTableRecord
  2
CONTINUOUS
 70
64
  3
Solid line
 72
65
 73
0
 40
0.0
  0
LTYPE
  5
1F5
100
AcDbSymbolTableRecord
100
AcDbLinetypeTableRecord
  2
CENTER
 70
64
  3
____ _ ____ _ ____ _ ____ _ ____ _ ____ _ ____
 72
65
 73
4
 40
0.6
 49
0.375
 74
0
 49
-0.075
 74
0
 49
0.075
 74
0
 49
-0.075
 74
0
  0
LTYPE
  5
1F6
100
AcDbSymbolTableRecord
100
AcDbLinetypeTableRecord
  2
HIDDEN
 70
64
  3
- - - - - - - - - - - - - - - - - - - -
 72
65
 73
2
 40
0.2
 49
0.1
 74
0
 49
-0.1
 74
0
  0
LTYPE
  5
1F7
100
AcDbSymbolTableRecord
100
AcDbLinetypeTableRecord
  2
PHANTOM
 70
64
  3
_____ _ _ _____ _ _ _____ _ _ _____
 72
65
 73
6
 40
0.8
 49
0.45
 74
0
 49
-0.05
 74
0
 49
0.1
 74
0
 49
-0.05
 74
0
 49
0.1
 74
0
 49
-0.05
 74
0
  0
LTYPE
  5
1F8
100
AcDbSymbolTableRecord
100
AcDbLinetypeTableRecord
  2
DOT
 70
64
  3
. . . . . . . . . . . . . . . . . . . .
 72
65
 73
2
 40
0.2
 49
0.1
 74
0
 49
-0.1
 74
0
  0
LTYPE
  5
1F9
100
AcDbSymbolTableRecord
100
AcDbLinetypeTableRecord
  2
DASHED
 70
64
  3
- - - - - - - - - - - - - - - - - - - -
 72
65
 73
2
 40
0.2
 49
0.1
 74
0
 49
-0.1
 74
0
  0
ENDTAB
  0
TABLE
  2
LAYER
  5
2
100
AcDbSymbolTable
 70
36
  0
LAYER
  5
10
100
AcDbSymbolTableRecord
100
AcDbLayerTableRecord
  2
0
 70
0
 62
7
  6
CONTINUOUS
370
-3
390
F
  0
LAYER
  5
1FA
100
AcDbSymbolTableRecord
100
AcDbLayerTableRecord
  2
DEFAULT_1
 70
0
 62
7
  6
CENTER
370
-3
390
F
  0
LAYER
  5
1FB
100
AcDbSymbolTableRecord
100
AcDbLayerTableRecord
  2
DEFAULT_2
 70
0
 62
7
  6
HIDDEN
370
-3
390
F
  0
LAYER
  5
1FC
100
AcDbSymbolTableRecord
100
AcDbLayerTableRecord
  2
DEFAULT_3
 70
0
 62
7
  6
PHANTOM
370
-3
390
F
  0
LAYER
  5
1FD
100
AcDbSymbolTableRecord
100
AcDbLayerTableRecord
  2
ASSI
 70
0
 62
7
  6
CONTINUOUS
370
-3
390
F
  0
LAYER
  5
1FE
100
AcDbSymbolTableRecord
100
AcDbLayerTableRecord
  2
COORDINATE
 70
0
 62
7
  6
CONTINUOUS
370
-3
390
F
  0
LAYER
  5
1FF
100
AcDbSymbolTableRecord
100
AcDbLayerTableRecord
  2
COPY_PUBLISH
 70
0
 62
7
  6
CONTINUOUS
370
-3
390
F
  0
LAYER
  5
200
100
AcDbSymbolTableRecord
100
AcDbLayerTableRecord
  2
COSMETICI
 70
0
 62
7
  6
CONTINUOUS
370
-3
390
F
  0
LAYER
  5
201
100
AcDbSymbolTableRecord
100
AcDbLayerTableRecord
  2
CURVE
 70
0
 62
7
  6
CONTINUOUS
370
-3
390
F
  0
LAYER
  5
202
100
AcDbSymbolTableRecord
100
AcDbLayerTableRecord
  2
DRAFT
 70
0
 62
7
  6
CONTINUOUS
370
-3
390
F
  0
LAYER
  5
203
100
AcDbSymbolTableRecord
100
AcDbLayerTableRecord
  2
IMPORT_IGES
 70
0
 62
7
  6
CONTINUOUS
370
-3
390
F
  0
LAYER
  5
204
100
AcDbSymbolTableRecord
100
AcDbLayerTableRecord
  2
INTF_1
 70
0
 62
7
  6
CONTINUOUS
370
-3
390
F
  0
LAYER
  5
205
100
AcDbSymbolTableRecord
100
AcDbLayerTableRecord
  2
INTF_11
 70
0
 62
7
  6
CONTINUOUS
370
-3
390
F
  0
LAYER
  5
206
100
AcDbSymbolTableRecord
100
AcDbLayerTableRecord
  2
INTF_13
 70
0
 62
7
  6
CONTINUOUS
370
-3
390
F
  0
LAYER
  5
207
100
AcDbSymbolTableRecord
100
AcDbLayerTableRecord
  2
INTF_2
 70
0
 62
7
  6
CONTINUOUS
370
-3
390
F
  0
LAYER
  5
208
100
AcDbSymbolTableRecord
100
AcDbLayerTableRecord
  2
NOTE
 70
0
 62
7
  6
CONTINUOUS
370
-3
390
F
  0
LAYER
  5
209
100
AcDbSymbolTableRecord
100
AcDbLayerTableRecord
  2
PIANI
 70
0
 62
7
  6
CONTINUOUS
370
-3
390
F
  0
LAYER
  5
20A
100
AcDbSymbolTableRecord
100
AcDbLayerTableRecord
  2
PUNTI
 70
0
 62
7
  6
CONTINUOUS
370
-3
390
F
  0
LAYER
  5
20B
100
AcDbSymbolTableRecord
100
AcDbLayerTableRecord
  2
RACCORDO
 70
0
 62
7
  6
CONTINUOUS
370
-3
390
F
  0
LAYER
  5
20C
100
AcDbSymbolTableRecord
100
AcDbLayerTableRecord
  2
SIMBOLI
 70
0
 62
7
  6
CONTINUOUS
370
-3
390
F
  0
LAYER
  5
20D
100
AcDbSymbolTableRecord
100
AcDbLayerTableRecord
  2
SMUSSO
 70
0
 62
7
  6
CONTINUOUS
370
-3
390
F
  0
LAYER
  5
20E
100
AcDbSymbolTableRecord
100
AcDbLayerTableRecord
  2
SNAPLINE
 70
0
 62
7
  6
CONTINUOUS
370
-3
390
F
  0
LAYER
  5
20F
100
AcDbSymbolTableRecord
100
AcDbLayerTableRecord
  2
SUPERFICI
 70
0
 62
7
  6
CONTINUOUS
370
-3
390
F
  0
LAYER
  5
210
100
AcDbSymbolTableRecord
100
AcDbLayerTableRecord
  2
TRASH
 70
0
 62
7
  6
CONTINUOUS
370
-3
390
F
  0
ENDTAB
  0
TABLE
  2
STYLE
  5
3
100
AcDbSymbolTable
 70
1
  0
STYLE
  5
11
100
AcDbSymbolTableRecord
100
AcDbTextStyleTableRecord
  2
STANDARD
 70
0
 40
0.0
 41
0.8
 50
0.0
 71
0
 42
0.2
  3
txt
  4

  0
STYLE
  5
211
100
AcDbSymbolTableRecord
100
AcDbTextStyleTableRecord
  2
TEXTSTYLE_1
 70
0
 40
0.0
 41
0.8
 50
0.0
 71
0
 42
0.2
  3
gdt
  4

  0
ENDTAB
  0
TABLE
  2
VIEW
  5
6
100
AcDbSymbolTable
 70
0
  0
ENDTAB
  0
TABLE
  2
UCS
  5
7
100
AcDbSymbolTable
 70
0
  0
ENDTAB
  0
TABLE
  2
APPID
  5
9
100
AcDbSymbolTable
 70
1
  0
APPID
  5
212
100
AcDbSymbolTableRecord
100
AcDbRegAppTableRecord
  2
ACAD
 70
0
  0
ENDTAB
  0
TABLE
  2
BLOCK_RECORD
  5
1
100
AcDbSymbolTable
 70
0
  0
BLOCK_RECORD
  5
213
100
AcDbSymbolTableRecord
100
AcDbBlockTableRecord
  2
*Model_Space
  0
BLOCK_RECORD
  5
214
100
AcDbSymbolTableRecord
100
AcDbBlockTableRecord
  2
*Paper_Space
  0
BLOCK_RECORD
  5
215
100
AcDbSymbolTableRecord
100
AcDbBlockTableRecord
  2
_FILLED
  0
BLOCK_RECORD
  5
216
100
AcDbSymbolTableRecord
100
AcDbBlockTableRecord
  2
*D0
  0
BLOCK_RECORD
  5
217
100
AcDbSymbolTableRecord
100
AcDbBlockTableRecord
  2
*D1
  0
BLOCK_RECORD
  5
218
100
AcDbSymbolTableRecord
100
AcDbBlockTableRecord
  2
*D2
  0
BLOCK_RECORD
  5
219
100
AcDbSymbolTableRecord
100
AcDbBlockTableRecord
  2
*D3
  0
ENDTAB
  0
TABLE
  2
DIMSTYLE
  5
A
100
AcDbSymbolTable
 70
1
100
AcDbDimStyleTable
 71
0
  0
DIMSTYLE
105
21A
100
AcDbSymbolTableRecord
100
AcDbDimStyleTableRecord
  2
STANDARD
 70
0
  3

  4

 40
1.0
 41
3.0
 42
0.5
 43
0.38
 44
1.5
 45
0.0
 46
0.0
 47
0.01
 48
0.01
140
3.0
141
0.09
142
0.0
143
25.4
144
1.0
145
0.0
146
1.0
147
0.625
 71
1
 72
0
 73
0
 74
0
 75
0
 76
0
 77
1
 78
8
 79
2
170
0
171
1
172
0
173
0
174
0
175
0
176
0
177
0
178
0
270
2
179
2
271
2
272
2
273
2
274
2
275
0
280
0
281
0
282
0
283
1
284
8
285
0
286
0
287
3
288
0
340
11
278
44
341
215
342
215
343
215
344
215
  0
DIMSTYLE
105
21B
100
AcDbSymbolTableRecord
100
AcDbDimStyleTableRecord
  2
DIMSTYLE_1
 70
0
  3

  4

 40
1.0
 41
3.0
 42
0.5
 43
0.38
 44
1.5
 45
0.0
 46
0.0
 47
0.0
 48
0.0
140
3.0
141
0.09
142
0.0
143
25.4
144
1.0
145
0.0
146
1.0
147
0.75
 71
0
 72
0
 73
0
 74
0
 75
0
 76
0
 77
1
 78
8
 79
2
170
0
171
1
172
0
173
0
174
0
175
0
176
0
177
0
178
0
270
2
179
2
271
2
272
2
273
2
274
2
275
0
280
0
281
0
282
0
283
1
284
8
285
0
286
0
287
3
288
0
340
11
278
44
341
215
342
215
343
215
344
215
  0
ENDTAB
  0
ENDSEC
  0
SECTION
  2
BLOCKS
  0
BLOCK
  5
20
100
AcDbEntity
  8
0
100
AcDbBlockBegin
  2
*Model_Space
 70
0
 10
0.0
 20
0.0
 30
0.0
  3
*Model_Space
  1

  0
ENDBLK
  5
21
100
AcDbEntity
  8
0
100
AcDbBlockEnd
  0
BLOCK
  5
1C
100
AcDbEntity
  8
0
100
AcDbBlockBegin
  2
*Paper_Space
 70
0
 10
0.0
 20
0.0
 30
0.0
  3
*Paper_Space
  1

  0
ENDBLK
  5
1D
100
AcDbEntity
  8
0
100
AcDbBlockEnd
  0
BLOCK
  5
21C
100
AcDbEntity
  8
0
100
AcDbBlockBegin
  2
_FILLED
 70
64
 10
0.0
 20
0.0
  3
_FILLED
  1

  0
SOLID
  5
21D
100
AcDbEntity
  8
0
  6
BYBLOCK
 62
0
100
AcDbTrace
 10
0.0
 20
0.0
 11
-1.0
 21
0.3166666667
 12
-1.0
 22
-0.3166666667
 13
-1.0
 23
-0.3166666667
  0
ENDBLK
  5
21E
100
AcDbEntity
  8
0
  6
BYBLOCK
 62
0
100
AcDbBlockEnd
  0
BLOCK
  5
21F
100
AcDbEntity
  8
0
100
AcDbBlockBegin
 62
7
  6
CONTINUOUS
  2
*D0
 70
65
 10
0.0
 20
0.0
  3
*D0
  1

  0
LINE
  5
220
100
AcDbEntity
  8
0
100
AcDbLine
 62
7
  6
CONTINUOUS
 10
-73.3
 20
43.0
 11
-73.3
 21
53.5
  0
LINE
  5
221
100
AcDbEntity
  8
0
100
AcDbLine
 62
7
  6
CONTINUOUS
 10
73.3
 20
43.0
 11
73.3
 21
53.5
  0
LINE
  5
222
100
AcDbEntity
  8
0
100
AcDbLine
 62
7
  6
CONTINUOUS
 10
-73.3
 20
52.0
 11
0.0
 21
52.0
  0
LINE
  5
223
100
AcDbEntity
  8
0
100
AcDbLine
 62
7
  6
CONTINUOUS
 10
73.3
 20
52.0
 11
0.0
 21
52.0
  0
INSERT
  5
224
100
AcDbEntity
  8
0
100
AcDbBlockReference
 62
7
  6
CONTINUOUS
  2
_FILLED
 10
-73.3
 20
52.0
 41
3.0
 42
3.0
 43
3.0
 50
180.0
  0
INSERT
  5
225
100
AcDbEntity
  8
0
100
AcDbBlockReference
 62
7
  6
CONTINUOUS
  2
_FILLED
 10
73.3
 20
52.0
 41
3.0
 42
3.0
 43
3.0
 50
0.0
  0
ENDBLK
  5
226
100
AcDbEntity
  8
0
  6
BYBLOCK
 62
0
100
AcDbBlockEnd
  0
BLOCK
  5
227
100
AcDbEntity
  8
0
100
AcDbBlockBegin
 62
7
  6
CONTINUOUS
  2
*D1
 70
65
 10
0.0
 20
0.0
  3
*D1
  1

  0
LINE
  5
228
100
AcDbEntity
  8
0
100
AcDbLine
 62
7
  6
CONTINUOUS
 10
72.3
 20
44.0
 11
82.8
 21
44.0
  0
LINE
  5
229
100
AcDbEntity
  8
0
100
AcDbLine
 62
7
  6
CONTINUOUS
 10
72.3
 20
-44.0
 11
82.8
 21
-44.0
  0
LINE
  5
22A
100
AcDbEntity
  8
0
100
AcDbLine
 62
7
  6
CONTINUOUS
 10
81.3
 20
44.0
 11
81.3
 21
0.0
  0
LINE
  5
22B
100
AcDbEntity
  8
0
100
AcDbLine
 62
7
  6
CONTINUOUS
 10
81.3
 20
-44.0
 11
81.3
 21
0.0
  0
INSERT
  5
22C
100
AcDbEntity
  8
0
100
AcDbBlockReference
 62
7
  6
CONTINUOUS
  2
_FILLED
 10
81.3
 20
44.0
 41
3.0
 42
3.0
 43
3.0
 50
90.0
  0
INSERT
  5
22D
100
AcDbEntity
  8
0
100
AcDbBlockReference
 62
7
  6
CONTINUOUS
  2
_FILLED
 10
81.3
 20
-44.0
 41
3.0
 42
3.0
 43
3.0
 50
270.0
  0
ENDBLK
  5
22E
100
AcDbEntity
  8
0
  6
BYBLOCK
 62
0
100
AcDbBlockEnd
  0
BLOCK
  5
22F
100
AcDbEntity
  8
0
100
AcDbBlockBegin
 62
7
  6
CONTINUOUS
  2
*D2
 70
65
 10
0.0
 20
0.0
  3
*D2
  1

  0
LINE
  5
230
100
AcDbEntity
  8
0
100
AcDbLine
 62
7
  6
CONTINUOUS
 10
-117.05
 20
43.0
 11
-117.05
 21
63.4996014604
  0
LINE
  5
231
100
AcDbEntity
  8
0
100
AcDbLine
 62
7
  6
CONTINUOUS
 10
-106.75
 20
21.9790882178
 11
-106.75
 21
63.4996014604
  0
LINE
  5
232
100
AcDbEntity
  8
0
100
AcDbLine
 62
7
  6
CONTINUOUS
 10
-117.05
 20
61.9996014604
 11
-128.0340778801
 21
61.9996014604
  0
LINE
  5
233
100
AcDbEntity
  8
0
100
AcDbLine
 62
7
  6
CONTINUOUS
 10
-128.0340778801
 20
61.9996014604
 11
-111.9
 21
61.9996014604
  0
LINE
  5
234
100
AcDbEntity
  8
0
100
AcDbLine
 62
7
  6
CONTINUOUS
 10
-106.75
 20
61.9996014604
 11
-102.75
 21
61.9996014604
  0
LINE
  5
235
100
AcDbEntity
  8
0
100
AcDbLine
 62
7
  6
CONTINUOUS
 10
-102.75
 20
61.9996014604
 11
-111.9
 21
61.9996014604
  0
INSERT
  5
236
100
AcDbEntity
  8
0
100
AcDbBlockReference
 62
7
  6
CONTINUOUS
  2
_FILLED
 10
-117.05
 20
61.9996014604
 41
3.0
 42
3.0
 43
3.0
  0
INSERT
  5
237
100
AcDbEntity
  8
0
100
AcDbBlockReference
 62
7
  6
CONTINUOUS
  2
_FILLED
 10
-106.75
 20
61.9996014604
 41
3.0
 42
3.0
 43
3.0
 50
180.0
  0
ENDBLK
  5
238
100
AcDbEntity
  8
0
  6
BYBLOCK
 62
0
100
AcDbBlockEnd
  0
BLOCK
  5
239
100
AcDbEntity
  8
0
100
AcDbBlockBegin
 62
7
  6
CONTINUOUS
  2
*D3
 70
65
 10
0.0
 20
0.0
  3
*D3
  1

  0
LINE
  5
23A
100
AcDbEntity
  8
0
100
AcDbLine
 62
7
  6
CONTINUOUS
 10
-117.05
 20
43.0
 11
-117.05
 21
53.4991060562
  0
LINE
  5
23B
100
AcDbEntity
  8
0
100
AcDbLine
 62
7
  6
CONTINUOUS
 10
-111.45
 20
42.2477309359
 11
-111.45
 21
53.4991060562
  0
LINE
  5
23C
100
AcDbEntity
  8
0
100
AcDbLine
 62
7
  6
CONTINUOUS
 10
-117.05
 20
51.9991060562
 11
-126.325101367
 21
51.9991060562
  0
LINE
  5
23D
100
AcDbEntity
  8
0
100
AcDbLine
 62
7
  6
CONTINUOUS
 10
-126.325101367
 20
51.9991060562
 11
-114.25
 21
51.9991060562
  0
LINE
  5
23E
100
AcDbEntity
  8
0
100
AcDbLine
 62
7
  6
CONTINUOUS
 10
-111.45
 20
51.9991060562
 11
-107.45
 21
51.9991060562
  0
LINE
  5
23F
100
AcDbEntity
  8
0
100
AcDbLine
 62
7
  6
CONTINUOUS
 10
-107.45
 20
51.9991060562
 11
-114.25
 21
51.9991060562
  0
INSERT
  5
240
100
AcDbEntity
  8
0
100
AcDbBlockReference
 62
7
  6
CONTINUOUS
  2
_FILLED
 10
-117.05
 20
51.9991060562
 41
3.0
 42
3.0
 43
3.0
  0
INSERT
  5
241
100
AcDbEntity
  8
0
100
AcDbBlockReference
 62
7
  6
CONTINUOUS
  2
_FILLED
 10
-111.45
 20
51.9991060562
 41
3.0
 42
3.0
 43
3.0
 50
180.0
  0
ENDBLK
  5
242
100
AcDbEntity
  8
0
  6
BYBLOCK
 62
0
100
AcDbBlockEnd
  0
ENDSEC
  0
SECTION
  2
ENTITIES
  0
DIMENSION
  5
243
100
AcDbEntity
  8
0
100
AcDbDimension
 62
7
  6
CONTINUOUS
  2
*D0
 10
73.3
 20
52.0
 11
-5.25
 21
52.0
 70
160
 71
2
 72
2
 41
0.9
 42
146.6
  3
DIMSTYLE_1
100
AcDbAlignedDimension
 13
-73.3
 23
42.5
 14
73.3
 24
42.5
100
AcDbRotatedDimension
  0
DIMENSION
  5
244
100
AcDbEntity
  8
0
100
AcDbDimension
 62
7
  6
CONTINUOUS
  2
*D1
 10
81.3
 20
-44.0
 11
81.3
 21
-2.3571428571
 70
160
 71
2
 72
2
 41
0.9
 42
88.0
  3
DIMSTYLE_1
100
AcDbAlignedDimension
 13
71.8
 23
44.0
 14
71.8
 24
-44.0
 50
270.0
100
AcDbRotatedDimension
  0
DIMENSION
  5
245
100
AcDbEntity
  8
0
100
AcDbDimension
 62
7
  6
CONTINUOUS
  2
*D2
 10
-106.75
 20
61.9996014604
 11
-128.0340778801
 21
61.9996014604
 70
160
 71
3
 72
2
 41
0.9
 42
10.3
  3
DIMSTYLE_1
100
AcDbAlignedDimension
 13
-117.05
 23
42.5
 14
-106.75
 24
21.4790882178
100
AcDbRotatedDimension
  0
DIMENSION
  5
246
100
AcDbEntity
  8
0
100
AcDbDimension
 62
7
  6
CONTINUOUS
  2
*D3
 10
-111.45
 20
51.9991060562
 11
-126.325101367
 21
51.9991060562
 70
160
 71
3
 72
2
 41
0.9
 42
5.6
  3
DIMSTYLE_1
100
AcDbAlignedDimension
 13
-117.05
 23
42.5
 14
-111.45
 24
41.7477309359
100
AcDbRotatedDimension
  0
LINE
  5
247
100
AcDbEntity
  8
0
100
AcDbLine
 62
7
  6
CONTINUOUS
 10
-73.3
 20
42.5
 11
-73.3
 21
-42.5
  0
LINE
  5
248
100
AcDbEntity
  8
0
100
AcDbLine
 62
250
  6
CONTINUOUS
 10
-72.8
 20
42.5
 11
-72.8
 21
-42.5
  0
LINE
  5
249
100
AcDbEntity
  8
0
100
AcDbLine
 62
250
  6
CONTINUOUS
 10
-71.8
 20
-43.5
 11
-71.8
 21
-44.0
  0
LINE
  5
24A
100
AcDbEntity
  8
0
100
AcDbLine
 62
250
  6
CONTINUOUS
 10
-71.8
 20
43.5
 11
-71.8
 21
44.0
  0
LINE
  5
24B
100
AcDbEntity
  8
0
100
AcDbLine
 62
250
  6
CONTINUOUS
 10
-45.575
 20
-26.225
 11
-45.575
 21
26.225
  0
LINE
  5
24C
100
AcDbEntity
  8
0
100
AcDbLine
 62
7
  6
CONTINUOUS
 10
-45.275
 20
-26.225
 11
-45.275
 21
26.225
  0
LINE
  5
24D
100
AcDbEntity
  8
0
100
AcDbLine
 62
250
  6
CONTINUOUS
 10
-44.675
 20
27.125
 11
-44.675
 21
26.825
  0
LINE
  5
24E
100
AcDbEntity
  8
0
100
AcDbLine
 62
250
  6
CONTINUOUS
 10
-44.675
 20
-27.125
 11
-44.675
 21
-26.825
  0
LWPOLYLINE
  5
24F
100
AcDbEntity
  8
0
100
AcDbPolyline
 62
7
  6
CONTINUOUS
 90
3
 70
0
 43
0.3500000019
 10
-5.2499975586
 20
54.8928574219
 10
-4.3928569336
 20
55.7499980469
 10
-4.3928569336
 20
52.7500004883
  0
LWPOLYLINE
  5
250
100
AcDbEntity
  8
0
100
AcDbPolyline
 62
7
  6
CONTINUOUS
 90
10
 70
0
 43
0.3500000019
 10
-0.1071430664
 20
55.7499980469
 10
-0.7499985352
 20
55.1071425781
 10
-1.1785688477
 20
54.2500019531
 10
-1.1785688477
 20
53.1785708008
 10
-0.7499985352
 20
52.7500004883
 10
-0.1071430664
 20
52.7500004883
 10
0.3214272461
 20
53.1785708008
 10
0.3214272461
 20
54.0357167969
 10
-0.1071430664
 20
54.4642871094
 10
-1.0357138672
 20
54.4642871094
  0
LINE
  5
251
100
AcDbEntity
  8
0
100
AcDbLine
 62
7
  6
CONTINUOUS
 10
-71.8
 20
-44.0
 11
71.8
 21
-44.0
  0
LINE
  5
252
100
AcDbEntity
  8
0
100
AcDbLine
 62
250
  6
CONTINUOUS
 10
-71.8
 20
-43.5
 11
71.8
 21
-43.5
  0
LINE
  5
253
100
AcDbEntity
  8
0
100
AcDbLine
 62
250
  6
CONTINUOUS
 10
-72.8
 20
-42.5
 11
-73.3
 21
-42.5
  0
LINE
  5
254
100
AcDbEntity
  8
0
100
AcDbLine
 62
250
  6
CONTINUOUS
 10
72.8
 20
-42.5
 11
73.3
 21
-42.5
  0
LWPOLYLINE
  5
255
100
AcDbEntity
  8
0
100
AcDbPolyline
 62
7
  6
CONTINUOUS
 90
10
 70
0
 43
0.3500000019
 10
3.9642856445
 20
55.7499980469
 10
3.3214301758
 20
55.1071425781
 10
2.8928544922
 20
54.2500019531
 10
2.8928544922
 20
53.1785708008
 10
3.3214301758
 20
52.7500004883
 10
3.9642856445
 20
52.7500004883
 10
4.392855957
 20
53.1785708008
 10
4.392855957
 20
54.0357167969
 10
3.9642856445
 20
54.4642871094
 10
3.0357148438
 20
54.4642871094
  0
LINE
  5
256
100
AcDbEntity
  8
0
100
AcDbLine
 62
250
  6
CONTINUOUS
 10
44.675
 20
-27.125
 11
-44.675
 21
-27.125
  0
LINE
  5
257
100
AcDbEntity
  8
0
100
AcDbLine
 62
7
  6
CONTINUOUS
 10
44.675
 20
-26.825
 11
-44.675
 21
-26.825
  0
LINE
  5
258
100
AcDbEntity
  8
0
100
AcDbLine
 62
250
  6
CONTINUOUS
 10
45.575
 20
-26.225
 11
45.275
 21
-26.225
  0
LINE
  5
259
100
AcDbEntity
  8
0
100
AcDbLine
 62
250
  6
CONTINUOUS
 10
-45.575
 20
-26.225
 11
-45.275
 21
-26.225
  0
LWPOLYLINE
  5
25A
100
AcDbEntity
  8
0
100
AcDbPolyline
 62
7
  6
CONTINUOUS
 90
3
 70
0
 43
0.3500000019
 10
1.8928588867
 20
53.0357158203
 10
1.8214287109
 20
52.8214306641
 10
1.6785737305
 20
52.535715332
  0
LWPOLYLINE
  5
25B
100
AcDbEntity
  8
0
100
AcDbPolyline
 62
7
  6
CONTINUOUS
 90
2
 70
0
 43
0.3500000019
 10
-2.535715332
 20
52.7500004883
 10
-2.535715332
 20
54.2500019531
  0
LWPOLYLINE
  5
25C
100
AcDbEntity
  8
0
100
AcDbPolyline
 62
7
  6
CONTINUOUS
 90
4
 70
0
 43
0.3500000019
 10
80.1214267578
 20
-2.3571429291
 10
79.2642861328
 20
-2.3571429291
 10
78.8357158203
 20
-1.9285714417
 10
78.8357158203
 20
-1.2857142944
  0
LWPOLYLINE
  5
25D
100
AcDbEntity
  8
0
100
AcDbPolyline
 62
7
  6
CONTINUOUS
 90
4
 70
0
 43
0.3500000019
 10
80.1214267578
 20
0.0
 10
79.2642861328
 20
0.0
 10
78.8357158203
 20
0.4285714455
 10
78.8357158203
 20
1.0714285507
  0
LINE
  5
25E
100
AcDbEntity
  8
0
100
AcDbLine
 62
250
  6
CONTINUOUS
 10
45.575
 20
26.225
 11
45.275
 21
26.225
  0
LINE
  5
25F
100
AcDbEntity
  8
0
100
AcDbLine
 62
250
  6
CONTINUOUS
 10
-45.575
 20
26.225
 11
-45.275
 21
26.225
  0
LINE
  5
260
100
AcDbEntity
  8
0
100
AcDbLine
 62
7
  6
CONTINUOUS
 10
-44.675
 20
26.825
 11
44.675
 21
26.825
  0
LINE
  5
261
100
AcDbEntity
  8
0
100
AcDbLine
 62
250
  6
CONTINUOUS
 10
-44.675
 20
27.125
 11
44.675
 21
27.125
  0
LWPOLYLINE
  5
262
100
AcDbEntity
  8
0
100
AcDbPolyline
 62
7
  6
CONTINUOUS
 90
10
 70
0
 43
0.3500000019
 10
1.8214287109
 20
53.2500009766
 10
1.8928588867
 20
53.107140625
 10
1.8928588867
 20
53.0357158203
 10
1.7499985352
 20
52.8928554688
 10
1.6785737305
 20
52.8928554688
 10
1.6071435547
 20
52.9642856445
 10
1.6071435547
 20
53.0357158203
 10
1.6785737305
 20
53.1785708008
 10
1.7499985352
 20
53.2500009766
 10
1.8214287109
 20
53.2500009766
  0
LINE
  5
263
100
AcDbEntity
  8
0
100
AcDbLine
 62
250
  6
CONTINUOUS
 10
44.675
 20
27.125
 11
44.675
 21
26.825
  0
LINE
  5
264
100
AcDbEntity
  8
0
100
AcDbLine
 62
250
  6
CONTINUOUS
 10
44.675
 20
-27.125
 11
44.675
 21
-26.825
  0
LINE
  5
265
100
AcDbEntity
  8
0
100
AcDbLine
 62
7
  6
CONTINUOUS
 10
45.275
 20
26.225
 11
45.275
 21
-26.225
  0
LINE
  5
266
100
AcDbEntity
  8
0
100
AcDbLine
 62
250
  6
CONTINUOUS
 10
45.575
 20
26.225
 11
45.575
 21
-26.225
  0
LINE
  5
267
100
AcDbEntity
  8
0
100
AcDbLine
 62
250
  6
CONTINUOUS
 10
-72.8
 20
42.5
 11
-73.3
 21
42.5
  0
LINE
  5
268
100
AcDbEntity
  8
0
100
AcDbLine
 62
250
  6
CONTINUOUS
 10
72.8
 20
42.5
 11
73.3
 21
42.5
  0
LINE
  5
269
100
AcDbEntity
  8
0
100
AcDbLine
 62
250
  6
CONTINUOUS
 10
71.8
 20
43.5
 11
-71.8
 21
43.5
  0
LINE
  5
26A
100
AcDbEntity
  8
0
100
AcDbLine
 62
7
  6
CONTINUOUS
 10
71.8
 20
44.0
 11
-71.8
 21
44.0
  0
LWPOLYLINE
  5
26B
100
AcDbEntity
  8
0
100
AcDbPolyline
 62
7
  6
CONTINUOUS
 90
3
 70
0
 43
0.3500000019
 10
-2.0357148438
 20
53.392855957
 10
-3.5357163086
 20
53.392855957
 10
-2.8928554687
 20
55.7499980469
  0
LWPOLYLINE
  5
26C
100
AcDbEntity
  8
0
100
AcDbPolyline
 62
7
  6
CONTINUOUS
 90
13
 70
0
 43
0.3500000019
 10
78.8357158203
 20
0.4285714455
 10
78.6214306641
 20
0.1428571415
 10
77.9785751953
 20
0.1428571415
 10
77.5500048828
 20
0.4285714455
 10
77.5500048828
 20
1.0714285507
 10
77.9785751953
 20
1.3571428757
 10
78.6214306641
 20
1.3571428757
 10
78.8357158203
 20
1.0714285507
 10
79.2642861328
 20
1.4999999542
 10
80.1214267578
 20
1.4999999542
 10
80.5499970703
 20
1.0714285507
 10
80.5499970703
 20
0.4285714455
 10
80.1214267578
 20
0.0
  0
LWPOLYLINE
  5
26D
100
AcDbEntity
  8
0
100
AcDbPolyline
 62
7
  6
CONTINUOUS
 90
13
 70
0
 43
0.3500000019
 10
78.8357158203
 20
-1.9285714417
 10
78.6214306641
 20
-2.2142857666
 10
77.9785751953
 20
-2.2142857666
 10
77.5500048828
 20
-1.9285714417
 10
77.5500048828
 20
-1.2857142944
 10
77.9785751953
 20
-0.9999999695
 10
78.6214306641
 20
-0.9999999695
 10
78.8357158203
 20
-1.2857142944
 10
79.2642861328
 20
-0.8571428909
 10
80.1214267578
 20
-0.8571428909
 10
80.5499970703
 20
-1.2857142944
 10
80.5499970703
 20
-1.9285714417
 10
80.1214267578
 20
-2.3571429291
  0
LINE
  5
26E
100
AcDbEntity
  8
0
100
AcDbLine
 62
250
  6
CONTINUOUS
 10
71.8
 20
-43.5
 11
71.8
 21
-44.0
  0
LINE
  5
26F
100
AcDbEntity
  8
0
100
AcDbLine
 62
250
  6
CONTINUOUS
 10
71.8
 20
43.5
 11
71.8
 21
44.0
  0
LINE
  5
270
100
AcDbEntity
  8
0
100
AcDbLine
 62
250
  6
CONTINUOUS
 10
72.8
 20
-42.5
 11
72.8
 21
42.5
  0
LINE
  5
271
100
AcDbEntity
  8
0
100
AcDbLine
 62
7
  6
CONTINUOUS
 10
73.3
 20
-42.5
 11
73.3
 21
42.5
  0
LWPOLYLINE
  5
272
100
AcDbEntity
  8
0
100
AcDbPolyline
 62
7
  6
CONTINUOUS
 90
3
 70
0
 43
0.3500000019
 10
-128.0340761719
 20
64.8924589844
 10
-127.1769355469
 20
65.7495996094
 10
-127.1769355469
 20
62.7496020508
  0
LWPOLYLINE
  5
273
100
AcDbEntity
  8
0
100
AcDbPolyline
 62
7
  6
CONTINUOUS
 90
10
 70
0
 43
0.3500000019
 10
-121.3965322266
 20
55.7491064453
 10
-122.0393876953
 20
55.1062509766
 10
-122.4679580078
 20
54.2491049805
 10
-122.4679580078
 20
53.1776791992
 10
-122.0393876953
 20
52.7491035156
 10
-121.3965322266
 20
52.7491035156
 10
-120.967956543
 20
53.1776791992
 10
-120.967956543
 20
54.0348198242
 10
-121.3965322266
 20
54.4633901367
 10
-122.3251030273
 20
54.4633901367
  0
LWPOLYLINE
  5
274
100
AcDbEntity
  8
0
100
AcDbPolyline
 62
7
  6
CONTINUOUS
 90
5
 70
0
 43
0.3500000019
 10
-121.3912202148
 20
64.4638886719
 10
-121.0340800781
 20
64.6781738281
 10
-121.0340800781
 20
65.3210292969
 10
-121.3912202148
 20
65.7495996094
 10
-122.2483662109
 20
65.7495996094
  0
LINE
  5
275
100
AcDbEntity
  8
0
100
AcDbLine
 62
7
  6
CONTINUOUS
 10
-116.55
 20
-44.0
 11
-113.35
 21
-44.0
  0
LINE
  5
276
100
AcDbEntity
  8
RACCORDO
100
AcDbLine
 62
7
  6
CONTINUOUS
 10
-111.6447646103
 20
-42.4474910634
 11
-113.3502055698
 21
-42.4921496066
  0
LINE
  5
277
100
AcDbEntity
  8
RACCORDO
100
AcDbLine
 62
250
  6
CONTINUOUS
 10
-111.6447646103
 20
-41.7477309359
 11
-113.35
 21
-41.792384096
  0
LINE
  5
278
100
AcDbEntity
  8
0
100
AcDbLine
 62
250
  6
CONTINUOUS
 10
-117.05
 20
-42.5
 11
-113.35
 21
-42.5
  0
LINE
  5
279
100
AcDbEntity
  8
RACCORDO
100
AcDbLine
 62
250
  6
CONTINUOUS
 10
-111.45
 20
-41.7477309359
 11
-111.6447646103
 21
-41.7477309359
  0
LWPOLYLINE
  5
27A
100
AcDbEntity
  8
0
100
AcDbPolyline
 62
7
  6
CONTINUOUS
 90
3
 70
0
 43
0.3500000019
 10
-123.2483618164
 20
63.0353173828
 10
-123.3197919922
 20
62.8210322266
 10
-123.4626469727
 20
62.5353168945
  0
LWPOLYLINE
  5
27B
100
AcDbEntity
  8
0
100
AcDbPolyline
 62
7
  6
CONTINUOUS
 90
3
 70
0
 43
0.3500000019
 10
-123.4679589844
 20
53.0348188477
 10
-123.5393891602
 20
52.8205336914
 10
-123.6822441406
 20
52.5348183594
  0
LINE
  5
27C
100
AcDbEntity
  8
RACCORDO
100
AcDbLine
 62
7
  6
CONTINUOUS
 10
-111.45
 20
-22.9223455581
 11
-107.141780193
 21
-21.9672362214
  0
LINE
  5
27D
100
AcDbEntity
  8
RACCORDO
100
AcDbLine
 62
250
  6
CONTINUOUS
 10
-111.45
 20
-22.7182634763
 11
-107.1815776345
 21
-21.7719770199
  0
LINE
  5
27E
100
AcDbEntity
  8
RACCORDO
100
AcDbLine
 62
7
  6
CONTINUOUS
 10
-111.45
 20
-20.9862039414
 11
-110.2328512906
 21
-20.8259632739
  0
LINE
  5
27F
100
AcDbEntity
  8
RACCORDO
100
AcDbLine
 62
250
  6
CONTINUOUS
 10
-106.9465095187
 20
-21.4790882178
 11
-106.75
 21
-21.4790882178
  0
LINE
  5
280
100
AcDbEntity
  8
RACCORDO
100
AcDbLine
 62
250
  6
CONTINUOUS
 10
-106.9465095187
 20
-21.135542948
 11
-106.75
 21
-21.135542948
  0
LINE
  5
281
100
AcDbEntity
  8
RACCORDO
100
AcDbLine
 62
7
  6
CONTINUOUS
 10
-108.65
 20
-19.0
 11
-108.3022930714
 21
-18.9969656076
  0
LINE
  5
282
100
AcDbEntity
  8
RACCORDO
100
AcDbLine
 62
250
  6
CONTINUOUS
 10
-108.9912130283
 20
-18.8030005663
 11
-108.3005478972
 21
-18.796973223
  0
LINE
  5
283
100
AcDbEntity
  8
RACCORDO
100
AcDbLine
 62
250
  6
CONTINUOUS
 10
-106.9465095187
 20
-17.864457052
 11
-106.75
 21
-17.864457052
  0
LINE
  5
284
100
AcDbEntity
  8
RACCORDO
100
AcDbLine
 62
250
  6
CONTINUOUS
 10
-106.9465095187
 20
-17.5209117822
 11
-106.75
 21
-17.5209117822
  0
LINE
  5
285
100
AcDbEntity
  8
RACCORDO
100
AcDbLine
 62
250
  6
CONTINUOUS
 10
-108.3005478972
 20
-20.203026777
 11
-108.9912130283
 21
-20.1969994337
  0
LINE
  5
286
100
AcDbEntity
  8
RACCORDO
100
AcDbLine
 62
7
  6
CONTINUOUS
 10
-108.3022930714
 20
-20.0030343924
 11
-108.65
 21
-20.0
  0
LINE
  5
287
100
AcDbEntity
  8
RACCORDO
100
AcDbLine
 62
7
  6
CONTINUOUS
 10
-110.2328512906
 20
-18.1740367261
 11
-111.45
 21
-18.0137960586
  0
LWPOLYLINE
  5
288
100
AcDbEntity
  8
0
100
AcDbPolyline
 62
7
  6
CONTINUOUS
 90
13
 70
0
 43
0.3500000019
 10
-126.3197895508
 20
63.6067426758
 10
-126.3197895508
 20
64.8924589844
 10
-126.1055043945
 20
65.3210292969
 10
-125.676934082
 20
65.7495996094
 10
-125.4626489258
 20
65.7495996094
 10
-125.0340786133
 20
65.3210292969
 10
-124.819793457
 20
64.8924589844
 10
-124.819793457
 20
63.6067426758
 10
-125.0340786133
 20
63.1781723633
 10
-125.4626489258
 20
62.7496020508
 10
-125.676934082
 20
62.7496020508
 10
-126.1055043945
 20
63.1781723633
 10
-126.3197895508
 20
63.6067426758
  0
LINE
  5
289
100
AcDbEntity
  8
RACCORDO
100
AcDbLine
 62
7
  6
CONTINUOUS
 10
-109.8633774828
 20
18.2994561837
 11
-108.65
 21
19.0
  0
LINE
  5
28A
100
AcDbEntity
  8
RACCORDO
100
AcDbLine
 62
250
  6
CONTINUOUS
 10
-107.1815776345
 20
-17.2280229801
 11
-111.45
 21
-16.2817365237
  0
LINE
  5
28B
100
AcDbEntity
  8
RACCORDO
100
AcDbLine
 62
7
  6
CONTINUOUS
 10
-107.141780193
 20
-17.0327637786
 11
-111.45
 21
-16.0776544419
  0
LINE
  5
28C
100
AcDbEntity
  8
RACCORDO
100
AcDbLine
 62
7
  6
CONTINUOUS
 10
-108.65
 20
-19.0
 11
-109.8633774828
 21
-18.2994561837
  0
LINE
  5
28D
100
AcDbEntity
  8
RACCORDO
100
AcDbLine
 62
250
  6
CONTINUOUS
 10
-107.8486679766
 20
20.34767468
 11
-107.0744365878
 21
20.8897973348
  0
LINE
  5
28E
100
AcDbEntity
  8
RACCORDO
100
AcDbLine
 62
7
  6
CONTINUOUS
 10
-107.7374431706
 20
20.1838442712
 11
-106.9632117818
 21
20.7259669259
  0
LINE
  5
28F
100
AcDbEntity
  8
RACCORDO
100
AcDbLine
 62
250
  6
CONTINUOUS
 10
-107.0744365878
 20
-20.8897973348
 11
-107.8486679766
 21
-20.34767468
  0
LINE
  5
290
100
AcDbEntity
  8
RACCORDO
100
AcDbLine
 62
7
  6
CONTINUOUS
 10
-106.9632117818
 20
-20.7259669259
 11
-107.7374431706
 21
-20.1838442712
  0
LINE
  5
291
100
AcDbEntity
  8
0
100
AcDbLine
 62
7
  6
CONTINUOUS
 10
-117.05
 20
-43.5
 11
-117.05
 21
43.5
  0
LINE
  5
292
100
AcDbEntity
  8
0
100
AcDbLine
 62
250
  6
CONTINUOUS
 10
-116.55
 20
-44.0
 11
-116.55
 21
44.0
  0
LINE
  5
293
100
AcDbEntity
  8
0
100
AcDbLine
 62
7
  6
CONTINUOUS
 10
-113.35
 20
44.0
 11
-113.35
 21
-44.0
  0
LINE
  5
294
100
AcDbEntity
  8
RACCORDO
100
AcDbLine
 62
250
  6
CONTINUOUS
 10
-111.6447646103
 20
41.7477309359
 11
-111.6447646103
 21
-41.7477309359
  0
LINE
  5
295
100
AcDbEntity
  8
RACCORDO
100
AcDbLine
 62
7
  6
CONTINUOUS
 10
-111.45
 20
42.2475595984
 11
-111.45
 21
-42.2475595984
  0
LINE
  5
296
100
AcDbEntity
  8
RACCORDO
100
AcDbLine
 62
250
  6
CONTINUOUS
 10
-106.9465095187
 20
-21.4790882178
 11
-106.9465095187
 21
-21.135542948
  0
LINE
  5
297
100
AcDbEntity
  8
RACCORDO
100
AcDbLine
 62
250
  6
CONTINUOUS
 10
-106.9465095187
 20
-17.864457052
 11
-106.9465095187
 21
-17.5209117822
  0
LINE
  5
298
100
AcDbEntity
  8
RACCORDO
100
AcDbLine
 62
250
  6
CONTINUOUS
 10
-106.9465095187
 20
17.5209117822
 11
-106.9465095187
 21
17.864457052
  0
LINE
  5
299
100
AcDbEntity
  8
RACCORDO
100
AcDbLine
 62
250
  6
CONTINUOUS
 10
-106.9465095187
 20
21.135542948
 11
-106.9465095187
 21
21.4790882178
  0
LINE
  5
29A
100
AcDbEntity
  8
RACCORDO
100
AcDbLine
 62
7
  6
CONTINUOUS
 10
-106.75
 20
-21.4790882178
 11
-106.75
 21
-21.135542948
  0
LINE
  5
29B
100
AcDbEntity
  8
RACCORDO
100
AcDbLine
 62
7
  6
CONTINUOUS
 10
-106.75
 20
-17.864457052
 11
-106.75
 21
-17.5209117822
  0
LINE
  5
29C
100
AcDbEntity
  8
RACCORDO
100
AcDbLine
 62
7
  6
CONTINUOUS
 10
-106.75
 20
17.5209117822
 11
-106.75
 21
17.864457052
  0
LINE
  5
29D
100
AcDbEntity
  8
RACCORDO
100
AcDbLine
 62
7
  6
CONTINUOUS
 10
-106.75
 20
21.135542948
 11
-106.75
 21
21.4790882178
  0
LWPOLYLINE
  5
29E
100
AcDbEntity
  8
0
100
AcDbPolyline
 62
7
  6
CONTINUOUS
 90
10
 70
0
 43
0.3500000019
 10
-123.5393891602
 20
53.2491040039
 10
-123.4679589844
 20
53.1062490234
 10
-123.4679589844
 20
53.0348188477
 10
-123.6108139648
 20
52.8919638672
 10
-123.6822441406
 20
52.8919638672
 10
-123.7536743164
 20
52.963394043
 10
-123.7536743164
 20
53.0348188477
 10
-123.6822441406
 20
53.1776791992
 10
-123.6108139648
 20
53.2491040039
 10
-123.5393891602
 20
53.2491040039
  0
LINE
  5
29F
100
AcDbEntity
  8
RACCORDO
100
AcDbLine
 62
250
  6
CONTINUOUS
 10
-107.8486679766
 20
-18.65232532
 11
-107.0744365878
 21
-18.1102026652
  0
LINE
  5
2A0
100
AcDbEntity
  8
RACCORDO
100
AcDbLine
 62
7
  6
CONTINUOUS
 10
-107.7374431706
 20
-18.8161557288
 11
-106.9632117818
 21
-18.2740330741
  0
LINE
  5
2A1
100
AcDbEntity
  8
RACCORDO
100
AcDbLine
 62
7
  6
CONTINUOUS
 10
-111.45
 20
16.0776544419
 11
-107.141780193
 21
17.0327637786
  0
LINE
  5
2A2
100
AcDbEntity
  8
RACCORDO
100
AcDbLine
 62
250
  6
CONTINUOUS
 10
-111.45
 20
16.2817365237
 11
-107.1815776345
 21
17.2280229801
  0
LINE
  5
2A3
100
AcDbEntity
  8
RACCORDO
100
AcDbLine
 62
7
  6
CONTINUOUS
 10
-111.45
 20
18.0137960586
 11
-110.2328512906
 21
18.1740367261
  0
LINE
  5
2A4
100
AcDbEntity
  8
RACCORDO
100
AcDbLine
 62
250
  6
CONTINUOUS
 10
-106.9465095187
 20
17.5209117822
 11
-106.75
 21
17.5209117822
  0
LINE
  5
2A5
100
AcDbEntity
  8
RACCORDO
100
AcDbLine
 62
250
  6
CONTINUOUS
 10
-106.9465095187
 20
17.864457052
 11
-106.75
 21
17.864457052
  0
LINE
  5
2A6
100
AcDbEntity
  8
RACCORDO
100
AcDbLine
 62
250
  6
CONTINUOUS
 10
-107.0744365878
 20
18.1102026652
 11
-107.8486679766
 21
18.65232532
  0
LINE
  5
2A7
100
AcDbEntity
  8
RACCORDO
100
AcDbLine
 62
7
  6
CONTINUOUS
 10
-106.9632117818
 20
18.2740330741
 11
-107.7374431706
 21
18.8161557288
  0
LWPOLYLINE
  5
2A8
100
AcDbEntity
  8
0
100
AcDbPolyline
 62
7
  6
CONTINUOUS
 90
10
 70
0
 43
0.3500000019
 10
-123.3197919922
 20
63.2496025391
 10
-123.2483618164
 20
63.1067421875
 10
-123.2483618164
 20
63.0353173828
 10
-123.391222168
 20
62.8924570313
 10
-123.4626469727
 20
62.8924570313
 10
-123.5340771484
 20
62.963887207
 10
-123.5340771484
 20
63.0353173828
 10
-123.4626469727
 20
63.1781723633
 10
-123.391222168
 20
63.2496025391
 10
-123.3197919922
 20
63.2496025391
  0
LINE
  5
2A9
100
AcDbEntity
  8
RACCORDO
100
AcDbLine
 62
7
  6
CONTINUOUS
 10
-109.8633774828
 20
-20.7005438163
 11
-108.65
 21
-20.0
  0
LINE
  5
2AA
100
AcDbEntity
  8
RACCORDO
100
AcDbLine
 62
7
  6
CONTINUOUS
 10
-108.65
 20
20.0
 11
-108.3022930714
 21
20.0030343924
  0
LINE
  5
2AB
100
AcDbEntity
  8
RACCORDO
100
AcDbLine
 62
250
  6
CONTINUOUS
 10
-108.9912130283
 20
20.1969994337
 11
-108.3005478972
 21
20.203026777
  0
LINE
  5
2AC
100
AcDbEntity
  8
RACCORDO
100
AcDbLine
 62
250
  6
CONTINUOUS
 10
-108.3005478972
 20
18.796973223
 11
-108.9912130283
 21
18.8030005663
  0
LINE
  5
2AD
100
AcDbEntity
  8
RACCORDO
100
AcDbLine
 62
7
  6
CONTINUOUS
 10
-108.3022930714
 20
18.9969656076
 11
-108.65
 21
19.0
  0
LINE
  5
2AE
100
AcDbEntity
  8
RACCORDO
100
AcDbLine
 62
7
  6
CONTINUOUS
 10
-110.2328512906
 20
20.8259632739
 11
-111.45
 21
20.9862039414
  0
LINE
  5
2AF
100
AcDbEntity
  8
RACCORDO
100
AcDbLine
 62
7
  6
CONTINUOUS
 10
-108.65
 20
20.0
 11
-109.8633774828
 21
20.7005438163
  0
LINE
  5
2B0
100
AcDbEntity
  8
RACCORDO
100
AcDbLine
 62
250
  6
CONTINUOUS
 10
-106.9465095187
 20
21.135542948
 11
-106.75
 21
21.135542948
  0
LINE
  5
2B1
100
AcDbEntity
  8
RACCORDO
100
AcDbLine
 62
250
  6
CONTINUOUS
 10
-106.9465095187
 20
21.4790882178
 11
-106.75
 21
21.4790882178
  0
LINE
  5
2B2
100
AcDbEntity
  8
RACCORDO
100
AcDbLine
 62
250
  6
CONTINUOUS
 10
-107.1815776345
 20
21.7719770199
 11
-111.45
 21
22.7182634763
  0
LINE
  5
2B3
100
AcDbEntity
  8
RACCORDO
100
AcDbLine
 62
7
  6
CONTINUOUS
 10
-107.141780193
 20
21.9672362214
 11
-111.45
 21
22.9223455581
  0
LINE
  5
2B4
100
AcDbEntity
  8
RACCORDO
100
AcDbLine
 62
250
  6
CONTINUOUS
 10
-111.45
 20
41.7477309359
 11
-111.6447646103
 21
41.7477309359
  0
LINE
  5
2B5
100
AcDbEntity
  8
0
100
AcDbLine
 62
250
  6
CONTINUOUS
 10
-117.05
 20
42.5
 11
-113.35
 21
42.5
  0
LINE
  5
2B6
100
AcDbEntity
  8
0
100
AcDbLine
 62
7
  6
CONTINUOUS
 10
-116.55
 20
44.0
 11
-113.35
 21
44.0
  0
LWPOLYLINE
  5
2B7
100
AcDbEntity
  8
0
100
AcDbPolyline
 62
7
  6
CONTINUOUS
 90
8
 70
0
 43
0.3500000019
 10
-126.3251015625
 20
52.7491035156
 10
-125.4679609375
 20
52.7491035156
 10
-125.0393852539
 20
53.1776791992
 10
-125.0393852539
 20
54.0348198242
 10
-125.4679609375
 20
54.4633901367
 10
-126.3251015625
 20
54.4633901367
 10
-126.3251015625
 20
55.7491064453
 10
-125.0393852539
 20
55.7491064453
  0
LWPOLYLINE
  5
2B8
100
AcDbEntity
  8
0
100
AcDbPolyline
 62
7
  6
CONTINUOUS
 90
6
 70
0
 43
0.3500000019
 10
-122.2483662109
 20
62.7496020508
 10
-121.1769350586
 20
62.7496020508
 10
-120.9626499023
 20
62.963887207
 10
-120.9626499023
 20
64.0353183594
 10
-121.3912202148
 20
64.4638886719
 10
-121.8197905273
 20
64.4638886719
  0
LINE
  5
2B9
100
AcDbEntity
  8
RACCORDO
100
AcDbLine
 62
250
  6
CONTINUOUS
 10
-113.35
 20
41.792384096
 11
-111.6447646103
 21
41.7477309359
  0
LINE
  5
2BA
100
AcDbEntity
  8
RACCORDO
100
AcDbLine
 62
7
  6
CONTINUOUS
 10
-113.3502055698
 20
42.4921496066
 11
-111.6447646103
 21
42.4474910634
  0
ARC
  5
2BB
100
AcDbEntity
  8
0
100
AcDbCircle
 62
7
  6
CONTINUOUS
 10
-71.8
 20
-42.5
 40
1.5
100
AcDbArc
 50
180.0
 51
270.0
  0
ARC
  5
2BC
100
AcDbEntity
  8
0
100
AcDbCircle
 62
7
  6
CONTINUOUS
 10
71.8
 20
-42.5
 40
1.5
100
AcDbArc
 50
270.0
 51
360.0
  0
ARC
  5
2BD
100
AcDbEntity
  8
0
100
AcDbCircle
 62
7
  6
CONTINUOUS
 10
71.8
 20
42.5
 40
1.5
100
AcDbArc
 50
0.0
 51
90.0
  0
ARC
  5
2BE
100
AcDbEntity
  8
0
100
AcDbCircle
 62
7
  6
CONTINUOUS
 10
-71.8
 20
42.5
 40
1.5
100
AcDbArc
 50
90.0
 51
180.0
  0
ARC
  5
2BF
100
AcDbEntity
  8
0
100
AcDbCircle
 62
250
  6
CONTINUOUS
 10
-71.8
 20
42.5
 40
1.0
100
AcDbArc
 50
90.0
 51
180.0
  0
ARC
  5
2C0
100
AcDbEntity
  8
0
100
AcDbCircle
 62
250
  6
CONTINUOUS
 10
71.8
 20
42.5
 40
1.0
100
AcDbArc
 50
0.0
 51
90.0
  0
ARC
  5
2C1
100
AcDbEntity
  8
0
100
AcDbCircle
 62
250
  6
CONTINUOUS
 10
71.8
 20
-42.5
 40
1.0
100
AcDbArc
 50
270.0
 51
360.0
  0
ARC
  5
2C2
100
AcDbEntity
  8
0
100
AcDbCircle
 62
250
  6
CONTINUOUS
 10
-71.8
 20
-42.5
 40
1.0
100
AcDbArc
 50
180.0
 51
270.0
  0
ARC
  5
2C3
100
AcDbEntity
  8
0
100
AcDbCircle
 62
250
  6
CONTINUOUS
 10
44.675
 20
-26.225
 40
0.9
100
AcDbArc
 50
270.0
 51
360.0
  0
ARC
  5
2C4
100
AcDbEntity
  8
0
100
AcDbCircle
 62
250
  6
CONTINUOUS
 10
44.675
 20
26.225
 40
0.9
100
AcDbArc
 50
0.0
 51
90.0
  0
ARC
  5
2C5
100
AcDbEntity
  8
0
100
AcDbCircle
 62
250
  6
CONTINUOUS
 10
-44.675
 20
26.225
 40
0.9
100
AcDbArc
 50
90.0
 51
180.0
  0
ARC
  5
2C6
100
AcDbEntity
  8
0
100
AcDbCircle
 62
250
  6
CONTINUOUS
 10
-44.675
 20
-26.225
 40
0.9
100
AcDbArc
 50
180.0
 51
270.0
  0
ARC
  5
2C7
100
AcDbEntity
  8
RACCORDO
100
AcDbCircle
 62
7
  6
CONTINUOUS
 10
-45.825
 20
19.5
 40
0.6
100
AcDbArc
 50
336.4996154921
 51
23.5003845079
  0
ARC
  5
2C8
100
AcDbEntity
  8
RACCORDO
100
AcDbCircle
 62
7
  6
CONTINUOUS
 10
-45.825
 20
-19.5
 40
0.6
100
AcDbArc
 50
336.4996154921
 51
23.5003845079
  0
ARC
  5
2C9
100
AcDbEntity
  8
RACCORDO
100
AcDbCircle
 62
7
  6
CONTINUOUS
 10
45.825
 20
19.5
 40
0.6
100
AcDbArc
 50
156.4996154921
 51
203.5003845079
  0
ARC
  5
2CA
100
AcDbEntity
  8
RACCORDO
100
AcDbCircle
 62
7
  6
CONTINUOUS
 10
45.825
 20
-19.5
 40
0.6
100
AcDbArc
 50
156.4996154921
 51
203.5003845079
  0
ARC
  5
2CB
100
AcDbEntity
  8
0
100
AcDbCircle
 62
7
  6
CONTINUOUS
 10
-44.675
 20
-26.225
 40
0.6
100
AcDbArc
 50
180.0
 51
270.0
  0
ARC
  5
2CC
100
AcDbEntity
  8
0
100
AcDbCircle
 62
7
  6
CONTINUOUS
 10
-44.675
 20
26.225
 40
0.6
100
AcDbArc
 50
90.0
 51
180.0
  0
ARC
  5
2CD
100
AcDbEntity
  8
0
100
AcDbCircle
 62
7
  6
CONTINUOUS
 10
44.675
 20
26.225
 40
0.6
100
AcDbArc
 50
0.0
 51
90.0
  0
ARC
  5
2CE
100
AcDbEntity
  8
0
100
AcDbCircle
 62
7
  6
CONTINUOUS
 10
44.675
 20
-26.225
 40
0.6
100
AcDbArc
 50
270.0
 51
360.0
  0
ARC
  5
2CF
100
AcDbEntity
  8
RACCORDO
100
AcDbCircle
 62
250
  6
CONTINUOUS
 10
-45.825
 20
19.5
 40
0.5947025539
100
AcDbArc
 50
337.6763752821
 51
22.3236248806
  0
ARC
  5
2D0
100
AcDbEntity
  8
RACCORDO
100
AcDbCircle
 62
250
  6
CONTINUOUS
 10
-45.825
 20
-19.5
 40
0.5947025539
100
AcDbArc
 50
337.6763752821
 51
22.3236248806
  0
ARC
  5
2D1
100
AcDbEntity
  8
RACCORDO
100
AcDbCircle
 62
250
  6
CONTINUOUS
 10
45.825
 20
19.5
 40
0.5947025539
100
AcDbArc
 50
157.6763752821
 51
202.3236248806
  0
ARC
  5
2D2
100
AcDbEntity
  8
RACCORDO
100
AcDbCircle
 62
250
  6
CONTINUOUS
 10
45.825
 20
-19.5
 40
0.5947025539
100
AcDbArc
 50
157.6763752821
 51
202.3236248806
  0
ARC
  5
2D3
100
AcDbEntity
  8
0
100
AcDbCircle
 62
7
  6
CONTINUOUS
 10
-116.55
 20
-43.5
 40
0.5
100
AcDbArc
 50
180.0
 51
270.0
  0
ARC
  5
2D4
100
AcDbEntity
  8
0
100
AcDbCircle
 62
7
  6
CONTINUOUS
 10
-116.55
 20
43.5
 40
0.5
100
AcDbArc
 50
90.0
 51
180.0
  0
ARC
  5
2D5
100
AcDbEntity
  8
RACCORDO
100
AcDbCircle
 62
7
  6
CONTINUOUS
 10
-111.65
 20
-42.2475595984
 40
0.2
100
AcDbArc
 50
271.5
 51
360.0
  0
ARC
  5
2D6
100
AcDbEntity
  8
RACCORDO
100
AcDbCircle
 62
7
  6
CONTINUOUS
 10
-110.3633774828
 20
-19.1654815875
 40
1.0
100
AcDbArc
 50
60.0
 51
82.5
  0
ARC
  5
2D7
100
AcDbEntity
  8
RACCORDO
100
AcDbCircle
 62
7
  6
CONTINUOUS
 10
-110.3633774828
 20
-19.8345184125
 40
1.0
100
AcDbArc
 50
277.5
 51
300.0
  0
ARC
  5
2D8
100
AcDbEntity
  8
RACCORDO
100
AcDbCircle
 62
7
  6
CONTINUOUS
 10
-108.3110196069
 20
-21.0029963155
 40
1.0
100
AcDbArc
 50
55.0
 51
89.5
  0
ARC
  5
2D9
100
AcDbEntity
  8
RACCORDO
100
AcDbCircle
 62
250
  6
CONTINUOUS
 10
-108.3075031385
 20
-21.0029151318
 40
0.7999185931
100
AcDbArc
 50
54.9981894373
 51
89.5018105627
  0
ARC
  5
2DA
100
AcDbEntity
  8
RACCORDO
100
AcDbCircle
 62
7
  6
CONTINUOUS
 10
-108.3110196069
 20
-17.9970036845
 40
1.0
100
AcDbArc
 50
270.5
 51
305.0
  0
ARC
  5
2DB
100
AcDbEntity
  8
RACCORDO
100
AcDbCircle
 62
250
  6
CONTINUOUS
 10
-108.3075031348
 20
-17.99708488
 40
0.7999185812
100
AcDbArc
 50
270.4981891733
 51
305.0018108267
  0
ARC
  5
2DC
100
AcDbEntity
  8
RACCORDO
100
AcDbCircle
 62
7
  6
CONTINUOUS
 10
-107.25
 20
-21.135542948
 40
0.5
100
AcDbArc
 50
0.0
 51
55.0
  0
ARC
  5
2DD
100
AcDbEntity
  8
RACCORDO
100
AcDbCircle
 62
7
  6
CONTINUOUS
 10
-107.25
 20
-21.4790882178
 40
0.5
100
AcDbArc
 50
282.5
 51
360.0
  0
ARC
  5
2DE
100
AcDbEntity
  8
RACCORDO
100
AcDbCircle
 62
250
  6
CONTINUOUS
 10
-107.2465236771
 20
-21.1355503184
 40
0.3000141584
100
AcDbArc
 50
0.0014075703
 51
54.9985924297
  0
ARC
  5
2DF
100
AcDbEntity
  8
RACCORDO
100
AcDbCircle
 62
250
  6
CONTINUOUS
 10
-107.246509525
 20
-21.4790882128
 40
0.3000000062
100
AcDbArc
 50
282.5000009573
 51
359.9999990427
  0
ARC
  5
2E0
100
AcDbEntity
  8
RACCORDO
100
AcDbCircle
 62
7
  6
CONTINUOUS
 10
-107.25
 20
-17.864457052
 40
0.5
100
AcDbArc
 50
305.0
 51
360.0
  0
ARC
  5
2E1
100
AcDbEntity
  8
RACCORDO
100
AcDbCircle
 62
7
  6
CONTINUOUS
 10
-107.25
 20
-17.5209117822
 40
0.5
100
AcDbArc
 50
0.0
 51
77.5
  0
ARC
  5
2E2
100
AcDbEntity
  8
RACCORDO
100
AcDbCircle
 62
250
  6
CONTINUOUS
 10
-107.2465236779
 20
-17.8644496812
 40
0.3000141593
100
AcDbArc
 50
305.0014076538
 51
359.9985923462
  0
ARC
  5
2E3
100
AcDbEntity
  8
RACCORDO
100
AcDbCircle
 62
250
  6
CONTINUOUS
 10
-107.2465095253
 20
-17.5209117875
 40
0.3000000066
100
AcDbArc
 50
0.0000010143
 51
77.4999989857
  0
ARC
  5
2E4
100
AcDbEntity
  8
RACCORDO
100
AcDbCircle
 62
7
  6
CONTINUOUS
 10
-110.3633774828
 20
19.8345184125
 40
1.0
100
AcDbArc
 50
60.0
 51
82.5
  0
ARC
  5
2E5
100
AcDbEntity
  8
RACCORDO
100
AcDbCircle
 62
7
  6
CONTINUOUS
 10
-110.3633774828
 20
19.1654815875
 40
1.0
100
AcDbArc
 50
277.5
 51
300.0
  0
ARC
  5
2E6
100
AcDbEntity
  8
RACCORDO
100
AcDbCircle
 62
7
  6
CONTINUOUS
 10
-111.65
 20
42.2475595984
 40
0.2
100
AcDbArc
 50
0.0
 51
88.5
  0
ARC
  5
2E7
100
AcDbEntity
  8
RACCORDO
100
AcDbCircle
 62
7
  6
CONTINUOUS
 10
-108.3110196069
 20
17.9970036845
 40
1.0
100
AcDbArc
 50
55.0
 51
89.5
  0
ARC
  5
2E8
100
AcDbEntity
  8
RACCORDO
100
AcDbCircle
 62
250
  6
CONTINUOUS
 10
-108.3075031385
 20
17.9970848682
 40
0.7999185931
100
AcDbArc
 50
54.9981894373
 51
89.5018105627
  0
ARC
  5
2E9
100
AcDbEntity
  8
RACCORDO
100
AcDbCircle
 62
7
  6
CONTINUOUS
 10
-108.3110196069
 20
21.0029963155
 40
1.0
100
AcDbArc
 50
270.5
 51
305.0
  0
ARC
  5
2EA
100
AcDbEntity
  8
RACCORDO
100
AcDbCircle
 62
250
  6
CONTINUOUS
 10
-108.3075031348
 20
21.00291512
 40
0.7999185812
100
AcDbArc
 50
270.4981891733
 51
305.0018108267
  0
ARC
  5
2EB
100
AcDbEntity
  8
RACCORDO
100
AcDbCircle
 62
7
  6
CONTINUOUS
 10
-107.25
 20
17.5209117822
 40
0.5
100
AcDbArc
 50
282.5
 51
360.0
  0
ARC
  5
2EC
100
AcDbEntity
  8
RACCORDO
100
AcDbCircle
 62
7
  6
CONTINUOUS
 10
-107.25
 20
17.864457052
 40
0.5
100
AcDbArc
 50
0.0
 51
55.0
  0
ARC
  5
2ED
100
AcDbEntity
  8
RACCORDO
100
AcDbCircle
 62
250
  6
CONTINUOUS
 10
-107.2465236771
 20
17.8644496816
 40
0.3000141584
100
AcDbArc
 50
0.0014075703
 51
54.9985924297
  0
ARC
  5
2EE
100
AcDbEntity
  8
RACCORDO
100
AcDbCircle
 62
250
  6
CONTINUOUS
 10
-107.246509525
 20
17.5209117872
 40
0.3000000062
100
AcDbArc
 50
282.5000009573
 51
359.9999990427
  0
ARC
  5
2EF
100
AcDbEntity
  8
RACCORDO
100
AcDbCircle
 62
7
  6
CONTINUOUS
 10
-107.25
 20
21.135542948
 40
0.5
100
AcDbArc
 50
305.0
 51
360.0
  0
ARC
  5
2F0
100
AcDbEntity
  8
RACCORDO
100
AcDbCircle
 62
7
  6
CONTINUOUS
 10
-107.25
 20
21.4790882178
 40
0.5
100
AcDbArc
 50
0.0
 51
77.5
  0
ARC
  5
2F1
100
AcDbEntity
  8
RACCORDO
100
AcDbCircle
 62
250
  6
CONTINUOUS
 10
-107.2465236779
 20
21.1355503188
 40
0.3000141593
100
AcDbArc
 50
305.0014076538
 51
359.9985923462
  0
ARC
  5
2F2
100
AcDbEntity
  8
RACCORDO
100
AcDbCircle
 62
250
  6
CONTINUOUS
 10
-107.2465095253
 20
21.4790882125
 40
0.3000000066
100
AcDbArc
 50
0.0000010143
 51
77.4999989857
  0
SPLINE
  5
2F3
100
AcDbEntity
  8
RACCORDO
100
AcDbSpline
 62
250
  6
CONTINUOUS
 70
0
 71
3
 72
22
 73
18
 74
0
 42
0.0000001
 43
0.0000001
 44
0.0000000001
 40
0.0
 40
0.0
 40
0.0
 40
0.0
 40
0.195047414
 40
0.3825917607
 40
0.5554425324
 40
0.7069514687
 40
0.7728434083
 40
0.8312988239
 40
0.8817500007
 40
0.9237185685
 40
0.9567936322
 40
0.9698984755
 40
0.9806651873
 40
0.989067051
 40
0.9950917993
 40
0.9987309212
 40
1.0
 40
1.0
 40
1.0
 40
1.0
 10
-111.6447646103
 20
-41.7477309359
 30
0.0
 10
-111.6444241243
 20
-41.7932297031
 30
0.0
 10
-111.6438224937
 20
-41.8824775091
 30
0.0
 10
-111.6431412019
 20
-42.0120476175
 30
0.0
 10
-111.6427149361
 20
-42.1314623426
 30
0.0
 10
-111.6425747348
 20
-42.2224988022
 30
0.0
 10
-111.6426182892
 20
-42.2868500412
 30
0.0
 10
-111.6427194559
 20
-42.3276255399
 30
0.0
 10
-111.6428859507
 20
-42.3628234178
 30
0.0
 10
-111.6431224074
 20
-42.3920903479
 30
0.0
 10
-111.6433714871
 20
-42.4126686913
 30
0.0
 10
-111.6436375166
 20
-42.4259247635
 30
0.0
 10
-111.6437978865
 20
-42.4335058827
 30
0.0
 10
-111.6440695807
 20
-42.4392375677
 30
0.0
 10
-111.6441117159
 20
-42.4437702403
 30
0.0
 10
-111.6446027249
 20
-42.4457402765
 30
0.0
 10
-111.6444686862
 20
-42.4474825476
 30
0.0
 10
-111.6447646103
 20
-42.4474910634
 30
0.0
  0
SPLINE
  5
2F4
100
AcDbEntity
  8
RACCORDO
100
AcDbSpline
 62
250
  6
CONTINUOUS
 70
0
 71
3
 72
22
 73
18
 74
0
 42
0.0000001
 43
0.0000001
 44
0.0000000001
 40
0.0
 40
0.0
 40
0.0
 40
0.0
 40
0.001267315
 40
0.0049024824
 40
0.0109224299
 40
0.0193199685
 40
0.0300808764
 40
0.0431753577
 40
0.0762315481
 40
0.1181854346
 40
0.168622345
 40
0.2270688592
 40
0.2929511348
 40
0.4444444221
 40
0.6172843129
 40
0.8048873126
 40
1.0
 40
1.0
 40
1.0
 40
1.0
 10
-111.6447646103
 20
42.4474910634
 30
0.0
 10
-111.644469091
 20
42.4474827851
 30
0.0
 10
-111.6446023715
 20
42.4457422189
 30
0.0
 10
-111.6441120897
 20
42.4437744511
 30
0.0
 10
-111.6440696812
 20
42.4392448243
 30
0.0
 10
-111.6437981997
 20
42.4335166647
 30
0.0
 10
-111.6436378409
 20
42.4259403098
 30
0.0
 10
-111.643371757
 20
42.4126924172
 30
0.0
 10
-111.6431227263
 20
42.3921243116
 30
0.0
 10
-111.6428862681
 20
42.3628685401
 30
0.0
 10
-111.6427196399
 20
42.3276794884
 30
0.0
 10
-111.6426183857
 20
42.2869116472
 30
0.0
 10
-111.6425746886
 20
42.2225683859
 30
0.0
 10
-111.6427147044
 20
42.1315403642
 30
0.0
 10
-111.6431409381
 20
42.0121181386
 30
0.0
 10
-111.6438222314
 20
41.8825216519
 30
0.0
 10
-111.6444238579
 20
41.7932449309
 30
0.0
 10
-111.6447646103
 20
41.7477309359
 30
0.0
  0
SPLINE
  5
2F5
100
AcDbEntity
  8
RACCORDO
100
AcDbSpline
 62
250
  6
CONTINUOUS
 70
0
 71
3
 72
18
 73
14
 74
0
 42
0.0000001
 43
0.0000001
 44
0.0000000001
 40
0.0
 40
0.0
 40
0.0
 40
0.0
 40
0.1950165576
 40
0.3827979424
 40
0.5555604353
 40
0.7069260423
 40
0.831196573
 40
0.8815844087
 40
0.9235177319
 40
0.9565750536
 40
0.9804171176
 40
0.9948932333
 40
1.0
 40
1.0
 40
1.0
 40
1.0
 10
-107.1815776345
 20
-21.7719770199
 30
0.0
 10
-107.1787735332
 20
-21.784629367
 30
0.0
 10
-107.1733103205
 20
-21.8094739288
 30
0.0
 10
-107.1655043884
 20
-21.845557024
 30
0.0
 10
-107.1584372318
 20
-21.8788350205
 30
0.0
 10
-107.1523903753
 20
-21.908005193
 30
0.0
 10
-107.1481100245
 20
-21.9292610737
 30
0.0
 10
-107.1454062859
 20
-21.9433703582
 30
0.0
 10
-107.1438529488
 20
-21.9516159191
 30
0.0
 10
-107.1428253918
 20
-21.9579477103
 30
0.0
 10
-107.1418689986
 20
-21.9629532242
 30
0.0
 10
-107.14192677
 20
-21.9652500429
 30
0.0
 10
-107.1414488793
 20
-21.9671627709
 30
0.0
 10
-107.141780193
 20
-21.9672362214
 30
0.0
  0
SPLINE
  5
2F6
100
AcDbEntity
  8
RACCORDO
100
AcDbSpline
 62
250
  6
CONTINUOUS
 70
0
 71
3
 72
18
 73
14
 74
0
 42
0.0000001
 43
0.0000001
 44
0.0000000001
 40
0.0
 40
0.0
 40
0.0
 40
0.0
 40
0.1953793097
 40
0.3833278099
 40
0.5561143736
 40
0.7074103727
 40
0.8315641237
 40
0.8818889145
 40
0.9237611212
 40
0.9567621701
 40
0.9805538195
 40
0.9949807162
 40
1.0
 40
1.0
 40
1.0
 40
1.0
 10
-107.0744365878
 20
-20.8897973348
 30
0.0
 10
-107.0670388955
 20
-20.8792291163
 30
0.0
 10
-107.0525533238
 20
-20.8584744617
 30
0.0
 10
-107.0316249267
 20
-20.8283055378
 30
0.0
 10
-107.0124417665
 20
-20.8004646776
 30
0.0
 10
-106.9957548617
 20
-20.7760311245
 30
0.0
 10
-106.9836957922
 20
-20.7581980699
 30
0.0
 10
-106.9758087607
 20
-20.7463218088
 30
0.0
 10
-106.9712093605
 20
-20.7393797014
 30
0.0
 10
-106.9678422252
 20
-20.7339894259
 30
0.0
 10
-106.9649872013
 20
-20.7297997477
 30
0.0
 10
-106.9642033925
 20
-20.7276871526
 30
0.0
 10
-106.9629403121
 20
-20.7261570111
 30
0.0
 10
-106.9632117818
 20
-20.7259669259
 30
0.0
  0
SPLINE
  5
2F7
100
AcDbEntity
  8
RACCORDO
100
AcDbSpline
 62
250
  6
CONTINUOUS
 70
0
 71
3
 72
18
 73
14
 74
0
 42
0.0000001
 43
0.0000001
 44
0.0000000001
 40
0.0
 40
0.0
 40
0.0
 40
0.0
 40
0.195379292
 40
0.3833277567
 40
0.5561143141
 40
0.7074103242
 40
0.8315640869
 40
0.8818888858
 40
0.9237611022
 40
0.9567621567
 40
0.9805538107
 40
0.9949807123
 40
1.0
 40
1.0
 40
1.0
 40
1.0
 10
-107.8486679766
 20
-20.34767468
 30
0.0
 10
-107.8412702842
 20
-20.337106463
 30
0.0
 10
-107.8267847132
 20
-20.3163518121
 30
0.0
 10
-107.8058563169
 20
-20.2861828923
 30
0.0
 10
-107.7866731567
 20
-20.2583420344
 30
0.0
 10
-107.7699862509
 20
-20.2339084806
 30
0.0
 10
-107.7579271804
 20
-20.2160754241
 30
0.0
 10
-107.7500401481
 20
-20.2041991612
 30
0.0
 10
-107.7454407476
 20
-20.1972570522
 30
0.0
 10
-107.7420736118
 20
-20.1918667753
 30
0.0
 10
-107.7392185891
 20
-20.1876770955
 30
0.0
 10
-107.738434779
 20
-20.1855644996
 30
0.0
 10
-107.7371717006
 20
-20.1840343565
 30
0.0
 10
-107.7374431706
 20
-20.1838442712
 30
0.0
  0
SPLINE
  5
2F8
100
AcDbEntity
  8
RACCORDO
100
AcDbSpline
 62
250
  6
CONTINUOUS
 70
0
 71
3
 72
18
 73
14
 74
0
 42
0.0000001
 43
0.0000001
 44
0.0000000001
 40
0.0
 40
0.0
 40
0.0
 40
0.0
 40
0.1948185207
 40
0.3825152432
 40
0.5552748953
 40
0.7066898867
 40
0.8310339679
 40
0.881459599
 40
0.9234281399
 40
0.9565159447
 40
0.9803821941
 40
0.9948762089
 40
1.0
 40
1.0
 40
1.0
 40
1.0
 10
-108.3005478972
 20
-20.203026777
 30
0.0
 10
-108.3004345424
 20
-20.1900336434
 30
0.0
 10
-108.3002552282
 20
-20.1645217846
 30
0.0
 10
-108.3001240703
 20
-20.1274880109
 30
0.0
 10
-108.3001357986
 20
-20.0933457828
 30
0.0
 10
-108.3002945467
 20
-20.063438668
 30
0.0
 10
-108.3005372793
 20
-20.0416673864
 30
0.0
 10
-108.3008356027
 20
-20.0272418785
 30
0.0
 10
-108.3010386016
 20
-20.0188164406
 30
0.0
 10
-108.3013557393
 20
-20.012379208
 30
0.0
 10
-108.301473024
 20
-20.0072631769
 30
0.0
 10
-108.3020070032
 20
-20.005013492
 30
0.0
 10
-108.3019513478
 20
-20.0030373746
 30
0.0
 10
-108.3022930714
 20
-20.0030343924
 30
0.0
  0
SPLINE
  5
2F9
100
AcDbEntity
  8
RACCORDO
100
AcDbSpline
 62
250
  6
CONTINUOUS
 70
0
 71
3
 72
18
 73
14
 74
0
 42
0.0000001
 43
0.0000001
 44
0.0000000001
 40
0.0
 40
0.0
 40
0.0
 40
0.0
 40
0.1948185039
 40
0.3825151917
 40
0.5552748386
 40
0.7066898421
 40
0.8310339359
 40
0.8814595753
 40
0.9234281262
 40
0.9565159366
 40
0.9803821901
 40
0.9948762089
 40
1.0
 40
1.0
 40
1.0
 40
1.0
 10
-108.3005478972
 20
-18.796973223
 30
0.0
 10
-108.3004345432
 20
-18.8099663554
 30
0.0
 10
-108.3002552303
 20
-18.8354782108
 30
0.0
 10
-108.300124074
 20
-18.8725119806
 30
0.0
 10
-108.3001358033
 20
-18.9066542067
 30
0.0
 10
-108.3002945518
 20
-18.9365613227
 30
0.0
 10
-108.3005372842
 20
-18.9583326064
 30
0.0
 10
-108.3008356073
 20
-18.9727581163
 30
0.0
 10
-108.3010386055
 20
-18.9811835559
 30
0.0
 10
-108.3013557431
 20
-18.9876207897
 30
0.0
 10
-108.3014730262
 20
-18.9927368221
 30
0.0
 10
-108.3020070063
 20
-18.9949865067
 30
0.0
 10
-108.3019513483
 20
-18.9969626254
 30
0.0
 10
-108.302293072
 20
-18.9969656076
 30
0.0
  0
SPLINE
  5
2FA
100
AcDbEntity
  8
RACCORDO
100
AcDbSpline
 62
250
  6
CONTINUOUS
 70
0
 71
3
 72
18
 73
14
 74
0
 42
0.0000001
 43
0.0000001
 44
0.0000000001
 40
0.0
 40
0.0
 40
0.0
 40
0.0
 40
0.1953793097
 40
0.3833278099
 40
0.5561143736
 40
0.7074103727
 40
0.8315641237
 40
0.8818889145
 40
0.9237611212
 40
0.9567621701
 40
0.9805538195
 40
0.9949807162
 40
1.0
 40
1.0
 40
1.0
 40
1.0
 10
-107.8486679766
 20
-18.65232532
 30
0.0
 10
-107.8412702842
 20
-18.6628935385
 30
0.0
 10
-107.8267847126
 20
-18.6836481931
 30
0.0
 10
-107.8058563155
 20
-18.7138171169
 30
0.0
 10
-107.7866731552
 20
-18.7416579771
 30
0.0
 10
-107.7699862505
 20
-18.7660915302
 30
0.0
 10
-107.757927181
 20
-18.7839245849
 30
0.0
 10
-107.7500401495
 20
-18.7958008459
 30
0.0
 10
-107.7454407492
 20
-18.8027429533
 30
0.0
 10
-107.742073614
 20
-18.8081332288
 30
0.0
 10
-107.7392185901
 20
-18.812322907
 30
0.0
 10
-107.7384347813
 20
-18.8144355021
 30
0.0
 10
-107.7371717008
 20
-18.8159656437
 30
0.0
 10
-107.7374431706
 20
-18.8161557288
 30
0.0
  0
SPLINE
  5
2FB
100
AcDbEntity
  8
RACCORDO
100
AcDbSpline
 62
250
  6
CONTINUOUS
 70
0
 71
3
 72
18
 73
14
 74
0
 42
0.0000001
 43
0.0000001
 44
0.0000000001
 40
0.0
 40
0.0
 40
0.0
 40
0.0
 40
0.1953792995
 40
0.3833277775
 40
0.5561143379
 40
0.7074103448
 40
0.8315641041
 40
0.8818889004
 40
0.9237611137
 40
0.9567621662
 40
0.9805538183
 40
0.9949807173
 40
1.0
 40
1.0
 40
1.0
 40
1.0
 10
-107.0744365878
 20
-18.1102026652
 30
0.0
 10
-107.0670388971
 20
-18.1207708839
 30
0.0
 10
-107.0525533287
 20
-18.1415255381
 30
0.0
 10
-107.0316249353
 20
-18.1716944615
 30
0.0
 10
-107.0124417771
 20
-18.1995353215
 30
0.0
 10
-106.9957548725
 20
-18.2239688755
 30
0.0
 10
-106.9836958017
 20
-18.241801931
 30
0.0
 10
-106.9758087687
 20
-18.2536781925
 30
0.0
 10
-106.9712093668
 20
-18.2606203001
 30
0.0
 10
-106.9678422307
 20
-18.2660105758
 30
0.0
 10
-106.9649872039
 20
-18.2702002535
 30
0.0
 10
-106.9642033965
 20
-18.2723128487
 30
0.0
 10
-106.9629403121
 20
-18.273842989
 30
0.0
 10
-106.9632117818
 20
-18.2740330741
 30
0.0
  0
SPLINE
  5
2FC
100
AcDbEntity
  8
RACCORDO
100
AcDbSpline
 62
250
  6
CONTINUOUS
 70
0
 71
3
 72
18
 73
14
 74
0
 42
0.0000001
 43
0.0000001
 44
0.0000000001
 40
0.0
 40
0.0
 40
0.0
 40
0.0
 40
0.1950165759
 40
0.3827979998
 40
0.5555604988
 40
0.706926092
 40
0.8311966082
 40
0.881584434
 40
0.9235177455
 40
0.9565750608
 40
0.98041712
 40
0.9948932316
 40
1.0
 40
1.0
 40
1.0
 40
1.0
 10
-107.1815776345
 20
-17.2280229801
 30
0.0
 10
-107.1787735309
 20
-17.2153706322
 30
0.0
 10
-107.1733103139
 20
-17.1905260672
 30
0.0
 10
-107.165504377
 20
-17.1544429685
 30
0.0
 10
-107.1584372177
 20
-17.1211649702
 30
0.0
 10
-107.1523903606
 20
-17.0919947991
 30
0.0
 10
-107.1481100111
 20
-17.0707389206
 30
0.0
 10
-107.1454062745
 20
-17.056629638
 30
0.0
 10
-107.1438529396
 20
-17.0483840786
 30
0.0
 10
-107.1428253836
 20
-17.0420522884
 30
0.0
 10
-107.1418689945
 20
-17.0370467757
 30
0.0
 10
-107.1419267641
 20
-17.0347499562
 30
0.0
 10
-107.1414488792
 20
-17.0328372291
 30
0.0
 10
-107.141780193
 20
-17.0327637786
 30
0.0
  0
SPLINE
  5
2FD
100
AcDbEntity
  8
RACCORDO
100
AcDbSpline
 62
250
  6
CONTINUOUS
 70
0
 71
3
 72
18
 73
14
 74
0
 42
0.0000001
 43
0.0000001
 44
0.0000000001
 40
0.0
 40
0.0
 40
0.0
 40
0.0
 40
0.1950165576
 40
0.3827979424
 40
0.5555604353
 40
0.7069260423
 40
0.831196573
 40
0.8815844087
 40
0.9235177319
 40
0.9565750536
 40
0.9804171176
 40
0.9948932333
 40
1.0
 40
1.0
 40
1.0
 40
1.0
 10
-107.1815776345
 20
17.2280229801
 30
0.0
 10
-107.1787735332
 20
17.215370633
 30
0.0
 10
-107.1733103205
 20
17.1905260712
 30
0.0
 10
-107.1655043884
 20
17.154442976
 30
0.0
 10
-107.1584372318
 20
17.1211649795
 30
0.0
 10
-107.1523903753
 20
17.091994807
 30
0.0
 10
-107.1481100245
 20
17.0707389263
 30
0.0
 10
-107.1454062859
 20
17.0566296418
 30
0.0
 10
-107.1438529488
 20
17.0483840809
 30
0.0
 10
-107.1428253918
 20
17.0420522897
 30
0.0
 10
-107.1418689986
 20
17.0370467758
 30
0.0
 10
-107.14192677
 20
17.0347499571
 30
0.0
 10
-107.1414488793
 20
17.0328372291
 30
0.0
 10
-107.141780193
 20
17.0327637786
 30
0.0
  0
SPLINE
  5
2FE
100
AcDbEntity
  8
RACCORDO
100
AcDbSpline
 62
250
  6
CONTINUOUS
 70
0
 71
3
 72
18
 73
14
 74
0
 42
0.0000001
 43
0.0000001
 44
0.0000000001
 40
0.0
 40
0.0
 40
0.0
 40
0.0
 40
0.1953793097
 40
0.3833278099
 40
0.5561143736
 40
0.7074103727
 40
0.8315641237
 40
0.8818889145
 40
0.9237611212
 40
0.9567621701
 40
0.9805538195
 40
0.9949807162
 40
1.0
 40
1.0
 40
1.0
 40
1.0
 10
-107.0744365878
 20
18.1102026652
 30
0.0
 10
-107.0670388955
 20
18.1207708837
 30
0.0
 10
-107.0525533238
 20
18.1415255383
 30
0.0
 10
-107.0316249267
 20
18.1716944622
 30
0.0
 10
-107.0124417665
 20
18.1995353224
 30
0.0
 10
-106.9957548617
 20
18.2239688755
 30
0.0
 10
-106.9836957922
 20
18.2418019301
 30
0.0
 10
-106.9758087607
 20
18.2536781912
 30
0.0
 10
-106.9712093605
 20
18.2606202986
 30
0.0
 10
-106.9678422252
 20
18.2660105741
 30
0.0
 10
-106.9649872013
 20
18.2702002523
 30
0.0
 10
-106.9642033925
 20
18.2723128474
 30
0.0
 10
-106.9629403121
 20
18.2738429889
 30
0.0
 10
-106.9632117818
 20
18.2740330741
 30
0.0
  0
SPLINE
  5
2FF
100
AcDbEntity
  8
RACCORDO
100
AcDbSpline
 62
250
  6
CONTINUOUS
 70
0
 71
3
 72
18
 73
14
 74
0
 42
0.0000001
 43
0.0000001
 44
0.0000000001
 40
0.0
 40
0.0
 40
0.0
 40
0.0
 40
0.195379292
 40
0.3833277567
 40
0.5561143141
 40
0.7074103242
 40
0.8315640869
 40
0.8818888858
 40
0.9237611022
 40
0.9567621567
 40
0.9805538107
 40
0.9949807123
 40
1.0
 40
1.0
 40
1.0
 40
1.0
 10
-107.8486679766
 20
18.65232532
 30
0.0
 10
-107.8412702842
 20
18.662893537
 30
0.0
 10
-107.8267847132
 20
18.6836481879
 30
0.0
 10
-107.8058563169
 20
18.7138171077
 30
0.0
 10
-107.7866731567
 20
18.7416579656
 30
0.0
 10
-107.7699862509
 20
18.7660915194
 30
0.0
 10
-107.7579271804
 20
18.7839245759
 30
0.0
 10
-107.7500401481
 20
18.7958008388
 30
0.0
 10
-107.7454407476
 20
18.8027429478
 30
0.0
 10
-107.7420736118
 20
18.8081332247
 30
0.0
 10
-107.7392185891
 20
18.8123229045
 30
0.0
 10
-107.738434779
 20
18.8144355004
 30
0.0
 10
-107.7371717006
 20
18.8159656435
 30
0.0
 10
-107.7374431706
 20
18.8161557288
 30
0.0
  0
SPLINE
  5
300
100
AcDbEntity
  8
RACCORDO
100
AcDbSpline
 62
250
  6
CONTINUOUS
 70
0
 71
3
 72
18
 73
14
 74
0
 42
0.0000001
 43
0.0000001
 44
0.0000000001
 40
0.0
 40
0.0
 40
0.0
 40
0.0
 40
0.1948185207
 40
0.3825152432
 40
0.5552748953
 40
0.7066898867
 40
0.8310339679
 40
0.881459599
 40
0.9234281399
 40
0.9565159447
 40
0.9803821941
 40
0.9948762089
 40
1.0
 40
1.0
 40
1.0
 40
1.0
 10
-108.3005478972
 20
18.796973223
 30
0.0
 10
-108.3004345424
 20
18.8099663566
 30
0.0
 10
-108.3002552282
 20
18.8354782154
 30
0.0
 10
-108.3001240703
 20
18.8725119891
 30
0.0
 10
-108.3001357986
 20
18.9066542172
 30
0.0
 10
-108.3002945467
 20
18.936561332
 30
0.0
 10
-108.3005372793
 20
18.9583326136
 30
0.0
 10
-108.3008356027
 20
18.9727581215
 30
0.0
 10
-108.3010386016
 20
18.9811835594
 30
0.0
 10
-108.3013557393
 20
18.987620792
 30
0.0
 10
-108.301473024
 20
18.9927368231
 30
0.0
 10
-108.3020070032
 20
18.994986508
 30
0.0
 10
-108.3019513478
 20
18.9969626254
 30
0.0
 10
-108.3022930714
 20
18.9969656076
 30
0.0
  0
SPLINE
  5
301
100
AcDbEntity
  8
RACCORDO
100
AcDbSpline
 62
250
  6
CONTINUOUS
 70
0
 71
3
 72
18
 73
14
 74
0
 42
0.0000001
 43
0.0000001
 44
0.0000000001
 40
0.0
 40
0.0
 40
0.0
 40
0.0
 40
0.1948185039
 40
0.3825151917
 40
0.5552748386
 40
0.7066898421
 40
0.8310339359
 40
0.8814595753
 40
0.9234281262
 40
0.9565159366
 40
0.9803821901
 40
0.9948762089
 40
1.0
 40
1.0
 40
1.0
 40
1.0
 10
-108.3005478972
 20
20.203026777
 30
0.0
 10
-108.3004345432
 20
20.1900336446
 30
0.0
 10
-108.3002552303
 20
20.1645217892
 30
0.0
 10
-108.300124074
 20
20.1274880194
 30
0.0
 10
-108.3001358033
 20
20.0933457933
 30
0.0
 10
-108.3002945518
 20
20.0634386773
 30
0.0
 10
-108.3005372842
 20
20.0416673936
 30
0.0
 10
-108.3008356073
 20
20.0272418837
 30
0.0
 10
-108.3010386055
 20
20.0188164441
 30
0.0
 10
-108.3013557431
 20
20.0123792103
 30
0.0
 10
-108.3014730262
 20
20.0072631779
 30
0.0
 10
-108.3020070063
 20
20.0050134933
 30
0.0
 10
-108.3019513483
 20
20.0030373746
 30
0.0
 10
-108.302293072
 20
20.0030343924
 30
0.0
  0
SPLINE
  5
302
100
AcDbEntity
  8
RACCORDO
100
AcDbSpline
 62
250
  6
CONTINUOUS
 70
0
 71
3
 72
18
 73
14
 74
0
 42
0.0000001
 43
0.0000001
 44
0.0000000001
 40
0.0
 40
0.0
 40
0.0
 40
0.0
 40
0.1953793097
 40
0.3833278099
 40
0.5561143736
 40
0.7074103727
 40
0.8315641237
 40
0.8818889145
 40
0.9237611212
 40
0.9567621701
 40
0.9805538195
 40
0.9949807162
 40
1.0
 40
1.0
 40
1.0
 40
1.0
 10
-107.8486679766
 20
20.34767468
 30
0.0
 10
-107.8412702842
 20
20.3371064615
 30
0.0
 10
-107.8267847126
 20
20.3163518069
 30
0.0
 10
-107.8058563155
 20
20.2861828831
 30
0.0
 10
-107.7866731552
 20
20.2583420229
 30
0.0
 10
-107.7699862505
 20
20.2339084698
 30
0.0
 10
-107.757927181
 20
20.2160754151
 30
0.0
 10
-107.7500401495
 20
20.2041991541
 30
0.0
 10
-107.7454407492
 20
20.1972570467
 30
0.0
 10
-107.742073614
 20
20.1918667712
 30
0.0
 10
-107.7392185901
 20
20.187677093
 30
0.0
 10
-107.7384347813
 20
20.1855644979
 30
0.0
 10
-107.7371717008
 20
20.1840343563
 30
0.0
 10
-107.7374431706
 20
20.1838442712
 30
0.0
  0
SPLINE
  5
303
100
AcDbEntity
  8
RACCORDO
100
AcDbSpline
 62
250
  6
CONTINUOUS
 70
0
 71
3
 72
18
 73
14
 74
0
 42
0.0000001
 43
0.0000001
 44
0.0000000001
 40
0.0
 40
0.0
 40
0.0
 40
0.0
 40
0.1953792995
 40
0.3833277775
 40
0.5561143379
 40
0.7074103448
 40
0.8315641041
 40
0.8818889004
 40
0.9237611137
 40
0.9567621662
 40
0.9805538183
 40
0.9949807173
 40
1.0
 40
1.0
 40
1.0
 40
1.0
 10
-107.0744365878
 20
20.8897973348
 30
0.0
 10
-107.0670388971
 20
20.8792291161
 30
0.0
 10
-107.0525533287
 20
20.8584744619
 30
0.0
 10
-107.0316249353
 20
20.8283055385
 30
0.0
 10
-107.0124417771
 20
20.8004646785
 30
0.0
 10
-106.9957548725
 20
20.7760311245
 30
0.0
 10
-106.9836958017
 20
20.758198069
 30
0.0
 10
-106.9758087687
 20
20.7463218075
 30
0.0
 10
-106.9712093668
 20
20.7393796999
 30
0.0
 10
-106.9678422307
 20
20.7339894242
 30
0.0
 10
-106.9649872039
 20
20.7297997465
 30
0.0
 10
-106.9642033965
 20
20.7276871513
 30
0.0
 10
-106.9629403121
 20
20.726157011
 30
0.0
 10
-106.9632117818
 20
20.7259669259
 30
0.0
  0
SPLINE
  5
304
100
AcDbEntity
  8
RACCORDO
100
AcDbSpline
 62
250
  6
CONTINUOUS
 70
0
 71
3
 72
18
 73
14
 74
0
 42
0.0000001
 43
0.0000001
 44
0.0000000001
 40
0.0
 40
0.0
 40
0.0
 40
0.0
 40
0.1950165759
 40
0.3827979998
 40
0.5555604988
 40
0.706926092
 40
0.8311966082
 40
0.881584434
 40
0.9235177455
 40
0.9565750608
 40
0.98041712
 40
0.9948932316
 40
1.0
 40
1.0
 40
1.0
 40
1.0
 10
-107.1815776345
 20
21.7719770199
 30
0.0
 10
-107.1787735309
 20
21.7846293678
 30
0.0
 10
-107.1733103139
 20
21.8094739328
 30
0.0
 10
-107.165504377
 20
21.8455570315
 30
0.0
 10
-107.1584372177
 20
21.8788350298
 30
0.0
 10
-107.1523903606
 20
21.9080052009
 30
0.0
 10
-107.1481100111
 20
21.9292610794
 30
0.0
 10
-107.1454062745
 20
21.943370362
 30
0.0
 10
-107.1438529396
 20
21.9516159214
 30
0.0
 10
-107.1428253836
 20
21.9579477116
 30
0.0
 10
-107.1418689945
 20
21.9629532243
 30
0.0
 10
-107.1419267641
 20
21.9652500438
 30
0.0
 10
-107.1414488792
 20
21.9671627709
 30
0.0
 10
-107.141780193
 20
21.9672362214
 30
0.0
  0
ENDSEC
  0
SECTION
  2
OBJECTS
  0
DICTIONARY
  5
C
100
AcDbDictionary
280
0
281
1
  3
ACAD_GROUP
350
D
  3
ACAD_MLINESTYLE
350
17
  3
ACAD_LAYOUT
350
1A
  3
ACAD_PLOTSETTINGS
350
19
  3
ACAD_PLOTSTYLENAME
350
E
  0
DICTIONARY
  5
D
102
{ACAD_REACTORS
330
C
102
}
100
AcDbDictionary
280
0
281
1
  0
ACDBDICTIONARYWDFLT
  5
E
102
{ACAD_REACTORS
330
C
102
}
100
AcDbDictionary
281
1
  3
Normal
350
F
100
AcDbDictionaryWithDefault
340
F
  0
DICTIONARY
  5
17
102
{ACAD_REACTORS
330
C
102
}
100
AcDbDictionary
280
0
281
1
  3
Standard
350
18
  0
DICTIONARY
  5
19
102
{ACAD_REACTORS
330
C
102
}
100
AcDbDictionary
281
1
  0
DICTIONARY
  5
1A
102
{ACAD_REACTORS
330
C
102
}
100
AcDbDictionary
281
1
  3
Model
350
305
  3
Layout1
350
306
  0
ACDBPLACEHOLDER
  5
F
102
{ACAD_REACTORS
330
E
102
}
  0
MLINESTYLE
  5
18
102
{ACAD_REACTORS
330
17
102
}
100
AcDbMlineStyle
  2
STANDARD
 70
0
  3

 62
256
 51
90.0
 52
90.0
 71
2
 49
0.5
 62
256
  6
BYLAYER
 49
-0.5
 62
256
  6
BYLAYER
  0
LAYOUT
  5
305
102
{ACAD_REACTORS
330
1A
102
}
100
AcDbPlotSettings
  1

  2
none_device
  4

  6

 40
0.0
 41
0.0
 42
0.0
 43
0.0
 44
210.0
 45
297.0
 46
0.0
 47
0.0
 48
0.0
 49
0.0
140
0.0
141
0.0
142
1.0
143
1.0
 70
1024
 72
1
 73
0
 74
0
  7

 75
0
147
1.0
148
0.0
149
0.0
100
AcDbLayout
  1
Model
 70
0
 71
0
 10
0.0
 20
0.0
 11
210.0
 21
297.0
 12
0.0
 22
0.0
 32
0.0
 14
0.0
 24
0.0
 34
0.0
 15
0.0
 25
0.0
 35
0.0
146
0.0
 13
0.0
 23
0.0
 33
0.0
 16
1.0
 26
0.0
 36
0.0
 17
0.0
 27
1.0
 37
0.0
 76
0
330
213
345
0
346
0
  0
LAYOUT
  5
306
102
{ACAD_REACTORS
330
1A
102
}
100
AcDbPlotSettings
  1

  2
none_device
  4

  6

 40
0.0
 41
0.0
 42
0.0
 43
0.0
 44
210.0
 45
297.0
 46
0.0
 47
0.0
 48
0.0
 49
0.0
140
0.0
141
0.0
142
1.0
143
1.0
 70
0
 72
1
 73
0
 74
0
  7

 75
0
147
1.0
148
0.0
149
0.0
100
AcDbLayout
  1
Layout1
 70
0
 71
1
 10
0.0
 20
0.0
 11
210.0
 21
297.0
 12
0.0
 22
0.0
 32
0.0
 14
0.0
 24
0.0
 34
0.0
 15
0.0
 25
0.0
 35
0.0
146
0.0
 13
0.0
 23
0.0
 33
0.0
 16
1.0
 26
0.0
 36
0.0
 17
0.0
 27
1.0
 37
0.0
 76
0
330
214
345
0
346
0
  0
ENDSEC
  0
EOF
