  0
SECTION
  2
HEADER
  9
$ACADVER
  1
AC1024
  9
$DWGCODEPAGE
  3
ANSI_1252
  9
$EXTMAX
 10
210.0
 20
297.0
 30
0.0
  9
$EXTMIN
 10
0.0
 20
0.0
 30
0.0
  9
$LIMMIN
 10
0.0
 20
0.0
  9
$LIMMAX
 10
210.0
 20
297.0
  9
$VIEWCTR
 10
105.0
 20
148.5
  9
$VIEWSIZE
 40
297.0
  9
$CLAYER
  8
0
  9
$LTSCALE
 40
19.36
  9
$CELTYPE
  6
BYLAYER
  9
$DIMSCALE
 40
1.0
  9
$DIMASZ
 40
3.0
  9
$DIMEXO
 40
0.5
  9
$DIMDLI
 40
13.376
  9
$DIMEXE
 40
1.5
  9
$DIMCEN
 40
3.168
  9
$DIMLFAC
 40
1.0
  9
$DIMBLK
  1
_FILLED
  9
$DIMALT
 70
0
  9
$DIMALTF
 40
0.0393700787
  9
$DIMTXT
 40
3.0
  9
$DIMTOL
 70
1
  9
$DIMLIM
 70
0
  9
$DIMTFAC
 40
1.0
  9
$DIMTP
 40
0.01
  9
$DIMTM
 40
0.01
  9
$DIMGAP
 40
0.625
  9
$DIMDSEP
 70
44
  9
$AUNITS
 70
0
  9
$PDMODE
 70
3
  9
$PDSIZE
 40
3.0
  9
$HANDSEED
  5
3A1
  9
$TILEMODE
 70
1
  9
$MEASUREMENT
 70
1
  9
$INSUNITS
 70
4
  0
ENDSEC
  0
SECTION
  2
CLASSES
  0
CLASS
  1
ACDBDICTIONARYWDFLT
  2
AcDbDictionaryWithDefault
  3
AutoCAD 2000
 90
0
 91
1
280
0
281
0
  0
CLASS
  1
ACDBPLACEHOLDER
  2
AcDbPlaceHolder
  3
AutoCAD 2000
 90
0
 91
1
280
0
281
0
  0
CLASS
  1
LAYOUT
  2
AcDbLayout
  3
AutoCAD 2000
 90
0
 91
0
280
0
281
0
  0
ENDSEC
  0
SECTION
  2
TABLES
  0
TABLE
  2
VPORT
  5
8
100
AcDbSymbolTable
 70
2
  0
VPORT
  5
1F4
100
AcDbSymbolTableRecord
100
AcDbViewportTableRecord
  2
*ACTIVE
 70
0
 10
0.0
 20
0.0
 11
1.0
 21
1.0
 12
105.0
 22
148.5
 13
0.0
 23
0.0
 14
1.0
 24
1.0
 15
0.0
 25
0.0
 16
0.0
 26
0.0
 36
1.0
 17
0.0
 27
0.0
 37
0.0
 40
297.0
 41
0.7070707071
 42
50.0
 43
0.0
 44
0.0
 50
0.0
 51
0.0
 71
0
 72
100
 73
1
 74
1
 75
0
 76
0
 77
0
 78
0
  0
ENDTAB
  0
TABLE
  2
LTYPE
  5
5
100
AcDbSymbolTable
 70
6
  0
LTYPE
  5
14
100
AcDbSymbolTableRecord
100
AcDbLinetypeTableRecord
  2
BYBLOCK
 70
0
  3

 72
65
 73
0
 40
0.0
  0
LTYPE
  5
15
100
AcDbSymbolTableRecord
100
AcDbLinetypeTableRecord
  2
BYLAYER
 70
0
  3

 72
65
 73
0
 40
0.0
  0
LTYPE
  5
16
100
AcDbSymbolTableRecord
100
AcDbLinetypeTableRecord
  2
CONTINUOUS
 70
64
  3
Solid line
 72
65
 73
0
 40
0.0
  0
LTYPE
  5
1F5
100
AcDbSymbolTableRecord
100
AcDbLinetypeTableRecord
  2
CENTER
 70
64
  3
____ _ ____ _ ____ _ ____ _ ____ _ ____ _ ____
 72
65
 73
4
 40
0.6
 49
0.375
 74
0
 49
-0.075
 74
0
 49
0.075
 74
0
 49
-0.075
 74
0
  0
LTYPE
  5
1F6
100
AcDbSymbolTableRecord
100
AcDbLinetypeTableRecord
  2
HIDDEN
 70
64
  3
- - - - - - - - - - - - - - - - - - - -
 72
65
 73
2
 40
0.2
 49
0.1
 74
0
 49
-0.1
 74
0
  0
LTYPE
  5
1F7
100
AcDbSymbolTableRecord
100
AcDbLinetypeTableRecord
  2
PHANTOM
 70
64
  3
_____ _ _ _____ _ _ _____ _ _ _____
 72
65
 73
6
 40
0.8
 49
0.45
 74
0
 49
-0.05
 74
0
 49
0.1
 74
0
 49
-0.05
 74
0
 49
0.1
 74
0
 49
-0.05
 74
0
  0
LTYPE
  5
1F8
100
AcDbSymbolTableRecord
100
AcDbLinetypeTableRecord
  2
DOT
 70
64
  3
. . . . . . . . . . . . . . . . . . . .
 72
65
 73
2
 40
0.2
 49
0.1
 74
0
 49
-0.1
 74
0
  0
LTYPE
  5
1F9
100
AcDbSymbolTableRecord
100
AcDbLinetypeTableRecord
  2
DASHED
 70
64
  3
- - - - - - - - - - - - - - - - - - - -
 72
65
 73
2
 40
0.2
 49
0.1
 74
0
 49
-0.1
 74
0
  0
ENDTAB
  0
TABLE
  2
LAYER
  5
2
100
AcDbSymbolTable
 70
36
  0
LAYER
  5
10
100
AcDbSymbolTableRecord
100
AcDbLayerTableRecord
  2
0
 70
0
 62
7
  6
CONTINUOUS
370
-3
390
F
  0
LAYER
  5
1FA
100
AcDbSymbolTableRecord
100
AcDbLayerTableRecord
  2
DEFAULT_1
 70
0
 62
7
  6
CENTER
370
-3
390
F
  0
LAYER
  5
1FB
100
AcDbSymbolTableRecord
100
AcDbLayerTableRecord
  2
DEFAULT_2
 70
0
 62
7
  6
HIDDEN
370
-3
390
F
  0
LAYER
  5
1FC
100
AcDbSymbolTableRecord
100
AcDbLayerTableRecord
  2
DEFAULT_3
 70
0
 62
7
  6
PHANTOM
370
-3
390
F
  0
LAYER
  5
1FD
100
AcDbSymbolTableRecord
100
AcDbLayerTableRecord
  2
ASSI
 70
0
 62
7
  6
CONTINUOUS
370
-3
390
F
  0
LAYER
  5
1FE
100
AcDbSymbolTableRecord
100
AcDbLayerTableRecord
  2
COORDINATE
 70
0
 62
7
  6
CONTINUOUS
370
-3
390
F
  0
LAYER
  5
1FF
100
AcDbSymbolTableRecord
100
AcDbLayerTableRecord
  2
COPY_PUBLISH
 70
0
 62
7
  6
CONTINUOUS
370
-3
390
F
  0
LAYER
  5
200
100
AcDbSymbolTableRecord
100
AcDbLayerTableRecord
  2
COSMETICI
 70
0
 62
7
  6
CONTINUOUS
370
-3
390
F
  0
LAYER
  5
201
100
AcDbSymbolTableRecord
100
AcDbLayerTableRecord
  2
CURVE
 70
0
 62
7
  6
CONTINUOUS
370
-3
390
F
  0
LAYER
  5
202
100
AcDbSymbolTableRecord
100
AcDbLayerTableRecord
  2
DRAFT
 70
0
 62
7
  6
CONTINUOUS
370
-3
390
F
  0
LAYER
  5
203
100
AcDbSymbolTableRecord
100
AcDbLayerTableRecord
  2
IMPORT_IGES
 70
0
 62
7
  6
CONTINUOUS
370
-3
390
F
  0
LAYER
  5
204
100
AcDbSymbolTableRecord
100
AcDbLayerTableRecord
  2
INTF_1
 70
0
 62
7
  6
CONTINUOUS
370
-3
390
F
  0
LAYER
  5
205
100
AcDbSymbolTableRecord
100
AcDbLayerTableRecord
  2
INTF_2
 70
0
 62
7
  6
CONTINUOUS
370
-3
390
F
  0
LAYER
  5
206
100
AcDbSymbolTableRecord
100
AcDbLayerTableRecord
  2
INTF_3
 70
0
 62
7
  6
CONTINUOUS
370
-3
390
F
  0
LAYER
  5
207
100
AcDbSymbolTableRecord
100
AcDbLayerTableRecord
  2
INTF_4
 70
0
 62
7
  6
CONTINUOUS
370
-3
390
F
  0
LAYER
  5
208
100
AcDbSymbolTableRecord
100
AcDbLayerTableRecord
  2
INTF_5
 70
0
 62
7
  6
CONTINUOUS
370
-3
390
F
  0
LAYER
  5
209
100
AcDbSymbolTableRecord
100
AcDbLayerTableRecord
  2
INTF_6
 70
0
 62
7
  6
CONTINUOUS
370
-3
390
F
  0
LAYER
  5
20A
100
AcDbSymbolTableRecord
100
AcDbLayerTableRecord
  2
INTF_7
 70
0
 62
7
  6
CONTINUOUS
370
-3
390
F
  0
LAYER
  5
20B
100
AcDbSymbolTableRecord
100
AcDbLayerTableRecord
  2
INTF_9
 70
0
 62
7
  6
CONTINUOUS
370
-3
390
F
  0
LAYER
  5
20C
100
AcDbSymbolTableRecord
100
AcDbLayerTableRecord
  2
INTF_BLANK
 70
0
 62
7
  6
CONTINUOUS
370
-3
390
F
  0
LAYER
  5
20D
100
AcDbSymbolTableRecord
100
AcDbLayerTableRecord
  2
INTF_RED
 70
0
 62
7
  6
CONTINUOUS
370
-3
390
F
  0
LAYER
  5
20E
100
AcDbSymbolTableRecord
100
AcDbLayerTableRecord
  2
NOTE
 70
0
 62
7
  6
CONTINUOUS
370
-3
390
F
  0
LAYER
  5
20F
100
AcDbSymbolTableRecord
100
AcDbLayerTableRecord
  2
PIANI
 70
0
 62
7
  6
CONTINUOUS
370
-3
390
F
  0
LAYER
  5
210
100
AcDbSymbolTableRecord
100
AcDbLayerTableRecord
  2
PUNTI
 70
0
 62
7
  6
CONTINUOUS
370
-3
390
F
  0
LAYER
  5
211
100
AcDbSymbolTableRecord
100
AcDbLayerTableRecord
  2
RACCORDO
 70
0
 62
7
  6
CONTINUOUS
370
-3
390
F
  0
LAYER
  5
212
100
AcDbSymbolTableRecord
100
AcDbLayerTableRecord
  2
RGB____0____0____0__
 70
0
 62
7
  6
CONTINUOUS
370
-3
390
F
  0
LAYER
  5
213
100
AcDbSymbolTableRecord
100
AcDbLayerTableRecord
  2
SIMBOLI
 70
0
 62
7
  6
CONTINUOUS
370
-3
390
F
  0
LAYER
  5
214
100
AcDbSymbolTableRecord
100
AcDbLayerTableRecord
  2
SMUSSO
 70
0
 62
7
  6
CONTINUOUS
370
-3
390
F
  0
LAYER
  5
215
100
AcDbSymbolTableRecord
100
AcDbLayerTableRecord
  2
SUPERFICI
 70
0
 62
7
  6
CONTINUOUS
370
-3
390
F
  0
LAYER
  5
216
100
AcDbSymbolTableRecord
100
AcDbLayerTableRecord
  2
TRASH
 70
0
 62
7
  6
CONTINUOUS
370
-3
390
F
  0
ENDTAB
  0
TABLE
  2
STYLE
  5
3
100
AcDbSymbolTable
 70
1
  0
STYLE
  5
11
100
AcDbSymbolTableRecord
100
AcDbTextStyleTableRecord
  2
STANDARD
 70
0
 40
0.0
 41
0.8
 50
0.0
 71
0
 42
0.2
  3
txt
  4

  0
STYLE
  5
217
100
AcDbSymbolTableRecord
100
AcDbTextStyleTableRecord
  2
TEXTSTYLE_1
 70
0
 40
0.0
 41
0.8
 50
0.0
 71
0
 42
0.2
  3
gdt
  4

  0
ENDTAB
  0
TABLE
  2
VIEW
  5
6
100
AcDbSymbolTable
 70
0
  0
ENDTAB
  0
TABLE
  2
UCS
  5
7
100
AcDbSymbolTable
 70
0
  0
ENDTAB
  0
TABLE
  2
APPID
  5
9
100
AcDbSymbolTable
 70
1
  0
APPID
  5
218
100
AcDbSymbolTableRecord
100
AcDbRegAppTableRecord
  2
ACAD
 70
0
  0
ENDTAB
  0
TABLE
  2
BLOCK_RECORD
  5
1
100
AcDbSymbolTable
 70
0
  0
BLOCK_RECORD
  5
219
100
AcDbSymbolTableRecord
100
AcDbBlockTableRecord
  2
*Model_Space
  0
BLOCK_RECORD
  5
21A
100
AcDbSymbolTableRecord
100
AcDbBlockTableRecord
  2
*Paper_Space
  0
BLOCK_RECORD
  5
21B
100
AcDbSymbolTableRecord
100
AcDbBlockTableRecord
  2
_FILLED
  0
BLOCK_RECORD
  5
21C
100
AcDbSymbolTableRecord
100
AcDbBlockTableRecord
  2
*D0
  0
BLOCK_RECORD
  5
21D
100
AcDbSymbolTableRecord
100
AcDbBlockTableRecord
  2
*D1
  0
BLOCK_RECORD
  5
21E
100
AcDbSymbolTableRecord
100
AcDbBlockTableRecord
  2
*D2
  0
ENDTAB
  0
TABLE
  2
DIMSTYLE
  5
A
100
AcDbSymbolTable
 70
1
100
AcDbDimStyleTable
 71
0
  0
DIMSTYLE
105
21F
100
AcDbSymbolTableRecord
100
AcDbDimStyleTableRecord
  2
STANDARD
 70
0
  3

  4

 40
1.0
 41
3.0
 42
0.5
 43
0.38
 44
1.5
 45
0.0
 46
0.0
 47
0.01
 48
0.01
140
3.0
141
0.09
142
0.0
143
25.4
144
1.0
145
0.0
146
1.0
147
0.625
 71
1
 72
0
 73
0
 74
0
 75
0
 76
0
 77
1
 78
8
 79
2
170
0
171
1
172
0
173
0
174
0
175
0
176
0
177
0
178
0
270
2
179
2
271
2
272
2
273
2
274
2
275
0
280
0
281
0
282
0
283
1
284
8
285
0
286
0
287
3
288
0
340
11
278
44
341
21B
342
21B
343
21B
344
21B
  0
DIMSTYLE
105
220
100
AcDbSymbolTableRecord
100
AcDbDimStyleTableRecord
  2
DIMSTYLE_1
 70
0
  3

  4

 40
1.0
 41
3.0
 42
0.5
 43
0.38
 44
1.5
 45
0.0
 46
0.0
 47
0.0
 48
0.0
140
3.0
141
0.09
142
0.0
143
25.4
144
1.0
145
0.0
146
1.0
147
0.75
 71
0
 72
0
 73
0
 74
0
 75
0
 76
0
 77
1
 78
8
 79
2
170
0
171
1
172
0
173
0
174
0
175
0
176
0
177
0
178
0
270
2
179
2
271
1
272
1
273
2
274
2
275
0
280
0
281
0
282
0
283
1
284
8
285
0
286
0
287
3
288
0
340
11
278
44
341
21B
342
21B
343
21B
344
21B
  0
DIMSTYLE
105
221
100
AcDbSymbolTableRecord
100
AcDbDimStyleTableRecord
  2
DIMSTYLE_2
 70
0
  3

  4

 40
1.0
 41
3.0
 42
0.5
 43
0.38
 44
1.5
 45
0.0
 46
0.0
 47
0.0
 48
0.0
140
3.0
141
0.09
142
0.0
143
25.4
144
1.0
145
0.0
146
1.0
147
0.75
 71
0
 72
0
 73
0
 74
0
 75
0
 76
0
 77
1
 78
8
 79
2
170
0
171
1
172
0
173
0
174
0
175
0
176
0
177
0
178
0
270
2
179
2
271
2
272
2
273
2
274
2
275
0
280
0
281
0
282
0
283
1
284
8
285
0
286
0
287
3
288
0
340
11
278
44
341
21B
342
21B
343
21B
344
21B
  0
ENDTAB
  0
ENDSEC
  0
SECTION
  2
BLOCKS
  0
BLOCK
  5
20
100
AcDbEntity
  8
0
100
AcDbBlockBegin
  2
*Model_Space
 70
0
 10
0.0
 20
0.0
 30
0.0
  3
*Model_Space
  1

  0
ENDBLK
  5
21
100
AcDbEntity
  8
0
100
AcDbBlockEnd
  0
BLOCK
  5
1C
100
AcDbEntity
  8
0
100
AcDbBlockBegin
  2
*Paper_Space
 70
0
 10
0.0
 20
0.0
 30
0.0
  3
*Paper_Space
  1

  0
ENDBLK
  5
1D
100
AcDbEntity
  8
0
100
AcDbBlockEnd
  0
BLOCK
  5
222
100
AcDbEntity
  8
0
100
AcDbBlockBegin
  2
_FILLED
 70
64
 10
0.0
 20
0.0
  3
_FILLED
  1

  0
SOLID
  5
223
100
AcDbEntity
  8
0
  6
BYBLOCK
 62
0
100
AcDbTrace
 10
0.0
 20
0.0
 11
-1.0
 21
0.3166666667
 12
-1.0
 22
-0.3166666667
 13
-1.0
 23
-0.3166666667
  0
ENDBLK
  5
224
100
AcDbEntity
  8
0
  6
BYBLOCK
 62
0
100
AcDbBlockEnd
  0
BLOCK
  5
225
100
AcDbEntity
  8
0
100
AcDbBlockBegin
 62
7
  6
CONTINUOUS
  2
*D0
 70
65
 10
0.0
 20
0.0
  3
*D0
  1

  0
LINE
  5
226
100
AcDbEntity
  8
0
100
AcDbLine
 62
7
  6
CONTINUOUS
 10
-11.0345351961
 20
26.3347065336
 11
-11.0345351961
 21
34.9242296709
  0
LINE
  5
227
100
AcDbEntity
  8
0
100
AcDbLine
 62
7
  6
CONTINUOUS
 10
11.0345351961
 20
26.3347065336
 11
11.0345351961
 21
34.9242296709
  0
LINE
  5
228
100
AcDbEntity
  8
0
100
AcDbLine
 62
7
  6
CONTINUOUS
 10
-11.0345351961
 20
33.4242296709
 11
0.0
 21
33.4242296709
  0
LINE
  5
229
100
AcDbEntity
  8
0
100
AcDbLine
 62
7
  6
CONTINUOUS
 10
11.0345351961
 20
33.4242296709
 11
0.0
 21
33.4242296709
  0
INSERT
  5
22A
100
AcDbEntity
  8
0
100
AcDbBlockReference
 62
7
  6
CONTINUOUS
  2
_FILLED
 10
-11.0345351961
 20
33.4242296709
 41
3.0
 42
3.0
 43
3.0
 50
180.0
  0
INSERT
  5
22B
100
AcDbEntity
  8
0
100
AcDbBlockReference
 62
7
  6
CONTINUOUS
  2
_FILLED
 10
11.0345351961
 20
33.4242296709
 41
3.0
 42
3.0
 43
3.0
  0
ENDBLK
  5
22C
100
AcDbEntity
  8
0
  6
BYBLOCK
 62
0
100
AcDbBlockEnd
  0
BLOCK
  5
22D
100
AcDbEntity
  8
0
100
AcDbBlockBegin
 62
7
  6
CONTINUOUS
  2
*D1
 70
65
 10
0.0
 20
0.0
  3
*D1
  1

  0
LINE
  5
22E
100
AcDbEntity
  8
0
100
AcDbLine
 62
7
  6
CONTINUOUS
 10
11.0347065336
 20
26.3345351961
 11
20.4497690655
 21
26.3345351961
  0
LINE
  5
22F
100
AcDbEntity
  8
0
100
AcDbLine
 62
7
  6
CONTINUOUS
 10
11.0347065336
 20
-26.3345351961
 11
20.4497690655
 21
-26.3345351961
  0
LINE
  5
230
100
AcDbEntity
  8
0
100
AcDbLine
 62
7
  6
CONTINUOUS
 10
18.9497690655
 20
26.3345351961
 11
18.9497690655
 21
0.0
  0
LINE
  5
231
100
AcDbEntity
  8
0
100
AcDbLine
 62
7
  6
CONTINUOUS
 10
18.9497690655
 20
-26.3345351961
 11
18.9497690655
 21
0.0
  0
INSERT
  5
232
100
AcDbEntity
  8
0
100
AcDbBlockReference
 62
7
  6
CONTINUOUS
  2
_FILLED
 10
18.9497690655
 20
26.3345351961
 41
3.0
 42
3.0
 43
3.0
 50
90.0
  0
INSERT
  5
233
100
AcDbEntity
  8
0
100
AcDbBlockReference
 62
7
  6
CONTINUOUS
  2
_FILLED
 10
18.9497690655
 20
-26.3345351961
 41
3.0
 42
3.0
 43
3.0
 50
270.0
  0
ENDBLK
  5
234
100
AcDbEntity
  8
0
  6
BYBLOCK
 62
0
100
AcDbBlockEnd
  0
BLOCK
  5
235
100
AcDbEntity
  8
0
100
AcDbBlockBegin
 62
7
  6
CONTINUOUS
  2
*D2
 70
65
 10
0.0
 20
0.0
  3
*D2
  1

  0
LINE
  5
236
100
AcDbEntity
  8
0
100
AcDbLine
 62
7
  6
CONTINUOUS
 10
-29.5931201172
 20
26.3134150626
 11
-29.5931201172
 21
34.9233175502
  0
LINE
  5
237
100
AcDbEntity
  8
0
100
AcDbLine
 62
7
  6
CONTINUOUS
 10
-24.2931201172
 20
14.7974685017
 11
-24.2931201172
 21
34.9233175502
  0
LINE
  5
238
100
AcDbEntity
  8
0
100
AcDbLine
 62
7
  6
CONTINUOUS
 10
-29.5931201172
 20
33.4233175502
 11
-38.2520820781
 21
33.4233175502
  0
LINE
  5
239
100
AcDbEntity
  8
0
100
AcDbLine
 62
7
  6
CONTINUOUS
 10
-38.2520820781
 20
33.4233175502
 11
-26.9431201172
 21
33.4233175502
  0
LINE
  5
23A
100
AcDbEntity
  8
0
100
AcDbLine
 62
7
  6
CONTINUOUS
 10
-24.2931201172
 20
33.4233175502
 11
-20.2931201172
 21
33.4233175502
  0
LINE
  5
23B
100
AcDbEntity
  8
0
100
AcDbLine
 62
7
  6
CONTINUOUS
 10
-20.2931201172
 20
33.4233175502
 11
-26.9431201172
 21
33.4233175502
  0
INSERT
  5
23C
100
AcDbEntity
  8
0
100
AcDbBlockReference
 62
7
  6
CONTINUOUS
  2
_FILLED
 10
-29.5931201172
 20
33.4233175502
 41
3.0
 42
3.0
 43
3.0
  0
INSERT
  5
23D
100
AcDbEntity
  8
0
100
AcDbBlockReference
 62
7
  6
CONTINUOUS
  2
_FILLED
 10
-24.2931201172
 20
33.4233175502
 41
3.0
 42
3.0
 43
3.0
 50
180.0
  0
ENDBLK
  5
23E
100
AcDbEntity
  8
0
  6
BYBLOCK
 62
0
100
AcDbBlockEnd
  0
ENDSEC
  0
SECTION
  2
ENTITIES
  0
DIMENSION
  5
23F
100
AcDbEntity
  8
0
100
AcDbDimension
 62
7
  6
CONTINUOUS
  2
*D0
 10
11.0345351961
 20
33.4242296709
 11
-4.0714285714
 21
33.4242296709
 70
160
 71
2
 72
2
 41
0.9
 42
22.0690703922
  3
DIMSTYLE_1
100
AcDbAlignedDimension
 13
-11.0345351961
 23
25.8347065336
 14
11.0345351961
 24
25.8347065336
100
AcDbRotatedDimension
  0
DIMENSION
  5
240
100
AcDbEntity
  8
0
100
AcDbDimension
 62
7
  6
CONTINUOUS
  2
*D1
 10
18.9497690655
 20
-26.3345351961
 11
18.9497690655
 21
-4.2857142857
 70
160
 71
2
 72
2
 41
0.9
 42
52.6690703922
  3
DIMSTYLE_1
100
AcDbAlignedDimension
 13
10.5347065336
 23
26.3345351961
 14
10.5347065336
 24
-26.3345351961
 50
270.0
100
AcDbRotatedDimension
  0
DIMENSION
  5
241
100
AcDbEntity
  8
0
100
AcDbDimension
 62
7
  6
CONTINUOUS
  2
*D2
 10
-24.2931201172
 20
33.4233175502
 11
-38.2520820781
 21
33.4233175502
 70
160
 71
3
 72
2
 41
0.9
 42
5.3
  3
DIMSTYLE_2
100
AcDbAlignedDimension
 13
-29.5931201172
 23
25.8134150626
 14
-24.2931201172
 24
14.2974685017
100
AcDbRotatedDimension
  0
LINE
  5
242
100
AcDbEntity
  8
0
100
AcDbLine
 62
7
  6
CONTINUOUS
 10
-10.5347065336
 20
-26.3345351961
 11
10.5347065336
 21
-26.3345351961
  0
LINE
  5
243
100
AcDbEntity
  8
ASSI
100
AcDbLine
 62
7
  6
CONTINUOUS
 10
-10.5347065336
 20
-26.3345351961
 11
10.5347065336
 21
-26.3345351961
  0
LINE
  5
244
100
AcDbEntity
  8
COPY_PUBLISH
100
AcDbLine
 62
250
  6
CONTINUOUS
 10
-10.5134150626
 20
-26.3132437251
 11
10.5134150626
 21
-26.3132437251
  0
LINE
  5
245
100
AcDbEntity
  8
ASSI
100
AcDbLine
 62
250
  6
CONTINUOUS
 10
-10.5134150626
 20
-26.3132437251
 11
10.5134150626
 21
-26.3132437251
  0
LINE
  5
246
100
AcDbEntity
  8
COPY_PUBLISH
100
AcDbLine
 62
250
  6
CONTINUOUS
 10
-11.0132437251
 20
-25.8134150626
 11
11.0132437251
 21
-25.8134150626
  0
LINE
  5
247
100
AcDbEntity
  8
ASSI
100
AcDbLine
 62
250
  6
CONTINUOUS
 10
-11.0132437251
 20
-25.8134150626
 11
11.0132437251
 21
-25.8134150626
  0
LWPOLYLINE
  5
248
100
AcDbEntity
  8
0
100
AcDbPolyline
 62
7
  6
CONTINUOUS
 90
3
 70
0
 43
0.3500000019
 10
2.3571416016
 20
36.3170881348
 10
3.2142875977
 20
37.1742287598
 10
3.2142875977
 20
34.1742285156
  0
LINE
  5
249
100
AcDbEntity
  8
CURVE
100
AcDbLine
 62
250
  6
CONTINUOUS
 10
0.085355
 20
-17.630645
 11
-0.08621
 21
-17.630645
  0
LINE
  5
24A
100
AcDbEntity
  8
CURVE
100
AcDbLine
 62
7
  6
CONTINUOUS
 10
-3.999673
 20
14.7765655931
 11
-3.6224377664
 21
15.1538008267
  0
LINE
  5
24B
100
AcDbEntity
  8
CURVE
100
AcDbLine
 62
7
  6
CONTINUOUS
 10
-3.999673
 20
14.6351442368
 11
-3.1506392059
 21
15.4841780309
  0
LINE
  5
24C
100
AcDbEntity
  8
CURVE
100
AcDbLine
 62
250
  6
CONTINUOUS
 10
-3.935594
 20
14.934513
 11
-0.085355
 21
17.630645
  0
LINE
  5
24D
100
AcDbEntity
  8
CURVE
100
AcDbLine
 62
250
  6
CONTINUOUS
 10
0.000083
 20
16.89684
 11
-3.842577
 21
14.20622
  0
LINE
  5
24E
100
AcDbEntity
  8
CURVE
100
AcDbLine
 62
250
  6
CONTINUOUS
 10
-0.08621
 20
-17.630645
 11
-3.936449
 21
-14.934513
  0
LINE
  5
24F
100
AcDbEntity
  8
CURVE
100
AcDbLine
 62
250
  6
CONTINUOUS
 10
-3.842742
 20
-14.20622
 11
-0.000083
 21
-16.89684
  0
LWPOLYLINE
  5
250
100
AcDbEntity
  8
COPY_PUBLISH
100
AcDbPolyline
 62
250
  6
CONTINUOUS
 90
16
 70
0
 10
-11.0132437251
 20
-25.8134150626
 10
-11.01045539
 20
-25.8657975315
 10
-11.0021929183
 20
-25.9176029172
 10
-10.9885473613
 20
-25.9682606712
 10
-10.9696665657
 20
-26.0172184586
 10
-10.9457598445
 20
-26.0639310247
 10
-10.9171013786
 20
-26.1078690436
 10
-10.8840193212
 20
-26.1485433419
 10
-10.8468760531
 20
-26.1855204357
 10
-10.8060702069
 20
-26.2184079346
 10
-10.761986418
 20
-26.2468816807
 10
-10.7151656414
 20
-26.2705791398
 10
-10.6663188279
 20
-26.2891770144
 10
-10.6160695894
 20
-26.3025182528
 10
-10.5649154114
 20
-26.3105481619
 10
-10.5134150624
 20
-26.3132437249
  0
LWPOLYLINE
  5
251
100
AcDbEntity
  8
ASSI
100
AcDbPolyline
 62
250
  6
CONTINUOUS
 90
16
 70
0
 10
-11.0132437251
 20
-25.8134150626
 10
-11.01045539
 20
-25.8657975315
 10
-11.0021929183
 20
-25.9176029172
 10
-10.9885473613
 20
-25.9682606712
 10
-10.9696665657
 20
-26.0172184586
 10
-10.9457598445
 20
-26.0639310247
 10
-10.9171013786
 20
-26.1078690436
 10
-10.8840193212
 20
-26.1485433419
 10
-10.8468760531
 20
-26.1855204357
 10
-10.8060702069
 20
-26.2184079346
 10
-10.761986418
 20
-26.2468816807
 10
-10.7151656414
 20
-26.2705791398
 10
-10.6663188279
 20
-26.2891770144
 10
-10.6160695894
 20
-26.3025182528
 10
-10.5649154114
 20
-26.3105481619
 10
-10.5134150624
 20
-26.3132437249
  0
LWPOLYLINE
  5
252
100
AcDbEntity
  8
COPY_PUBLISH
100
AcDbPolyline
 62
250
  6
CONTINUOUS
 90
16
 70
0
 10
-11.0132437251
 20
25.8134150626
 10
-11.0104557606
 20
25.8657940376
 10
-11.0021943512
 20
25.9175962153
 10
-10.9885504711
 20
25.9682511464
 10
-10.9696717815
 20
26.0172067959
 10
-10.9457675487
 20
26.0639177387
 10
-10.9171122688
 20
26.1078541194
 10
-10.8840348897
 20
26.1485261269
 10
-10.8468972612
 20
26.1855014262
 10
-10.8060959292
 20
26.2183893375
 10
-10.762014426
 20
26.2468656055
 10
-10.7151938467
 20
26.270566676
 10
-10.6663444548
 20
26.2891687618
 10
-10.6160895555
 20
26.3025140488
 10
-10.5649267792
 20
26.3105469765
 10
-10.5134150626
 20
26.3132437251
  0
LWPOLYLINE
  5
253
100
AcDbEntity
  8
ASSI
100
AcDbPolyline
 62
250
  6
CONTINUOUS
 90
16
 70
0
 10
-11.0132437251
 20
25.8134150626
 10
-11.0104557606
 20
25.8657940376
 10
-11.0021943512
 20
25.9175962153
 10
-10.9885504711
 20
25.9682511464
 10
-10.9696717815
 20
26.0172067959
 10
-10.9457675487
 20
26.0639177387
 10
-10.9171122688
 20
26.1078541194
 10
-10.8840348897
 20
26.1485261269
 10
-10.8468972612
 20
26.1855014262
 10
-10.8060959292
 20
26.2183893375
 10
-10.762014426
 20
26.2468656055
 10
-10.7151938467
 20
26.270566676
 10
-10.6663444548
 20
26.2891687618
 10
-10.6160895555
 20
26.3025140488
 10
-10.5649267792
 20
26.3105469765
 10
-10.5134150626
 20
26.3132437251
  0
LINE
  5
254
100
AcDbEntity
  8
CURVE
100
AcDbLine
 62
7
  6
CONTINUOUS
 10
-3.999673
 20
14.4937228806
 11
-2.6788406455
 21
15.8145552351
  0
LINE
  5
255
100
AcDbEntity
  8
CURVE
100
AcDbLine
 62
7
  6
CONTINUOUS
 10
-3.999673
 20
14.3523015243
 11
-2.207042085
 21
16.1449324393
  0
LINE
  5
256
100
AcDbEntity
  8
CURVE
100
AcDbLine
 62
7
  6
CONTINUOUS
 10
-3.9807682375
 20
14.2297849306
 11
-1.7352435246
 21
16.4753096436
  0
LINE
  5
257
100
AcDbEntity
  8
CURVE
100
AcDbLine
 62
7
  6
CONTINUOUS
 10
-3.8785721619
 20
14.1905596499
 11
-1.2634449641
 21
16.8056868478
  0
LINE
  5
258
100
AcDbEntity
  8
CURVE
100
AcDbLine
 62
7
  6
CONTINUOUS
 10
-3.4386896171
 20
14.4890208385
 11
-0.7916464036
 21
17.136064052
  0
LINE
  5
259
100
AcDbEntity
  8
CURVE
100
AcDbLine
 62
7
  6
CONTINUOUS
 10
-2.9669749295
 20
14.8193141699
 11
-0.3198478432
 21
17.4664412562
  0
LINE
  5
25A
100
AcDbEntity
  8
CURVE
100
AcDbLine
 62
7
  6
CONTINUOUS
 10
-2.4952602418
 20
15.1496075014
 11
-0.0142227432
 21
17.630645
  0
LINE
  5
25B
100
AcDbEntity
  8
CURVE
100
AcDbLine
 62
7
  6
CONTINUOUS
 10
-2.0235455542
 20
15.4799008328
 11
0.1103173958
 21
17.6137637827
  0
LINE
  5
25C
100
AcDbEntity
  8
CURVE
100
AcDbLine
 62
7
  6
CONTINUOUS
 10
-1.5518308665
 20
15.8101941642
 11
0.1934941698
 21
17.5555192005
  0
LINE
  5
25D
100
AcDbEntity
  8
CURVE
100
AcDbLine
 62
7
  6
CONTINUOUS
 10
-1.0801161789
 20
16.1404874956
 11
0.2766709438
 21
17.4972746182
  0
LINE
  5
25E
100
AcDbEntity
  8
CURVE
100
AcDbLine
 62
7
  6
CONTINUOUS
 10
-0.6084014912
 20
16.470780827
 11
0.3598477178
 21
17.439030036
  0
LINE
  5
25F
100
AcDbEntity
  8
CURVE
100
AcDbLine
 62
7
  6
CONTINUOUS
 10
-0.1366868036
 20
16.8010741584
 11
0.4430244918
 21
17.3807854538
  0
LINE
  5
260
100
AcDbEntity
  8
CURVE
100
AcDbLine
 62
7
  6
CONTINUOUS
 10
0.0591451959
 20
16.8554848016
 11
0.5262012658
 21
17.3225408715
  0
LINE
  5
261
100
AcDbEntity
  8
CURVE
100
AcDbLine
 62
7
  6
CONTINUOUS
 10
0.1423245683
 20
16.7972428178
 11
0.6093780398
 21
17.2642962893
  0
LINE
  5
262
100
AcDbEntity
  8
CURVE
100
AcDbLine
 62
7
  6
CONTINUOUS
 10
0.2255039408
 20
16.739000834
 11
0.6925548138
 21
17.2060517071
  0
LINE
  5
263
100
AcDbEntity
  8
CURVE
100
AcDbLine
 62
7
  6
CONTINUOUS
 10
0.3086833132
 20
16.6807588503
 11
0.7757315878
 21
17.1478071248
  0
LINE
  5
264
100
AcDbEntity
  8
CURVE
100
AcDbLine
 62
7
  6
CONTINUOUS
 10
0.3918626857
 20
16.6225168665
 11
0.8589083618
 21
17.0895625426
  0
LINE
  5
265
100
AcDbEntity
  8
CURVE
100
AcDbLine
 62
7
  6
CONTINUOUS
 10
0.4750420582
 20
16.5642748827
 11
0.9420851358
 21
17.0313179604
  0
LINE
  5
266
100
AcDbEntity
  8
CURVE
100
AcDbLine
 62
7
  6
CONTINUOUS
 10
0.5582214306
 20
16.5060328989
 11
1.0252619098
 21
16.9730733781
  0
LINE
  5
267
100
AcDbEntity
  8
0
100
AcDbLine
 62
7
  6
CONTINUOUS
 10
-11.0345351961
 20
25.8347065336
 11
-11.0345351961
 21
-25.8347065336
  0
LINE
  5
268
100
AcDbEntity
  8
ASSI
100
AcDbLine
 62
7
  6
CONTINUOUS
 10
-11.0345351961
 20
25.8347065336
 11
-11.0345351961
 21
-25.8347065336
  0
LINE
  5
269
100
AcDbEntity
  8
COPY_PUBLISH
100
AcDbLine
 62
250
  6
CONTINUOUS
 10
-11.0132437251
 20
-25.8134150626
 11
-11.0132437251
 21
25.8134150626
  0
LINE
  5
26A
100
AcDbEntity
  8
ASSI
100
AcDbLine
 62
250
  6
CONTINUOUS
 10
-11.0132437251
 20
-25.8134150626
 11
-11.0132437251
 21
25.8134150626
  0
LINE
  5
26B
100
AcDbEntity
  8
COPY_PUBLISH
100
AcDbLine
 62
250
  6
CONTINUOUS
 10
-10.5134150626
 20
-26.3132437251
 11
-10.5134150626
 21
26.3132437251
  0
LINE
  5
26C
100
AcDbEntity
  8
ASSI
100
AcDbLine
 62
250
  6
CONTINUOUS
 10
-10.5134150626
 20
-26.3132437251
 11
-10.5134150626
 21
26.3132437251
  0
LWPOLYLINE
  5
26D
100
AcDbEntity
  8
0
100
AcDbPolyline
 62
7
  6
CONTINUOUS
 90
3
 70
0
 43
0.3500000019
 10
1.357140625
 20
34.4599438477
 10
1.2857158203
 20
34.2456586914
 10
1.1428554688
 20
33.9599433594
  0
LINE
  5
26E
100
AcDbEntity
  8
CURVE
100
AcDbLine
 62
250
  6
CONTINUOUS
 10
-3.999673
 20
14.811868
 11
-3.935594
 21
14.934513
  0
LINE
  5
26F
100
AcDbEntity
  8
CURVE
100
AcDbLine
 62
7
  6
CONTINUOUS
 10
0.6414008031
 20
16.4477909152
 11
1.1084386838
 21
16.9148287959
  0
LINE
  5
270
100
AcDbEntity
  8
0
100
AcDbLine
 62
250
  6
CONTINUOUS
 10
10.5347065336
 20
26.3345351961
 11
10.5134150626
 21
26.3132437251
  0
LINE
  5
271
100
AcDbEntity
  8
ASSI
100
AcDbLine
 62
250
  6
CONTINUOUS
 10
10.5347065336
 20
26.3345351961
 11
10.5134150626
 21
26.3132437251
  0
LINE
  5
272
100
AcDbEntity
  8
CURVE
100
AcDbLine
 62
7
  6
CONTINUOUS
 10
0.7245801755
 20
16.3895489314
 11
1.1916154578
 21
16.8565842137
  0
LINE
  5
273
100
AcDbEntity
  8
CURVE
100
AcDbLine
 62
7
  6
CONTINUOUS
 10
0.807759548
 20
16.3313069476
 11
1.2747922319
 21
16.7983396314
  0
LINE
  5
274
100
AcDbEntity
  8
CURVE
100
AcDbLine
 62
7
  6
CONTINUOUS
 10
0.8909389205
 20
16.2730649638
 11
1.3579690059
 21
16.7400950492
  0
LINE
  5
275
100
AcDbEntity
  8
CURVE
100
AcDbLine
 62
7
  6
CONTINUOUS
 10
0.9741182929
 20
16.21482298
 11
1.4411457799
 21
16.681850467
  0
LINE
  5
276
100
AcDbEntity
  8
CURVE
100
AcDbLine
 62
7
  6
CONTINUOUS
 10
1.0572976654
 20
16.1565809963
 11
1.5243225539
 21
16.6236058847
  0
LINE
  5
277
100
AcDbEntity
  8
CURVE
100
AcDbLine
 62
7
  6
CONTINUOUS
 10
1.1404770379
 20
16.0983390125
 11
1.6074993279
 21
16.5653613025
  0
LINE
  5
278
100
AcDbEntity
  8
CURVE
100
AcDbLine
 62
7
  6
CONTINUOUS
 10
1.2236564103
 20
16.0400970287
 11
1.6906761019
 21
16.5071167203
  0
LINE
  5
279
100
AcDbEntity
  8
0
100
AcDbLine
 62
250
  6
CONTINUOUS
 10
11.0345351961
 20
25.8347065336
 11
11.0132437251
 21
25.8134150626
  0
LINE
  5
27A
100
AcDbEntity
  8
ASSI
100
AcDbLine
 62
250
  6
CONTINUOUS
 10
11.0345351961
 20
25.8347065336
 11
11.0132437251
 21
25.8134150626
  0
LINE
  5
27B
100
AcDbEntity
  8
CURVE
100
AcDbLine
 62
7
  6
CONTINUOUS
 10
1.3068357828
 20
15.9818550449
 11
1.7738528759
 21
16.448872138
  0
LINE
  5
27C
100
AcDbEntity
  8
CURVE
100
AcDbLine
 62
7
  6
CONTINUOUS
 10
1.3900151552
 20
15.9236130612
 11
1.8570296499
 21
16.3906275558
  0
LINE
  5
27D
100
AcDbEntity
  8
CURVE
100
AcDbLine
 62
7
  6
CONTINUOUS
 10
1.4731945277
 20
15.8653710774
 11
1.9402064239
 21
16.3323829736
  0
LINE
  5
27E
100
AcDbEntity
  8
CURVE
100
AcDbLine
 62
7
  6
CONTINUOUS
 10
1.5563739002
 20
15.8071290936
 11
2.0233831979
 21
16.2741383914
  0
LINE
  5
27F
100
AcDbEntity
  8
CURVE
100
AcDbLine
 62
7
  6
CONTINUOUS
 10
1.6395532726
 20
15.7488871098
 11
2.1065599719
 21
16.2158938091
  0
LINE
  5
280
100
AcDbEntity
  8
CURVE
100
AcDbLine
 62
7
  6
CONTINUOUS
 10
1.7227326451
 20
15.6906451261
 11
2.1897367459
 21
16.1576492269
  0
LINE
  5
281
100
AcDbEntity
  8
CURVE
100
AcDbLine
 62
7
  6
CONTINUOUS
 10
1.8059120175
 20
15.6324031423
 11
2.2729135199
 21
16.0994046447
  0
LINE
  5
282
100
AcDbEntity
  8
CURVE
100
AcDbLine
 62
7
  6
CONTINUOUS
 10
1.88909139
 20
15.5741611585
 11
2.3560902939
 21
16.0411600624
  0
LINE
  5
283
100
AcDbEntity
  8
CURVE
100
AcDbLine
 62
7
  6
CONTINUOUS
 10
1.9722707625
 20
15.5159191747
 11
2.4392670679
 21
15.9829154802
  0
LINE
  5
284
100
AcDbEntity
  8
CURVE
100
AcDbLine
 62
7
  6
CONTINUOUS
 10
2.0554501349
 20
15.457677191
 11
2.5224438419
 21
15.924670898
  0
LINE
  5
285
100
AcDbEntity
  8
CURVE
100
AcDbLine
 62
7
  6
CONTINUOUS
 10
2.1386295074
 20
15.3994352072
 11
2.6056206159
 21
15.8664263157
  0
LINE
  5
286
100
AcDbEntity
  8
0
100
AcDbLine
 62
250
  6
CONTINUOUS
 10
10.5134150626
 20
-26.3132437251
 11
10.5347065336
 21
-26.3345351961
  0
LINE
  5
287
100
AcDbEntity
  8
ASSI
100
AcDbLine
 62
250
  6
CONTINUOUS
 10
10.5134150626
 20
-26.3132437251
 11
10.5347065336
 21
-26.3345351961
  0
LINE
  5
288
100
AcDbEntity
  8
0
100
AcDbLine
 62
250
  6
CONTINUOUS
 10
11.0132437251
 20
-25.8134150626
 11
11.0345351961
 21
-25.8347065336
  0
LINE
  5
289
100
AcDbEntity
  8
ASSI
100
AcDbLine
 62
250
  6
CONTINUOUS
 10
11.0132437251
 20
-25.8134150626
 11
11.0345351961
 21
-25.8347065336
  0
LINE
  5
28A
100
AcDbEntity
  8
CURVE
100
AcDbLine
 62
250
  6
CONTINUOUS
 10
-3.936449
 20
-14.934513
 11
-4.000528
 21
-14.811179
  0
LINE
  5
28B
100
AcDbEntity
  8
CURVE
100
AcDbLine
 62
7
  6
CONTINUOUS
 10
2.2218088799
 20
15.3411932234
 11
2.6887973899
 21
15.8081817335
  0
LINE
  5
28C
100
AcDbEntity
  8
CURVE
100
AcDbLine
 62
7
  6
CONTINUOUS
 10
2.3049882523
 20
15.2829512396
 11
2.7719741639
 21
15.7499371513
  0
LINE
  5
28D
100
AcDbEntity
  8
CURVE
100
AcDbLine
 62
7
  6
CONTINUOUS
 10
2.3881676248
 20
15.2247092559
 11
2.8551509379
 21
15.691692569
  0
LINE
  5
28E
100
AcDbEntity
  8
CURVE
100
AcDbLine
 62
7
  6
CONTINUOUS
 10
2.4713469972
 20
15.1664672721
 11
2.9383277119
 21
15.6334479868
  0
LINE
  5
28F
100
AcDbEntity
  8
CURVE
100
AcDbLine
 62
7
  6
CONTINUOUS
 10
2.5545263697
 20
15.1082252883
 11
3.0215044859
 21
15.5752034046
  0
LINE
  5
290
100
AcDbEntity
  8
CURVE
100
AcDbLine
 62
7
  6
CONTINUOUS
 10
2.6377057422
 20
15.0499833045
 11
3.10468126
 21
15.5169588223
  0
LINE
  5
291
100
AcDbEntity
  8
CURVE
100
AcDbLine
 62
7
  6
CONTINUOUS
 10
2.7208851146
 20
14.9917413208
 11
3.187858034
 21
15.4587142401
  0
LINE
  5
292
100
AcDbEntity
  8
CURVE
100
AcDbLine
 62
7
  6
CONTINUOUS
 10
2.8040644871
 20
14.933499337
 11
3.271034808
 21
15.4004696579
  0
LINE
  5
293
100
AcDbEntity
  8
CURVE
100
AcDbLine
 62
7
  6
CONTINUOUS
 10
2.8872438596
 20
14.8752573532
 11
3.354211582
 21
15.3422250756
  0
LINE
  5
294
100
AcDbEntity
  8
CURVE
100
AcDbLine
 62
7
  6
CONTINUOUS
 10
2.970423232
 20
14.8170153694
 11
3.437388356
 21
15.2839804934
  0
LINE
  5
295
100
AcDbEntity
  8
CURVE
100
AcDbLine
 62
7
  6
CONTINUOUS
 10
3.0536026045
 20
14.7587733857
 11
3.52056513
 21
15.2257359112
  0
LINE
  5
296
100
AcDbEntity
  8
CURVE
100
AcDbLine
 62
7
  6
CONTINUOUS
 10
3.1367819769
 20
14.7005314019
 11
3.603741904
 21
15.1674913289
  0
LINE
  5
297
100
AcDbEntity
  8
CURVE
100
AcDbLine
 62
7
  6
CONTINUOUS
 10
3.2199613494
 20
14.6422894181
 11
3.686918678
 21
15.1092467467
  0
LINE
  5
298
100
AcDbEntity
  8
CURVE
100
AcDbLine
 62
7
  6
CONTINUOUS
 10
3.3031407219
 20
14.5840474343
 11
3.770095452
 21
15.0510021645
  0
LINE
  5
299
100
AcDbEntity
  8
CURVE
100
AcDbLine
 62
7
  6
CONTINUOUS
 10
3.3863200943
 20
14.5258054506
 11
3.853272226
 21
14.9927575822
  0
LINE
  5
29A
100
AcDbEntity
  8
CURVE
100
AcDbLine
 62
7
  6
CONTINUOUS
 10
3.4694994668
 20
14.4675634668
 11
3.936449
 21
14.934513
  0
LINE
  5
29B
100
AcDbEntity
  8
CURVE
100
AcDbLine
 62
7
  6
CONTINUOUS
 10
3.5526788392
 20
14.409321483
 11
3.9848028446
 21
14.8414454884
  0
LINE
  5
29C
100
AcDbEntity
  8
CURVE
100
AcDbLine
 62
7
  6
CONTINUOUS
 10
3.6358582117
 20
14.3510794992
 11
4.000528
 21
14.7157492875
  0
LINE
  5
29D
100
AcDbEntity
  8
CURVE
100
AcDbLine
 62
7
  6
CONTINUOUS
 10
3.7190375842
 20
14.2928375155
 11
4.000528
 21
14.5743279313
  0
LINE
  5
29E
100
AcDbEntity
  8
CURVE
100
AcDbLine
 62
7
  6
CONTINUOUS
 10
3.8022169566
 20
14.2345955317
 11
4.000528
 21
14.4329065751
  0
LINE
  5
29F
100
AcDbEntity
  8
CURVE
100
AcDbLine
 62
7
  6
CONTINUOUS
 10
3.8971353887
 20
14.1880926075
 11
4.000528
 21
14.2914852188
  0
LINE
  5
2A0
100
AcDbEntity
  8
CURVE
100
AcDbLine
 62
250
  6
CONTINUOUS
 10
-4.000528
 20
-14.811179
 11
-4.000528
 21
-14.288213
  0
LINE
  5
2A1
100
AcDbEntity
  8
CURVE
100
AcDbLine
 62
250
  6
CONTINUOUS
 10
-3.999673
 20
14.288213
 11
-3.999673
 21
14.811868
  0
LINE
  5
2A2
100
AcDbEntity
  8
0
100
AcDbLine
 62
7
  6
CONTINUOUS
 10
-1.0
 20
0.9
 11
-1.0
 21
-0.9
  0
LINE
  5
2A3
100
AcDbEntity
  8
DRAFT
100
AcDbLine
 62
7
  6
CONTINUOUS
 10
-1.0
 20
0.9
 11
-1.0
 21
-0.9
  0
LINE
  5
2A4
100
AcDbEntity
  8
ASSI
100
AcDbLine
 62
7
  6
CONTINUOUS
 10
-1.0
 20
0.9
 11
-1.0
 21
-0.9
  0
LINE
  5
2A5
100
AcDbEntity
  8
0
100
AcDbLine
 62
7
  6
CONTINUOUS
 10
-0.9
 20
-1.0
 11
0.9
 21
-1.0
  0
LINE
  5
2A6
100
AcDbEntity
  8
DRAFT
100
AcDbLine
 62
7
  6
CONTINUOUS
 10
-0.9
 20
-1.0
 11
0.9
 21
-1.0
  0
LINE
  5
2A7
100
AcDbEntity
  8
ASSI
100
AcDbLine
 62
7
  6
CONTINUOUS
 10
-0.9
 20
-1.0
 11
0.9
 21
-1.0
  0
LINE
  5
2A8
100
AcDbEntity
  8
0
100
AcDbLine
 62
7
  6
CONTINUOUS
 10
1.0
 20
-0.9
 11
1.0
 21
0.9
  0
LINE
  5
2A9
100
AcDbEntity
  8
DRAFT
100
AcDbLine
 62
7
  6
CONTINUOUS
 10
1.0
 20
-0.9
 11
1.0
 21
0.9
  0
LINE
  5
2AA
100
AcDbEntity
  8
ASSI
100
AcDbLine
 62
7
  6
CONTINUOUS
 10
1.0
 20
-0.9
 11
1.0
 21
0.9
  0
LINE
  5
2AB
100
AcDbEntity
  8
0
100
AcDbLine
 62
7
  6
CONTINUOUS
 10
0.9
 20
1.0
 11
-0.9
 21
1.0
  0
LINE
  5
2AC
100
AcDbEntity
  8
DRAFT
100
AcDbLine
 62
7
  6
CONTINUOUS
 10
0.9
 20
1.0
 11
-0.9
 21
1.0
  0
LINE
  5
2AD
100
AcDbEntity
  8
ASSI
100
AcDbLine
 62
7
  6
CONTINUOUS
 10
0.9
 20
1.0
 11
-0.9
 21
1.0
  0
LWPOLYLINE
  5
2AE
100
AcDbEntity
  8
0
100
AcDbPolyline
 62
7
  6
CONTINUOUS
 90
4
 70
0
 43
0.3500000019
 10
15.8426259766
 20
1.9285714417
 10
15.1997705078
 20
1.9285714417
 10
15.1997705078
 20
3.4285715637
 10
18.1997680664
 20
2.5714285889
  0
LINE
  5
2AF
100
AcDbEntity
  8
CURVE
100
AcDbLine
 62
250
  6
CONTINUOUS
 10
3.999673
 20
-14.288213
 11
3.999673
 21
-14.811868
  0
LINE
  5
2B0
100
AcDbEntity
  8
CURVE
100
AcDbLine
 62
250
  6
CONTINUOUS
 10
4.000528
 20
14.811179
 11
4.000528
 21
14.288213
  0
LINE
  5
2B1
100
AcDbEntity
  8
CURVE
100
AcDbLine
 62
7
  6
CONTINUOUS
 10
-4.000528
 20
-14.3570887918
 11
-3.8468963822
 21
-14.203457174
  0
LINE
  5
2B2
100
AcDbEntity
  8
CURVE
100
AcDbLine
 62
7
  6
CONTINUOUS
 10
-4.000528
 20
-14.4985101481
 11
-3.763631101
 21
-14.2616132491
  0
LINE
  5
2B3
100
AcDbEntity
  8
CURVE
100
AcDbLine
 62
7
  6
CONTINUOUS
 10
-4.000528
 20
-14.6399315043
 11
-3.6804517285
 21
-14.3198552328
  0
LINE
  5
2B4
100
AcDbEntity
  8
CURVE
100
AcDbLine
 62
7
  6
CONTINUOUS
 10
-4.000528
 20
-14.7813528605
 11
-3.5972723561
 21
-14.3780972166
  0
LINE
  5
2B5
100
AcDbEntity
  8
CURVE
100
AcDbLine
 62
7
  6
CONTINUOUS
 10
-3.9623721096
 20
-14.8846183263
 11
-3.5140929836
 21
-14.4363392004
  0
LINE
  5
2B6
100
AcDbEntity
  8
CURVE
100
AcDbLine
 62
7
  6
CONTINUOUS
 10
-3.8978643498
 20
-14.9615319228
 11
-3.4309136112
 21
-14.4945811842
  0
LWPOLYLINE
  5
2B7
100
AcDbEntity
  8
0
100
AcDbPolyline
 62
7
  6
CONTINUOUS
 90
10
 70
0
 43
0.3500000019
 10
17.6997675781
 20
0.8571428909
 10
17.8426279297
 20
0.9285713882
 10
17.9140527344
 20
0.9285713882
 10
18.0569130859
 20
0.7857143097
 10
18.0569130859
 20
0.7142857285
 10
17.9854829102
 20
0.6428571472
 10
17.9140527344
 20
0.6428571472
 10
17.7711977539
 20
0.7142857285
 10
17.6997675781
 20
0.7857143097
 10
17.6997675781
 20
0.8571428909
  0
LWPOLYLINE
  5
2B8
100
AcDbEntity
  8
0
100
AcDbPolyline
 62
7
  6
CONTINUOUS
 90
3
 70
0
 43
0.3500000019
 10
17.9140527344
 20
0.9285713882
 10
18.1283378906
 20
0.8571428909
 10
18.4140532227
 20
0.7142857285
  0
LINE
  5
2B9
100
AcDbEntity
  8
CURVE
100
AcDbLine
 62
7
  6
CONTINUOUS
 10
-3.8146875758
 20
-15.019776505
 11
-3.3477342387
 21
-14.5528231679
  0
LINE
  5
2BA
100
AcDbEntity
  8
CURVE
100
AcDbLine
 62
7
  6
CONTINUOUS
 10
-3.7315108017
 20
-15.0780210872
 11
-3.2645548662
 21
-14.6110651517
  0
LINE
  5
2BB
100
AcDbEntity
  8
CURVE
100
AcDbLine
 62
7
  6
CONTINUOUS
 10
-3.6483340277
 20
-15.1362656695
 11
-3.1813754938
 21
-14.6693071355
  0
LINE
  5
2BC
100
AcDbEntity
  8
CURVE
100
AcDbLine
 62
7
  6
CONTINUOUS
 10
-3.5651572537
 20
-15.1945102517
 11
-3.0981961213
 21
-14.7275491193
  0
LINE
  5
2BD
100
AcDbEntity
  8
CURVE
100
AcDbLine
 62
7
  6
CONTINUOUS
 10
-3.4819804797
 20
-15.2527548339
 11
-3.0150167488
 21
-14.785791103
  0
LINE
  5
2BE
100
AcDbEntity
  8
CURVE
100
AcDbLine
 62
7
  6
CONTINUOUS
 10
-3.3988037057
 20
-15.3109994162
 11
-2.9318373764
 21
-14.8440330868
  0
LINE
  5
2BF
100
AcDbEntity
  8
CURVE
100
AcDbLine
 62
7
  6
CONTINUOUS
 10
-3.3156269317
 20
-15.3692439984
 11
-2.8486580039
 21
-14.9022750706
  0
LINE
  5
2C0
100
AcDbEntity
  8
CURVE
100
AcDbLine
 62
7
  6
CONTINUOUS
 10
-3.2324501577
 20
-15.4274885806
 11
-2.7654786315
 21
-14.9605170544
  0
LINE
  5
2C1
100
AcDbEntity
  8
CURVE
100
AcDbLine
 62
7
  6
CONTINUOUS
 10
-3.1492733837
 20
-15.4857331629
 11
-2.682299259
 21
-15.0187590382
  0
LINE
  5
2C2
100
AcDbEntity
  8
CURVE
100
AcDbLine
 62
7
  6
CONTINUOUS
 10
-3.0660966097
 20
-15.5439777451
 11
-2.5991198865
 21
-15.0770010219
  0
LINE
  5
2C3
100
AcDbEntity
  8
CURVE
100
AcDbLine
 62
7
  6
CONTINUOUS
 10
-2.9829198357
 20
-15.6022223273
 11
-2.5159405141
 21
-15.1352430057
  0
LINE
  5
2C4
100
AcDbEntity
  8
CURVE
100
AcDbLine
 62
7
  6
CONTINUOUS
 10
-2.8997430617
 20
-15.6604669096
 11
-2.4327611416
 21
-15.1934849895
  0
LINE
  5
2C5
100
AcDbEntity
  8
CURVE
100
AcDbLine
 62
7
  6
CONTINUOUS
 10
-2.8165662877
 20
-15.7187114918
 11
-2.3495817691
 21
-15.2517269733
  0
LINE
  5
2C6
100
AcDbEntity
  8
CURVE
100
AcDbLine
 62
7
  6
CONTINUOUS
 10
-2.7333895137
 20
-15.776956074
 11
-2.2664023967
 21
-15.309968957
  0
LINE
  5
2C7
100
AcDbEntity
  8
CURVE
100
AcDbLine
 62
7
  6
CONTINUOUS
 10
-2.6502127397
 20
-15.8352006563
 11
-2.1832230242
 21
-15.3682109408
  0
LINE
  5
2C8
100
AcDbEntity
  8
CURVE
100
AcDbLine
 62
7
  6
CONTINUOUS
 10
-2.5670359657
 20
-15.8934452385
 11
-2.1000436518
 21
-15.4264529246
  0
LINE
  5
2C9
100
AcDbEntity
  8
CURVE
100
AcDbLine
 62
7
  6
CONTINUOUS
 10
-2.4838591917
 20
-15.9516898207
 11
-2.0168642793
 21
-15.4846949084
  0
LINE
  5
2CA
100
AcDbEntity
  8
CURVE
100
AcDbLine
 62
7
  6
CONTINUOUS
 10
-2.4006824177
 20
-16.009934403
 11
-1.9336849068
 21
-15.5429368921
  0
LINE
  5
2CB
100
AcDbEntity
  8
CURVE
100
AcDbLine
 62
7
  6
CONTINUOUS
 10
-2.3175056437
 20
-16.0681789852
 11
-1.8505055344
 21
-15.6011788759
  0
LINE
  5
2CC
100
AcDbEntity
  8
COPY_PUBLISH
100
AcDbLine
 62
250
  6
CONTINUOUS
 10
10.5134150626
 20
26.3132437251
 11
10.5134150626
 21
-26.3132437251
  0
LINE
  5
2CD
100
AcDbEntity
  8
ASSI
100
AcDbLine
 62
250
  6
CONTINUOUS
 10
10.5134150626
 20
26.3132437251
 11
10.5134150626
 21
-26.3132437251
  0
LINE
  5
2CE
100
AcDbEntity
  8
COPY_PUBLISH
100
AcDbLine
 62
250
  6
CONTINUOUS
 10
11.0132437251
 20
25.8134150626
 11
11.0132437251
 21
-25.8134150626
  0
LINE
  5
2CF
100
AcDbEntity
  8
ASSI
100
AcDbLine
 62
250
  6
CONTINUOUS
 10
11.0132437251
 20
25.8134150626
 11
11.0132437251
 21
-25.8134150626
  0
LINE
  5
2D0
100
AcDbEntity
  8
0
100
AcDbLine
 62
7
  6
CONTINUOUS
 10
11.0345351961
 20
-25.8347065336
 11
11.0345351961
 21
25.8347065336
  0
LINE
  5
2D1
100
AcDbEntity
  8
ASSI
100
AcDbLine
 62
7
  6
CONTINUOUS
 10
11.0345351961
 20
-25.8347065336
 11
11.0345351961
 21
25.8347065336
  0
LINE
  5
2D2
100
AcDbEntity
  8
CURVE
100
AcDbLine
 62
250
  6
CONTINUOUS
 10
3.999673
 20
-14.811868
 11
3.935594
 21
-14.934513
  0
LINE
  5
2D3
100
AcDbEntity
  8
CURVE
100
AcDbLine
 62
7
  6
CONTINUOUS
 10
-2.2343288697
 20
-16.1264235674
 11
-1.7673261619
 21
-15.6594208597
  0
LINE
  5
2D4
100
AcDbEntity
  8
CURVE
100
AcDbLine
 62
7
  6
CONTINUOUS
 10
-2.1511520957
 20
-16.1846681497
 11
-1.6841467895
 21
-15.7176628435
  0
LINE
  5
2D5
100
AcDbEntity
  8
CURVE
100
AcDbLine
 62
7
  6
CONTINUOUS
 10
-2.0679753217
 20
-16.2429127319
 11
-1.600967417
 21
-15.7759048272
  0
LINE
  5
2D6
100
AcDbEntity
  8
CURVE
100
AcDbLine
 62
7
  6
CONTINUOUS
 10
-1.9847985477
 20
-16.3011573141
 11
-1.5177880445
 21
-15.834146811
  0
LINE
  5
2D7
100
AcDbEntity
  8
CURVE
100
AcDbLine
 62
7
  6
CONTINUOUS
 10
-1.9016217736
 20
-16.3594018964
 11
-1.4346086721
 21
-15.8923887948
  0
LINE
  5
2D8
100
AcDbEntity
  8
CURVE
100
AcDbLine
 62
7
  6
CONTINUOUS
 10
-1.8184449996
 20
-16.4176464786
 11
-1.3514292996
 21
-15.9506307786
  0
LINE
  5
2D9
100
AcDbEntity
  8
CURVE
100
AcDbLine
 62
7
  6
CONTINUOUS
 10
-1.7352682256
 20
-16.4758910608
 11
-1.2682499271
 21
-16.0088727623
  0
LINE
  5
2DA
100
AcDbEntity
  8
0
100
AcDbLine
 62
250
  6
CONTINUOUS
 10
-11.0345351961
 20
-25.8347065336
 11
-11.0132437251
 21
-25.8134150626
  0
LINE
  5
2DB
100
AcDbEntity
  8
ASSI
100
AcDbLine
 62
250
  6
CONTINUOUS
 10
-11.0345351961
 20
-25.8347065336
 11
-11.0132437251
 21
-25.8134150626
  0
LINE
  5
2DC
100
AcDbEntity
  8
CURVE
100
AcDbLine
 62
7
  6
CONTINUOUS
 10
-1.6520914516
 20
-16.5341356431
 11
-1.1850705547
 21
-16.0671147461
  0
LINE
  5
2DD
100
AcDbEntity
  8
CURVE
100
AcDbLine
 62
7
  6
CONTINUOUS
 10
-1.5689146776
 20
-16.5923802253
 11
-1.1018911822
 21
-16.1253567299
  0
LINE
  5
2DE
100
AcDbEntity
  8
CURVE
100
AcDbLine
 62
7
  6
CONTINUOUS
 10
-1.4857379036
 20
-16.6506248075
 11
-1.0187118098
 21
-16.1835987137
  0
LINE
  5
2DF
100
AcDbEntity
  8
CURVE
100
AcDbLine
 62
7
  6
CONTINUOUS
 10
-1.4025611296
 20
-16.7088693898
 11
-0.9355324373
 21
-16.2418406974
  0
LINE
  5
2E0
100
AcDbEntity
  8
CURVE
100
AcDbLine
 62
7
  6
CONTINUOUS
 10
-1.3193843556
 20
-16.767113972
 11
-0.8523530648
 21
-16.3000826812
  0
LINE
  5
2E1
100
AcDbEntity
  8
CURVE
100
AcDbLine
 62
7
  6
CONTINUOUS
 10
-1.2362075816
 20
-16.8253585542
 11
-0.7691736924
 21
-16.358324665
  0
LINE
  5
2E2
100
AcDbEntity
  8
CURVE
100
AcDbLine
 62
7
  6
CONTINUOUS
 10
-1.1530308076
 20
-16.8836031365
 11
-0.6859943199
 21
-16.4165666488
  0
LINE
  5
2E3
100
AcDbEntity
  8
0
100
AcDbLine
 62
250
  6
CONTINUOUS
 10
-10.5347065336
 20
-26.3345351961
 11
-10.5134150626
 21
-26.3132437251
  0
LINE
  5
2E4
100
AcDbEntity
  8
ASSI
100
AcDbLine
 62
250
  6
CONTINUOUS
 10
-10.5347065336
 20
-26.3345351961
 11
-10.5134150626
 21
-26.3132437251
  0
LINE
  5
2E5
100
AcDbEntity
  8
CURVE
100
AcDbLine
 62
7
  6
CONTINUOUS
 10
-1.0698540336
 20
-16.9418477187
 11
-0.6028149475
 21
-16.4748086325
  0
LINE
  5
2E6
100
AcDbEntity
  8
CURVE
100
AcDbLine
 62
7
  6
CONTINUOUS
 10
-0.9866772596
 20
-17.0000923009
 11
-0.519635575
 21
-16.5330506163
  0
LINE
  5
2E7
100
AcDbEntity
  8
CURVE
100
AcDbLine
 62
7
  6
CONTINUOUS
 10
-0.9035004856
 20
-17.0583368832
 11
-0.4364562025
 21
-16.5912926001
  0
LINE
  5
2E8
100
AcDbEntity
  8
CURVE
100
AcDbLine
 62
7
  6
CONTINUOUS
 10
-0.8203237116
 20
-17.1165814654
 11
-0.3532768301
 21
-16.6495345839
  0
LINE
  5
2E9
100
AcDbEntity
  8
CURVE
100
AcDbLine
 62
7
  6
CONTINUOUS
 10
-0.7371469376
 20
-17.1748260476
 11
-0.2700974576
 21
-16.7077765676
  0
LINE
  5
2EA
100
AcDbEntity
  8
0
100
AcDbLine
 62
250
  6
CONTINUOUS
 10
-11.0132437251
 20
25.8134150626
 11
-11.0345351961
 21
25.8347065336
  0
LINE
  5
2EB
100
AcDbEntity
  8
ASSI
100
AcDbLine
 62
250
  6
CONTINUOUS
 10
-11.0132437251
 20
25.8134150626
 11
-11.0345351961
 21
25.8347065336
  0
LINE
  5
2EC
100
AcDbEntity
  8
0
100
AcDbLine
 62
250
  6
CONTINUOUS
 10
-10.5134150626
 20
26.3132437251
 11
-10.5347065336
 21
26.3345351961
  0
LINE
  5
2ED
100
AcDbEntity
  8
ASSI
100
AcDbLine
 62
250
  6
CONTINUOUS
 10
-10.5134150626
 20
26.3132437251
 11
-10.5347065336
 21
26.3345351961
  0
LINE
  5
2EE
100
AcDbEntity
  8
CURVE
100
AcDbLine
 62
250
  6
CONTINUOUS
 10
3.936449
 20
14.934513
 11
4.000528
 21
14.811179
  0
LWPOLYLINE
  5
2EF
100
AcDbEntity
  8
COPY_PUBLISH
100
AcDbPolyline
 62
250
  6
CONTINUOUS
 90
16
 70
0
 10
11.0132437251
 20
25.8134150626
 10
11.01045539
 20
25.8657975315
 10
11.0021929183
 20
25.9176029172
 10
10.9885473613
 20
25.9682606712
 10
10.9696665657
 20
26.0172184586
 10
10.9457598445
 20
26.0639310247
 10
10.9171013786
 20
26.1078690436
 10
10.8840193212
 20
26.1485433419
 10
10.8468760531
 20
26.1855204357
 10
10.8060702069
 20
26.2184079346
 10
10.761986418
 20
26.2468816807
 10
10.7151656414
 20
26.2705791398
 10
10.6663188279
 20
26.2891770144
 10
10.6160695894
 20
26.3025182528
 10
10.5649154114
 20
26.3105481619
 10
10.5134150624
 20
26.3132437249
  0
LWPOLYLINE
  5
2F0
100
AcDbEntity
  8
ASSI
100
AcDbPolyline
 62
250
  6
CONTINUOUS
 90
16
 70
0
 10
11.0132437251
 20
25.8134150626
 10
11.01045539
 20
25.8657975315
 10
11.0021929183
 20
25.9176029172
 10
10.9885473613
 20
25.9682606712
 10
10.9696665657
 20
26.0172184586
 10
10.9457598445
 20
26.0639310247
 10
10.9171013786
 20
26.1078690436
 10
10.8840193212
 20
26.1485433419
 10
10.8468760531
 20
26.1855204357
 10
10.8060702069
 20
26.2184079346
 10
10.761986418
 20
26.2468816807
 10
10.7151656414
 20
26.2705791398
 10
10.6663188279
 20
26.2891770144
 10
10.6160695894
 20
26.3025182528
 10
10.5649154114
 20
26.3105481619
 10
10.5134150624
 20
26.3132437249
  0
LWPOLYLINE
  5
2F1
100
AcDbEntity
  8
COPY_PUBLISH
100
AcDbPolyline
 62
250
  6
CONTINUOUS
 90
16
 70
0
 10
11.0132437251
 20
-25.8134150626
 10
11.0104557606
 20
-25.8657940376
 10
11.0021943512
 20
-25.9175962153
 10
10.9885504711
 20
-25.9682511464
 10
10.9696717815
 20
-26.0172067959
 10
10.9457675487
 20
-26.0639177387
 10
10.9171122688
 20
-26.1078541194
 10
10.8840348897
 20
-26.1485261269
 10
10.8468972612
 20
-26.1855014262
 10
10.8060959292
 20
-26.2183893375
 10
10.762014426
 20
-26.2468656055
 10
10.7151938467
 20
-26.270566676
 10
10.6663444548
 20
-26.2891687618
 10
10.6160895555
 20
-26.3025140488
 10
10.5649267792
 20
-26.3105469765
 10
10.5134150626
 20
-26.3132437251
  0
LWPOLYLINE
  5
2F2
100
AcDbEntity
  8
ASSI
100
AcDbPolyline
 62
250
  6
CONTINUOUS
 90
16
 70
0
 10
11.0132437251
 20
-25.8134150626
 10
11.0104557606
 20
-25.8657940376
 10
11.0021943512
 20
-25.9175962153
 10
10.9885504711
 20
-25.9682511464
 10
10.9696717815
 20
-26.0172067959
 10
10.9457675487
 20
-26.0639177387
 10
10.9171122688
 20
-26.1078541194
 10
10.8840348897
 20
-26.1485261269
 10
10.8468972612
 20
-26.1855014262
 10
10.8060959292
 20
-26.2183893375
 10
10.762014426
 20
-26.2468656055
 10
10.7151938467
 20
-26.270566676
 10
10.6663444548
 20
-26.2891687618
 10
10.6160895555
 20
-26.3025140488
 10
10.5649267792
 20
-26.3105469765
 10
10.5134150626
 20
-26.3132437251
  0
LINE
  5
2F3
100
AcDbEntity
  8
CURVE
100
AcDbLine
 62
7
  6
CONTINUOUS
 10
-0.6539701636
 20
-17.2330706299
 11
-0.1869180851
 21
-16.7660185514
  0
LINE
  5
2F4
100
AcDbEntity
  8
CURVE
100
AcDbLine
 62
7
  6
CONTINUOUS
 10
-0.5707933896
 20
-17.2913152121
 11
-0.1037387127
 21
-16.8242605352
  0
LINE
  5
2F5
100
AcDbEntity
  8
CURVE
100
AcDbLine
 62
7
  6
CONTINUOUS
 10
-0.4876166156
 20
-17.3495597943
 11
-0.0205593402
 21
-16.882502519
  0
LINE
  5
2F6
100
AcDbEntity
  8
CURVE
100
AcDbLine
 62
7
  6
CONTINUOUS
 10
-0.4044398416
 20
-17.4078043765
 11
0.3555092628
 21
-16.6478552722
  0
LINE
  5
2F7
100
AcDbEntity
  8
CURVE
100
AcDbLine
 62
7
  6
CONTINUOUS
 10
-0.3212630676
 20
-17.4660489588
 11
0.8272239504
 21
-16.3175619408
  0
LINE
  5
2F8
100
AcDbEntity
  8
CURVE
100
AcDbLine
 62
7
  6
CONTINUOUS
 10
-0.2380862936
 20
-17.524293541
 11
1.2989386381
 21
-15.9872686094
  0
LINE
  5
2F9
100
AcDbEntity
  8
CURVE
100
AcDbLine
 62
7
  6
CONTINUOUS
 10
-0.1549095195
 20
-17.5825381232
 11
1.7706533257
 21
-15.656975278
  0
LINE
  5
2FA
100
AcDbEntity
  8
CURVE
100
AcDbLine
 62
7
  6
CONTINUOUS
 10
-0.0615950401
 20
-17.630645
 11
2.2423680134
 21
-15.3266819466
  0
LINE
  5
2FB
100
AcDbEntity
  8
CURVE
100
AcDbLine
 62
7
  6
CONTINUOUS
 10
0.0798263162
 20
-17.630645
 11
2.714082701
 21
-14.9963886152
  0
LINE
  5
2FC
100
AcDbEntity
  8
CURVE
100
AcDbLine
 62
7
  6
CONTINUOUS
 10
0.5387092099
 20
-17.3131834625
 11
3.1857973887
 21
-14.6660952838
  0
LINE
  5
2FD
100
AcDbEntity
  8
CURVE
100
AcDbLine
 62
7
  6
CONTINUOUS
 10
1.0105077704
 20
-16.9828062583
 11
3.6575120763
 21
-14.3358019523
  0
LINE
  5
2FE
100
AcDbEntity
  8
CURVE
100
AcDbLine
 62
7
  6
CONTINUOUS
 10
1.4823063308
 20
-16.6524290541
 11
3.9385628542
 21
-14.1961725307
  0
LINE
  5
2FF
100
AcDbEntity
  8
CURVE
100
AcDbLine
 62
7
  6
CONTINUOUS
 10
1.9541048913
 20
-16.3220518498
 11
3.9990458926
 21
-14.2771108485
  0
LINE
  5
300
100
AcDbEntity
  8
CURVE
100
AcDbLine
 62
7
  6
CONTINUOUS
 10
2.4259034517
 20
-15.9916746456
 11
3.999673
 21
-14.4179050974
  0
LINE
  5
301
100
AcDbEntity
  8
CURVE
100
AcDbLine
 62
7
  6
CONTINUOUS
 10
2.8977020122
 20
-15.6612974414
 11
3.999673
 21
-14.5593264536
  0
LINE
  5
302
100
AcDbEntity
  8
CURVE
100
AcDbLine
 62
7
  6
CONTINUOUS
 10
3.3695005727
 20
-15.3309202372
 11
3.999673
 21
-14.7007478098
  0
LINE
  5
303
100
AcDbEntity
  8
CURVE
100
AcDbLine
 62
7
  6
CONTINUOUS
 10
3.8412991331
 20
-15.0005430329
 11
3.9665194908
 21
-14.8753226753
  0
LINE
  5
304
100
AcDbEntity
  8
CURVE
100
AcDbLine
 62
250
  6
CONTINUOUS
 10
-0.000083
 20
-16.89684
 11
3.842577
 21
-14.20622
  0
LINE
  5
305
100
AcDbEntity
  8
CURVE
100
AcDbLine
 62
250
  6
CONTINUOUS
 10
3.935594
 20
-14.934513
 11
0.085355
 21
-17.630645
  0
LINE
  5
306
100
AcDbEntity
  8
CURVE
100
AcDbLine
 62
250
  6
CONTINUOUS
 10
3.842742
 20
14.20622
 11
0.000083
 21
16.89684
  0
LINE
  5
307
100
AcDbEntity
  8
CURVE
100
AcDbLine
 62
250
  6
CONTINUOUS
 10
0.08621
 20
17.630645
 11
3.936449
 21
14.934513
  0
LWPOLYLINE
  5
308
100
AcDbEntity
  8
0
100
AcDbPolyline
 62
7
  6
CONTINUOUS
 90
10
 70
0
 43
0.3500000019
 10
1.2857158203
 20
34.6742290039
 10
1.357140625
 20
34.5313713379
 10
1.357140625
 20
34.4599438477
 10
1.2142856445
 20
34.3170861816
 10
1.1428554688
 20
34.3170861816
 10
1.0714306641
 20
34.3885163574
 10
1.0714306641
 20
34.4599438477
 10
1.1428554688
 20
34.6028015137
 10
1.2142856445
 20
34.6742290039
 10
1.2857158203
 20
34.6742290039
  0
LWPOLYLINE
  5
309
100
AcDbEntity
  8
0
100
AcDbPolyline
 62
7
  6
CONTINUOUS
 90
8
 70
0
 43
0.3500000019
 10
18.1997680664
 20
-4.2857142029
 10
18.1997680664
 20
-3.4285715637
 10
17.7711977539
 20
-2.9999999084
 10
16.9140571289
 20
-2.9999999084
 10
16.4854814453
 20
-3.4285715637
 10
16.4854814453
 20
-4.2857142029
 10
15.1997705078
 20
-4.2857142029
 10
15.1997705078
 20
-2.9999999084
  0
LWPOLYLINE
  5
30A
100
AcDbEntity
  8
0
100
AcDbPolyline
 62
7
  6
CONTINUOUS
 90
7
 70
0
 43
0.3500000019
 10
18.1997680664
 20
-0.6428571472
 10
18.1997680664
 20
-2.1428571014
 10
16.0569111328
 20
-0.6428571472
 10
15.6283408203
 20
-0.6428571472
 10
15.1997705078
 20
-1.0714285507
 10
15.1997705078
 20
-1.7142857819
 10
15.8426259766
 20
-2.1428571014
  0
LINE
  5
30B
100
AcDbEntity
  8
CURVE
100
AcDbLine
 62
250
  6
CONTINUOUS
 10
-0.085355
 20
17.630645
 11
0.08621
 21
17.630645
  0
LINE
  5
30C
100
AcDbEntity
  8
COPY_PUBLISH
100
AcDbLine
 62
250
  6
CONTINUOUS
 10
-11.0132437251
 20
25.8134150626
 11
11.0132437251
 21
25.8134150626
  0
LINE
  5
30D
100
AcDbEntity
  8
ASSI
100
AcDbLine
 62
250
  6
CONTINUOUS
 10
-11.0132437251
 20
25.8134150626
 11
11.0132437251
 21
25.8134150626
  0
LINE
  5
30E
100
AcDbEntity
  8
COPY_PUBLISH
100
AcDbLine
 62
250
  6
CONTINUOUS
 10
10.5134150626
 20
26.3132437251
 11
-10.5134150626
 21
26.3132437251
  0
LINE
  5
30F
100
AcDbEntity
  8
ASSI
100
AcDbLine
 62
250
  6
CONTINUOUS
 10
10.5134150626
 20
26.3132437251
 11
-10.5134150626
 21
26.3132437251
  0
LINE
  5
310
100
AcDbEntity
  8
0
100
AcDbLine
 62
7
  6
CONTINUOUS
 10
10.5347065336
 20
26.3345351961
 11
-10.5347065336
 21
26.3345351961
  0
LINE
  5
311
100
AcDbEntity
  8
ASSI
100
AcDbLine
 62
7
  6
CONTINUOUS
 10
10.5347065336
 20
26.3345351961
 11
-10.5347065336
 21
26.3345351961
  0
LWPOLYLINE
  5
312
100
AcDbEntity
  8
0
100
AcDbPolyline
 62
7
  6
CONTINUOUS
 90
7
 70
0
 43
0.3500000019
 10
-0.2142856445
 20
34.1742285156
 10
-1.7142871094
 20
34.1742285156
 10
-0.2142856445
 20
36.3170881348
 10
-0.2142856445
 20
36.7456584473
 10
-0.642855957
 20
37.1742287598
 10
-1.2857167969
 20
37.1742287598
 10
-1.7142871094
 20
36.531373291
  0
LWPOLYLINE
  5
313
100
AcDbEntity
  8
0
100
AcDbPolyline
 62
7
  6
CONTINUOUS
 90
7
 70
0
 43
0.3500000019
 10
-2.5714277344
 20
34.1742285156
 10
-4.0714291992
 20
34.1742285156
 10
-2.5714277344
 20
36.3170881348
 10
-2.5714277344
 20
36.7456584473
 10
-2.9999980469
 20
37.1742287598
 10
-3.6428588867
 20
37.1742287598
 10
-4.0714291992
 20
36.531373291
  0
LWPOLYLINE
  5
314
100
AcDbEntity
  8
0
100
AcDbPolyline
 62
7
  6
CONTINUOUS
 90
5
 70
0
 43
0.3500000019
 10
-33.5377973633
 20
35.8876020508
 10
-33.180654541
 20
36.1018898926
 10
-33.180654541
 20
36.7447453613
 10
-33.5377973633
 20
37.1733183594
 10
-34.3949379883
 20
37.1733183594
  0
LINE
  5
315
100
AcDbEntity
  8
0
100
AcDbLine
 62
7
  6
CONTINUOUS
 10
-29.1062085913
 20
-26.3132437251
 11
-28.2931201172
 21
-26.3345351961
  0
LINE
  5
316
100
AcDbEntity
  8
ASSI
100
AcDbLine
 62
7
  6
CONTINUOUS
 10
-29.1062085913
 20
-26.3132437251
 11
-28.2931201172
 21
-26.3345351961
  0
LINE
  5
317
100
AcDbEntity
  8
RACCORDO
100
AcDbLine
 62
7
  6
CONTINUOUS
 10
-27.5931201172
 20
-26.2216232767
 11
-28.2931201172
 21
-26.2828653412
  0
LINE
  5
318
100
AcDbEntity
  8
ASSI
100
AcDbLine
 62
7
  6
CONTINUOUS
 10
-27.5931201172
 20
-26.2216232767
 11
-28.2931201172
 21
-26.2828653412
  0
LINE
  5
319
100
AcDbEntity
  8
RACCORDO
100
AcDbLine
 62
250
  6
CONTINUOUS
 10
-27.5931201172
 20
-25.7709349336
 11
-28.2931201172
 21
-25.8321769981
  0
LINE
  5
31A
100
AcDbEntity
  8
ASSI
100
AcDbLine
 62
250
  6
CONTINUOUS
 10
-27.5931201172
 20
-25.7709349336
 11
-28.2931201172
 21
-25.8321769981
  0
LINE
  5
31B
100
AcDbEntity
  8
COPY_PUBLISH
100
AcDbLine
 62
250
  6
CONTINUOUS
 10
-29.1062085913
 20
-25.8134150626
 11
-29.5931201172
 21
-25.8134150626
  0
LINE
  5
31C
100
AcDbEntity
  8
ASSI
100
AcDbLine
 62
250
  6
CONTINUOUS
 10
-29.1062085913
 20
-25.8134150626
 11
-29.5931201172
 21
-25.8134150626
  0
LINE
  5
31D
100
AcDbEntity
  8
0
100
AcDbLine
 62
250
  6
CONTINUOUS
 10
-29.1062085913
 20
-25.8134150626
 11
-28.2931201172
 21
-25.8347065336
  0
LINE
  5
31E
100
AcDbEntity
  8
ASSI
100
AcDbLine
 62
250
  6
CONTINUOUS
 10
-29.1062085913
 20
-25.8134150626
 11
-28.2931201172
 21
-25.8347065336
  0
LWPOLYLINE
  5
31F
100
AcDbEntity
  8
0
100
AcDbPolyline
 62
7
  6
CONTINUOUS
 90
3
 70
0
 43
0.3500000019
 10
-35.3949389648
 20
34.4590307617
 10
-35.4663664551
 20
34.2447456055
 10
-35.6092241211
 20
33.959032959
  0
LINE
  5
320
100
AcDbEntity
  8
DRAFT
100
AcDbLine
 62
7
  6
CONTINUOUS
 10
-28.2931201172
 20
-15.75
 11
-27.5931201172
 21
-15.75
  0
LINE
  5
321
100
AcDbEntity
  8
ASSI
100
AcDbLine
 62
7
  6
CONTINUOUS
 10
-28.2931201172
 20
-15.75
 11
-27.5931201172
 21
-15.75
  0
LINE
  5
322
100
AcDbEntity
  8
DRAFT
100
AcDbLine
 62
7
  6
CONTINUOUS
 10
-26.4931201172
 20
-14.8954050818
 11
-27.5931201172
 21
-15.05
  0
LINE
  5
323
100
AcDbEntity
  8
RACCORDO
100
AcDbLine
 62
7
  6
CONTINUOUS
 10
-24.6721857347
 20
-14.6969203156
 11
-24.7044449826
 21
-14.6986109511
  0
LINE
  5
324
100
AcDbEntity
  8
DRAFT
100
AcDbLine
 62
7
  6
CONTINUOUS
 10
-24.7044449826
 20
-14.6986109511
 11
-27.5931201172
 21
-14.85
  0
LINE
  5
325
100
AcDbEntity
  8
RACCORDO
100
AcDbLine
 62
250
  6
CONTINUOUS
 10
-27.5931201172
 20
-15.55
 11
-28.2931201172
 21
-15.55
  0
LINE
  5
326
100
AcDbEntity
  8
ASSI
100
AcDbLine
 62
250
  6
CONTINUOUS
 10
-27.5931201172
 20
-15.55
 11
-28.2931201172
 21
-15.55
  0
LINE
  5
327
100
AcDbEntity
  8
RACCORDO
100
AcDbLine
 62
250
  6
CONTINUOUS
 10
-27.5931201172
 20
-10.95
 11
-28.2931201172
 21
-10.95
  0
LINE
  5
328
100
AcDbEntity
  8
ASSI
100
AcDbLine
 62
250
  6
CONTINUOUS
 10
-27.5931201172
 20
-10.95
 11
-28.2931201172
 21
-10.95
  0
LINE
  5
329
100
AcDbEntity
  8
DRAFT
100
AcDbLine
 62
7
  6
CONTINUOUS
 10
-28.2931201172
 20
-10.75
 11
-27.5931201172
 21
-10.75
  0
LINE
  5
32A
100
AcDbEntity
  8
ASSI
100
AcDbLine
 62
7
  6
CONTINUOUS
 10
-28.2931201172
 20
-10.75
 11
-27.5931201172
 21
-10.75
  0
LINE
  5
32B
100
AcDbEntity
  8
RACCORDO
100
AcDbLine
 62
7
  6
CONTINUOUS
 10
-24.6721857347
 20
-11.8030796844
 11
-24.7044449826
 21
-11.8013890489
  0
LINE
  5
32C
100
AcDbEntity
  8
DRAFT
100
AcDbLine
 62
7
  6
CONTINUOUS
 10
-24.7044449826
 20
-11.8013890489
 11
-27.5931201172
 21
-11.65
  0
LINE
  5
32D
100
AcDbEntity
  8
DRAFT
100
AcDbLine
 62
7
  6
CONTINUOUS
 10
-26.4931201172
 20
-11.6045949182
 11
-27.5931201172
 21
-11.45
  0
LINE
  5
32E
100
AcDbEntity
  8
COPY_PUBLISH
100
AcDbLine
 62
250
  6
CONTINUOUS
 10
-29.1075072594
 20
25.8657975315
 11
-29.1096166693
 21
25.9682606712
  0
LINE
  5
32F
100
AcDbEntity
  8
ASSI
100
AcDbLine
 62
250
  6
CONTINUOUS
 10
-29.1075072594
 20
25.8657975315
 11
-29.1096166693
 21
25.9682606712
  0
LINE
  5
330
100
AcDbEntity
  8
COPY_PUBLISH
100
AcDbLine
 62
250
  6
CONTINUOUS
 10
-29.1096166693
 20
25.9682606712
 11
-29.1110014551
 21
26.0639310247
  0
LINE
  5
331
100
AcDbEntity
  8
ASSI
100
AcDbLine
 62
250
  6
CONTINUOUS
 10
-29.1096166693
 20
25.9682606712
 11
-29.1110014551
 21
26.0639310247
  0
LWPOLYLINE
  5
332
100
AcDbEntity
  8
COPY_PUBLISH
100
AcDbPolyline
 62
250
  6
CONTINUOUS
 90
10
 70
0
 10
-29.1110014551
 20
26.0639310247
 10
-29.1116003741
 20
26.1485433419
 10
-29.1115960226
 20
26.1855204357
 10
-29.1113886734
 20
26.2184079346
 10
-29.1109799098
 20
26.2468816807
 10
-29.1103744042
 20
26.2705791398
 10
-29.1095823084
 20
26.2891770144
 10
-29.1086158398
 20
26.3025182528
 10
-29.1074865933
 20
26.3105481619
 10
-29.106208598
 20
26.3132437249
  0
LWPOLYLINE
  5
333
100
AcDbEntity
  8
ASSI
100
AcDbPolyline
 62
250
  6
CONTINUOUS
 90
10
 70
0
 10
-29.1110014551
 20
26.0639310247
 10
-29.1116003741
 20
26.1485433419
 10
-29.1115960226
 20
26.1855204357
 10
-29.1113886734
 20
26.2184079346
 10
-29.1109799098
 20
26.2468816807
 10
-29.1103744042
 20
26.2705791398
 10
-29.1095823084
 20
26.2891770144
 10
-29.1086158398
 20
26.3025182528
 10
-29.1074865933
 20
26.3105481619
 10
-29.106208598
 20
26.3132437249
  0
LINE
  5
334
100
AcDbEntity
  8
COPY_PUBLISH
100
AcDbLine
 62
7
  6
CONTINUOUS
 10
-29.5931201172
 20
25.8134150626
 11
-29.5931201172
 21
-25.8134150626
  0
LINE
  5
335
100
AcDbEntity
  8
ASSI
100
AcDbLine
 62
7
  6
CONTINUOUS
 10
-29.5931201172
 20
25.8134150626
 11
-29.5931201172
 21
-25.8134150626
  0
LWPOLYLINE
  5
336
100
AcDbEntity
  8
COPY_PUBLISH
100
AcDbPolyline
 62
250
  6
CONTINUOUS
 90
9
 70
0
 10
-29.111600331
 20
-26.1485261269
 10
-29.1115960802
 20
-26.1855014262
 10
-29.11138886
 20
-26.2183893375
 10
-29.1109802225
 20
-26.2468656055
 10
-29.1103748169
 20
-26.270566676
 10
-29.1095827633
 20
-26.2891687618
 10
-29.1086162511
 20
-26.3025140488
 10
-29.1074868563
 20
-26.3105469765
 10
-29.1062085913
 20
-26.3132437251
  0
LWPOLYLINE
  5
337
100
AcDbEntity
  8
ASSI
100
AcDbPolyline
 62
250
  6
CONTINUOUS
 90
9
 70
0
 10
-29.111600331
 20
-26.1485261269
 10
-29.1115960802
 20
-26.1855014262
 10
-29.11138886
 20
-26.2183893375
 10
-29.1109802225
 20
-26.2468656055
 10
-29.1103748169
 20
-26.270566676
 10
-29.1095827633
 20
-26.2891687618
 10
-29.1086162511
 20
-26.3025140488
 10
-29.1074868563
 20
-26.3105469765
 10
-29.1062085913
 20
-26.3132437251
  0
LINE
  5
338
100
AcDbEntity
  8
COPY_PUBLISH
100
AcDbLine
 62
250
  6
CONTINUOUS
 10
-29.1062085913
 20
25.8134150626
 11
-29.1062085913
 21
-25.8134150626
  0
LINE
  5
339
100
AcDbEntity
  8
ASSI
100
AcDbLine
 62
250
  6
CONTINUOUS
 10
-29.1062085913
 20
25.8134150626
 11
-29.1062085913
 21
-25.8134150626
  0
LINE
  5
33A
100
AcDbEntity
  8
COPY_PUBLISH
100
AcDbLine
 62
250
  6
CONTINUOUS
 10
-29.1110013089
 20
-26.0639177387
 11
-29.111600331
 21
-26.1485261269
  0
LINE
  5
33B
100
AcDbEntity
  8
ASSI
100
AcDbLine
 62
250
  6
CONTINUOUS
 10
-29.1110013089
 20
-26.0639177387
 11
-29.111600331
 21
-26.1485261269
  0
LINE
  5
33C
100
AcDbEntity
  8
COPY_PUBLISH
100
AcDbLine
 62
250
  6
CONTINUOUS
 10
-29.1096165013
 20
-25.9682511464
 11
-29.1110013089
 21
-26.0639177387
  0
LINE
  5
33D
100
AcDbEntity
  8
ASSI
100
AcDbLine
 62
250
  6
CONTINUOUS
 10
-29.1096165013
 20
-25.9682511464
 11
-29.1110013089
 21
-26.0639177387
  0
LINE
  5
33E
100
AcDbEntity
  8
RACCORDO
100
AcDbLine
 62
7
  6
CONTINUOUS
 10
-27.4691673438
 20
-1.9781437817
 11
-26.0062960284
 21
-1.7202000995
  0
LINE
  5
33F
100
AcDbEntity
  8
ASSI
100
AcDbLine
 62
7
  6
CONTINUOUS
 10
-27.4691673438
 20
-1.9781437817
 11
-26.0062960284
 21
-1.7202000995
  0
LINE
  5
340
100
AcDbEntity
  8
COPY_PUBLISH
100
AcDbLine
 62
250
  6
CONTINUOUS
 10
-29.1062085913
 20
25.8134150626
 11
-29.1075072594
 21
25.8657975315
  0
LINE
  5
341
100
AcDbEntity
  8
ASSI
100
AcDbLine
 62
250
  6
CONTINUOUS
 10
-29.1062085913
 20
25.8134150626
 11
-29.1075072594
 21
25.8657975315
  0
LINE
  5
342
100
AcDbEntity
  8
RACCORDO
100
AcDbLine
 62
7
  6
CONTINUOUS
 10
-28.2931201172
 20
-26.3345351961
 11
-28.2931201172
 21
-25.8347065336
  0
LINE
  5
343
100
AcDbEntity
  8
0
100
AcDbLine
 62
7
  6
CONTINUOUS
 10
-28.2931201172
 20
-25.8347065336
 11
-28.2931201172
 21
25.8347065336
  0
LINE
  5
344
100
AcDbEntity
  8
RACCORDO
100
AcDbLine
 62
7
  6
CONTINUOUS
 10
-28.2931201172
 20
25.8347065336
 11
-28.2931201172
 21
26.3345351961
  0
LINE
  5
345
100
AcDbEntity
  8
ASSI
100
AcDbLine
 62
7
  6
CONTINUOUS
 10
-28.2931201172
 20
-26.3345351961
 11
-28.2931201172
 21
26.3345351961
  0
LINE
  5
346
100
AcDbEntity
  8
RACCORDO
100
AcDbLine
 62
7
  6
CONTINUOUS
 10
-27.5931201172
 20
2.1258649447
 11
-27.5931201172
 21
26.2216232767
  0
LINE
  5
347
100
AcDbEntity
  8
ASSI
100
AcDbLine
 62
7
  6
CONTINUOUS
 10
-27.5931201172
 20
2.1258649447
 11
-27.5931201172
 21
26.2216232767
  0
LINE
  5
348
100
AcDbEntity
  8
RACCORDO
100
AcDbLine
 62
7
  6
CONTINUOUS
 10
-27.5931201172
 20
-2.1258649447
 11
-27.5931201172
 21
-26.2216232767
  0
LINE
  5
349
100
AcDbEntity
  8
ASSI
100
AcDbLine
 62
7
  6
CONTINUOUS
 10
-27.5931201172
 20
-2.1258649447
 11
-27.5931201172
 21
-26.2216232767
  0
LWPOLYLINE
  5
34A
100
AcDbEntity
  8
COPY_PUBLISH
100
AcDbPolyline
 62
250
  6
CONTINUOUS
 90
3
 70
0
 10
-29.1062085913
 20
-25.8134150626
 10
-29.1075071777
 20
-25.8657940376
 10
-29.1096165013
 20
-25.9682511464
  0
LWPOLYLINE
  5
34B
100
AcDbEntity
  8
ASSI
100
AcDbPolyline
 62
250
  6
CONTINUOUS
 90
3
 70
0
 10
-29.1062085913
 20
-25.8134150626
 10
-29.1075071777
 20
-25.8657940376
 10
-29.1096165013
 20
-25.9682511464
  0
LINE
  5
34C
100
AcDbEntity
  8
DRAFT
100
AcDbLine
 62
7
  6
CONTINUOUS
 10
-26.4931201172
 20
14.8954050818
 11
-26.4931201172
 21
14.7923514428
  0
LINE
  5
34D
100
AcDbEntity
  8
DRAFT
100
AcDbLine
 62
7
  6
CONTINUOUS
 10
-26.4931201172
 20
11.7076485572
 11
-26.4931201172
 21
11.6045949182
  0
LINE
  5
34E
100
AcDbEntity
  8
DRAFT
100
AcDbLine
 62
7
  6
CONTINUOUS
 10
-26.4931201172
 20
-11.6045949182
 11
-26.4931201172
 21
-11.7076485572
  0
LINE
  5
34F
100
AcDbEntity
  8
DRAFT
100
AcDbLine
 62
7
  6
CONTINUOUS
 10
-26.4931201172
 20
-14.7923514428
 11
-26.4931201172
 21
-14.8954050818
  0
LINE
  5
350
100
AcDbEntity
  8
RACCORDO
100
AcDbLine
 62
7
  6
CONTINUOUS
 10
-25.5931201172
 20
1.227796223
 11
-25.5931201172
 21
-1.227796223
  0
LINE
  5
351
100
AcDbEntity
  8
ASSI
100
AcDbLine
 62
7
  6
CONTINUOUS
 10
-25.5931201172
 20
1.227796223
 11
-25.5931201172
 21
-1.227796223
  0
LINE
  5
352
100
AcDbEntity
  8
DRAFT
100
AcDbLine
 62
7
  6
CONTINUOUS
 10
-25.4431201172
 20
14.7373232745
 11
-25.4431201172
 21
11.7626767255
  0
LINE
  5
353
100
AcDbEntity
  8
DRAFT
100
AcDbLine
 62
7
  6
CONTINUOUS
 10
-25.4431201172
 20
-14.7373232745
 11
-25.4431201172
 21
-11.7626767255
  0
LINE
  5
354
100
AcDbEntity
  8
DRAFT
100
AcDbLine
 62
7
  6
CONTINUOUS
 10
-25.1544449826
 20
14.7221944518
 11
-25.1544449826
 21
11.7778055482
  0
LINE
  5
355
100
AcDbEntity
  8
DRAFT
100
AcDbLine
 62
7
  6
CONTINUOUS
 10
-25.1544449826
 20
-14.7221944518
 11
-25.1544449826
 21
-11.7778055482
  0
LINE
  5
356
100
AcDbEntity
  8
RACCORDO
100
AcDbLine
 62
7
  6
CONTINUOUS
 10
-27.4691673438
 20
1.9781437817
 11
-26.0062960284
 21
1.7202000995
  0
LINE
  5
357
100
AcDbEntity
  8
ASSI
100
AcDbLine
 62
7
  6
CONTINUOUS
 10
-27.4691673438
 20
1.9781437817
 11
-26.0062960284
 21
1.7202000995
  0
LINE
  5
358
100
AcDbEntity
  8
DRAFT
100
AcDbLine
 62
7
  6
CONTINUOUS
 10
-24.7044449826
 20
14.6986109511
 11
-24.7044449826
 21
11.8013890489
  0
LINE
  5
359
100
AcDbEntity
  8
DRAFT
100
AcDbLine
 62
7
  6
CONTINUOUS
 10
-24.7044449826
 20
-14.6986109511
 11
-24.7044449826
 21
-11.8013890489
  0
LINE
  5
35A
100
AcDbEntity
  8
RACCORDO
100
AcDbLine
 62
7
  6
CONTINUOUS
 10
-24.2931201172
 20
14.2974685017
 11
-24.2931201172
 21
12.2025314983
  0
LINE
  5
35B
100
AcDbEntity
  8
RACCORDO
100
AcDbLine
 62
7
  6
CONTINUOUS
 10
-24.2931201172
 20
-14.2974685017
 11
-24.2931201172
 21
-12.2025314983
  0
LWPOLYLINE
  5
35C
100
AcDbEntity
  8
0
100
AcDbPolyline
 62
7
  6
CONTINUOUS
 90
10
 70
0
 43
0.3500000019
 10
-35.4663664551
 20
34.6733186035
 10
-35.3949389648
 20
34.5304609375
 10
-35.3949389648
 20
34.4590307617
 10
-35.5377966309
 20
34.3161757813
 10
-35.6092241211
 20
34.3161757813
 10
-35.6806542969
 20
34.3876032715
 10
-35.6806542969
 20
34.4590307617
 10
-35.6092241211
 20
34.6018884277
 10
-35.5377966309
 20
34.6733186035
 10
-35.4663664551
 20
34.6733186035
  0
LINE
  5
35D
100
AcDbEntity
  8
DRAFT
100
AcDbLine
 62
7
  6
CONTINUOUS
 10
-28.2931201172
 20
10.75
 11
-27.5931201172
 21
10.75
  0
LINE
  5
35E
100
AcDbEntity
  8
ASSI
100
AcDbLine
 62
7
  6
CONTINUOUS
 10
-28.2931201172
 20
10.75
 11
-27.5931201172
 21
10.75
  0
LINE
  5
35F
100
AcDbEntity
  8
DRAFT
100
AcDbLine
 62
7
  6
CONTINUOUS
 10
-26.4931201172
 20
11.6045949182
 11
-27.5931201172
 21
11.45
  0
LINE
  5
360
100
AcDbEntity
  8
RACCORDO
100
AcDbLine
 62
7
  6
CONTINUOUS
 10
-24.6721857347
 20
11.8030796844
 11
-24.7044449826
 21
11.8013890489
  0
LINE
  5
361
100
AcDbEntity
  8
DRAFT
100
AcDbLine
 62
7
  6
CONTINUOUS
 10
-24.7044449826
 20
11.8013890489
 11
-27.5931201172
 21
11.65
  0
LINE
  5
362
100
AcDbEntity
  8
RACCORDO
100
AcDbLine
 62
250
  6
CONTINUOUS
 10
-27.5931201172
 20
10.95
 11
-28.2931201172
 21
10.95
  0
LINE
  5
363
100
AcDbEntity
  8
ASSI
100
AcDbLine
 62
250
  6
CONTINUOUS
 10
-27.5931201172
 20
10.95
 11
-28.2931201172
 21
10.95
  0
LINE
  5
364
100
AcDbEntity
  8
RACCORDO
100
AcDbLine
 62
250
  6
CONTINUOUS
 10
-27.5931201172
 20
15.55
 11
-28.2931201172
 21
15.55
  0
LINE
  5
365
100
AcDbEntity
  8
ASSI
100
AcDbLine
 62
250
  6
CONTINUOUS
 10
-27.5931201172
 20
15.55
 11
-28.2931201172
 21
15.55
  0
LINE
  5
366
100
AcDbEntity
  8
DRAFT
100
AcDbLine
 62
7
  6
CONTINUOUS
 10
-28.2931201172
 20
15.75
 11
-27.5931201172
 21
15.75
  0
LINE
  5
367
100
AcDbEntity
  8
ASSI
100
AcDbLine
 62
7
  6
CONTINUOUS
 10
-28.2931201172
 20
15.75
 11
-27.5931201172
 21
15.75
  0
LINE
  5
368
100
AcDbEntity
  8
RACCORDO
100
AcDbLine
 62
7
  6
CONTINUOUS
 10
-24.6721857347
 20
14.6969203156
 11
-24.7044449826
 21
14.6986109511
  0
LINE
  5
369
100
AcDbEntity
  8
DRAFT
100
AcDbLine
 62
7
  6
CONTINUOUS
 10
-24.7044449826
 20
14.6986109511
 11
-27.5931201172
 21
14.85
  0
LINE
  5
36A
100
AcDbEntity
  8
DRAFT
100
AcDbLine
 62
7
  6
CONTINUOUS
 10
-26.4931201172
 20
14.8954050818
 11
-27.5931201172
 21
15.05
  0
LINE
  5
36B
100
AcDbEntity
  8
0
100
AcDbLine
 62
250
  6
CONTINUOUS
 10
-28.2931201172
 20
25.8347065336
 11
-29.1062085913
 21
25.8134150626
  0
LINE
  5
36C
100
AcDbEntity
  8
ASSI
100
AcDbLine
 62
250
  6
CONTINUOUS
 10
-28.2931201172
 20
25.8347065336
 11
-29.1062085913
 21
25.8134150626
  0
LINE
  5
36D
100
AcDbEntity
  8
0
100
AcDbLine
 62
7
  6
CONTINUOUS
 10
-28.2931201172
 20
26.3345351961
 11
-29.1062085913
 21
26.3132437251
  0
LINE
  5
36E
100
AcDbEntity
  8
ASSI
100
AcDbLine
 62
7
  6
CONTINUOUS
 10
-28.2931201172
 20
26.3345351961
 11
-29.1062085913
 21
26.3132437251
  0
LINE
  5
36F
100
AcDbEntity
  8
COPY_PUBLISH
100
AcDbLine
 62
250
  6
CONTINUOUS
 10
-29.1062085913
 20
25.8134150626
 11
-29.5931201172
 21
25.8134150626
  0
LINE
  5
370
100
AcDbEntity
  8
ASSI
100
AcDbLine
 62
250
  6
CONTINUOUS
 10
-29.1062085913
 20
25.8134150626
 11
-29.5931201172
 21
25.8134150626
  0
LWPOLYLINE
  5
371
100
AcDbEntity
  8
0
100
AcDbPolyline
 62
7
  6
CONTINUOUS
 90
8
 70
0
 43
0.3500000019
 10
-38.252081543
 20
34.1733181152
 10
-37.3949382324
 20
34.1733181152
 10
-36.9663679199
 20
34.6018884277
 10
-36.9663679199
 20
35.4590317383
 10
-37.3949382324
 20
35.8876020508
 10
-38.252081543
 20
35.8876020508
 10
-38.252081543
 20
37.1733183594
 10
-36.9663679199
 20
37.1733183594
  0
LWPOLYLINE
  5
372
100
AcDbEntity
  8
0
100
AcDbPolyline
 62
7
  6
CONTINUOUS
 90
6
 70
0
 43
0.3500000019
 10
-34.3949379883
 20
34.1733181152
 10
-33.3235095215
 20
34.1733181152
 10
-33.1092243652
 20
34.3876032715
 10
-33.1092243652
 20
35.4590317383
 10
-33.5377973633
 20
35.8876020508
 10
-33.9663676758
 20
35.8876020508
  0
LINE
  5
373
100
AcDbEntity
  8
RACCORDO
100
AcDbLine
 62
250
  6
CONTINUOUS
 10
-27.5931201172
 20
25.7709349336
 11
-28.2931201172
 21
25.8321769981
  0
LINE
  5
374
100
AcDbEntity
  8
ASSI
100
AcDbLine
 62
250
  6
CONTINUOUS
 10
-27.5931201172
 20
25.7709349336
 11
-28.2931201172
 21
25.8321769981
  0
LINE
  5
375
100
AcDbEntity
  8
RACCORDO
100
AcDbLine
 62
7
  6
CONTINUOUS
 10
-27.5931201172
 20
26.2216232767
 11
-28.2931201172
 21
26.2828653412
  0
LINE
  5
376
100
AcDbEntity
  8
ASSI
100
AcDbLine
 62
7
  6
CONTINUOUS
 10
-27.5931201172
 20
26.2216232767
 11
-28.2931201172
 21
26.2828653412
  0
ARC
  5
377
100
AcDbEntity
  8
CURVE
100
AcDbCircle
 62
250
  6
CONTINUOUS
 10
-3.900303
 20
-14.288268
 40
0.100225461
100
AcDbArc
 50
54.9483146232
 51
179.9685580688
  0
ARC
  5
378
100
AcDbEntity
  8
CURVE
100
AcDbCircle
 62
250
  6
CONTINUOUS
 10
3.900303
 20
14.288268
 40
0.100225461
100
AcDbArc
 50
234.9483146232
 51
359.9685580688
  0
ARC
  5
379
100
AcDbEntity
  8
0
100
AcDbCircle
 62
7
  6
CONTINUOUS
 10
-0.9
 20
0.9
 40
0.1
100
AcDbArc
 50
90.0
 51
180.0
  0
ARC
  5
37A
100
AcDbEntity
  8
0
100
AcDbCircle
 62
7
  6
CONTINUOUS
 10
0.9
 20
0.9
 40
0.1
100
AcDbArc
 50
0.0
 51
90.0
  0
ARC
  5
37B
100
AcDbEntity
  8
0
100
AcDbCircle
 62
7
  6
CONTINUOUS
 10
0.9
 20
-0.9
 40
0.1
100
AcDbArc
 50
270.0
 51
360.0
  0
ARC
  5
37C
100
AcDbEntity
  8
0
100
AcDbCircle
 62
7
  6
CONTINUOUS
 10
-0.9
 20
-0.9
 40
0.1
100
AcDbArc
 50
180.0
 51
269.9999999999
  0
ARC
  5
37D
100
AcDbEntity
  8
DRAFT
100
AcDbCircle
 62
7
  6
CONTINUOUS
 10
0.9
 20
0.9
 40
0.1
100
AcDbArc
 50
0.0
 51
90.0
  0
ARC
  5
37E
100
AcDbEntity
  8
DRAFT
100
AcDbCircle
 62
7
  6
CONTINUOUS
 10
-0.9
 20
0.9
 40
0.1
100
AcDbArc
 50
90.0
 51
180.0
  0
ARC
  5
37F
100
AcDbEntity
  8
DRAFT
100
AcDbCircle
 62
7
  6
CONTINUOUS
 10
-0.9
 20
-0.9
 40
0.1
100
AcDbArc
 50
180.0
 51
270.0
  0
ARC
  5
380
100
AcDbEntity
  8
DRAFT
100
AcDbCircle
 62
7
  6
CONTINUOUS
 10
0.9
 20
-0.9
 40
0.1
100
AcDbArc
 50
270.0
 51
360.0
  0
ARC
  5
381
100
AcDbEntity
  8
ASSI
100
AcDbCircle
 62
7
  6
CONTINUOUS
 10
0.9
 20
0.9
 40
0.1
100
AcDbArc
 50
0.0
 51
90.0
  0
ARC
  5
382
100
AcDbEntity
  8
ASSI
100
AcDbCircle
 62
7
  6
CONTINUOUS
 10
-0.9
 20
0.9
 40
0.1
100
AcDbArc
 50
90.0
 51
180.0
  0
ARC
  5
383
100
AcDbEntity
  8
ASSI
100
AcDbCircle
 62
7
  6
CONTINUOUS
 10
-0.9
 20
-0.9
 40
0.1
100
AcDbArc
 50
180.0
 51
270.0
  0
ARC
  5
384
100
AcDbEntity
  8
ASSI
100
AcDbCircle
 62
7
  6
CONTINUOUS
 10
0.9
 20
-0.9
 40
0.1
100
AcDbArc
 50
270.0
 51
360.0
  0
ARC
  5
385
100
AcDbEntity
  8
CURVE
100
AcDbCircle
 62
250
  6
CONTINUOUS
 10
3.899686
 20
-14.288292
 40
0.0999870312
100
AcDbArc
 50
0.0452695414
 51
124.8314225152
  0
ARC
  5
386
100
AcDbEntity
  8
CURVE
100
AcDbCircle
 62
250
  6
CONTINUOUS
 10
-3.899686
 20
14.288292
 40
0.0999870312
100
AcDbArc
 50
180.0452695414
 51
304.8314225152
  0
ARC
  5
387
100
AcDbEntity
  8
COPY_PUBLISH
100
AcDbCircle
 62
7
  6
CONTINUOUS
 10
-29.0931201172
 20
25.8134150626
 40
0.5
100
AcDbArc
 50
91.5
 51
180.0
  0
ARC
  5
388
100
AcDbEntity
  8
COPY_PUBLISH
100
AcDbCircle
 62
7
  6
CONTINUOUS
 10
-29.0931201172
 20
-25.8134150626
 40
0.5
100
AcDbArc
 50
180.0
 51
268.5
  0
ARC
  5
389
100
AcDbEntity
  8
RACCORDO
100
AcDbCircle
 62
7
  6
CONTINUOUS
 10
-26.0931201172
 20
-1.227796223
 40
0.5
100
AcDbArc
 50
280.0
 51
360.0
  0
ARC
  5
38A
100
AcDbEntity
  8
RACCORDO
100
AcDbCircle
 62
7
  6
CONTINUOUS
 10
-26.0931201172
 20
1.227796223
 40
0.5
100
AcDbArc
 50
0.0
 51
80.0
  0
ARC
  5
38B
100
AcDbEntity
  8
ASSI
100
AcDbCircle
 62
7
  6
CONTINUOUS
 10
-29.0931201172
 20
25.8134150626
 40
0.5
100
AcDbArc
 50
91.5
 51
180.0
  0
ARC
  5
38C
100
AcDbEntity
  8
ASSI
100
AcDbCircle
 62
7
  6
CONTINUOUS
 10
-29.0931201172
 20
-25.8134150626
 40
0.5
100
AcDbArc
 50
180.0
 51
268.5
  0
ARC
  5
38D
100
AcDbEntity
  8
ASSI
100
AcDbCircle
 62
7
  6
CONTINUOUS
 10
-26.0931201172
 20
-1.227796223
 40
0.5
100
AcDbArc
 50
280.0
 51
360.0
  0
ARC
  5
38E
100
AcDbEntity
  8
ASSI
100
AcDbCircle
 62
7
  6
CONTINUOUS
 10
-26.0931201172
 20
1.227796223
 40
0.5
100
AcDbArc
 50
0.0
 51
80.0
  0
ARC
  5
38F
100
AcDbEntity
  8
RACCORDO
100
AcDbCircle
 62
7
  6
CONTINUOUS
 10
-24.6931201172
 20
14.2974685017
 40
0.4
100
AcDbArc
 50
0.0
 51
87.0
  0
ARC
  5
390
100
AcDbEntity
  8
RACCORDO
100
AcDbCircle
 62
7
  6
CONTINUOUS
 10
-24.6931201172
 20
12.2025314983
 40
0.4
100
AcDbArc
 50
273.0
 51
360.0
  0
ARC
  5
391
100
AcDbEntity
  8
RACCORDO
100
AcDbCircle
 62
7
  6
CONTINUOUS
 10
-24.6931201172
 20
-12.2025314983
 40
0.4
100
AcDbArc
 50
0.0
 51
87.0
  0
ARC
  5
392
100
AcDbEntity
  8
RACCORDO
100
AcDbCircle
 62
7
  6
CONTINUOUS
 10
-24.6931201172
 20
-14.2974685017
 40
0.4
100
AcDbArc
 50
273.0
 51
360.0
  0
ARC
  5
393
100
AcDbEntity
  8
RACCORDO
100
AcDbCircle
 62
7
  6
CONTINUOUS
 10
-27.4431201172
 20
2.1258649447
 40
0.15
100
AcDbArc
 50
180.0
 51
260.0
  0
ARC
  5
394
100
AcDbEntity
  8
RACCORDO
100
AcDbCircle
 62
7
  6
CONTINUOUS
 10
-27.4431201172
 20
-2.1258649447
 40
0.15
100
AcDbArc
 50
100.0
 51
180.0
  0
ARC
  5
395
100
AcDbEntity
  8
ASSI
100
AcDbCircle
 62
7
  6
CONTINUOUS
 10
-27.4431201172
 20
2.1258649447
 40
0.15
100
AcDbArc
 50
180.0
 51
260.0
  0
ARC
  5
396
100
AcDbEntity
  8
ASSI
100
AcDbCircle
 62
7
  6
CONTINUOUS
 10
-27.4431201172
 20
-2.1258649447
 40
0.15
100
AcDbArc
 50
100.0
 51
180.0
  0
ELLIPSE
  5
397
100
AcDbEntity
  8
RACCORDO
100
AcDbEllipse
 62
7
  6
CONTINUOUS
 10
-10.5343637998
 20
-25.8343637998
 30
0.0
 11
-0.35379574
 21
-0.35379574
 31
0.0
 40
0.999315002
 41
-0.7850555471
 42
0.7850555471
  0
ELLIPSE
  5
398
100
AcDbEntity
  8
RACCORDO
100
AcDbEllipse
 62
7
  6
CONTINUOUS
 10
-10.5343637998
 20
25.8343637998
 30
0.0
 11
0.35379574
 21
-0.35379574
 31
0.0
 40
0.999315002
 41
2.3565371065
 42
3.9266482006
  0
ELLIPSE
  5
399
100
AcDbEntity
  8
RACCORDO
100
AcDbEllipse
 62
7
  6
CONTINUOUS
 10
10.5343637998
 20
25.8343637998
 30
0.0
 11
0.35379574
 21
0.35379574
 31
0.0
 40
0.999315002
 41
-0.7850555471
 42
0.7850555471
  0
ELLIPSE
  5
39A
100
AcDbEntity
  8
RACCORDO
100
AcDbEllipse
 62
7
  6
CONTINUOUS
 10
10.5343637998
 20
-25.8343637998
 30
0.0
 11
-0.35379574
 21
0.35379574
 31
0.0
 40
0.999315002
 41
2.3565371065
 42
3.9266482006
  0
ELLIPSE
  5
39B
100
AcDbEntity
  8
ASSI
100
AcDbEllipse
 62
7
  6
CONTINUOUS
 10
10.5343637998
 20
-25.8343637998
 30
0.0
 11
-0.35379574
 21
0.35379574
 31
0.0
 40
0.999315002
 41
2.3565371065
 42
3.9266482006
  0
ELLIPSE
  5
39C
100
AcDbEntity
  8
ASSI
100
AcDbEllipse
 62
7
  6
CONTINUOUS
 10
10.5343637998
 20
25.8343637998
 30
0.0
 11
0.35379574
 21
0.35379574
 31
0.0
 40
0.999315002
 41
-0.7850555471
 42
0.7850555471
  0
ELLIPSE
  5
39D
100
AcDbEntity
  8
ASSI
100
AcDbEllipse
 62
7
  6
CONTINUOUS
 10
-10.5343637998
 20
25.8343637998
 30
0.0
 11
0.35379574
 21
-0.35379574
 31
0.0
 40
0.999315002
 41
2.3565371065
 42
3.9266482006
  0
ELLIPSE
  5
39E
100
AcDbEntity
  8
ASSI
100
AcDbEllipse
 62
7
  6
CONTINUOUS
 10
-10.5343637998
 20
-25.8343637998
 30
0.0
 11
-0.35379574
 21
-0.35379574
 31
0.0
 40
0.999315002
 41
-0.7850555471
 42
0.7850555471
  0
ENDSEC
  0
SECTION
  2
OBJECTS
  0
DICTIONARY
  5
C
100
AcDbDictionary
280
0
281
1
  3
ACAD_GROUP
350
D
  3
ACAD_MLINESTYLE
350
17
  3
ACAD_LAYOUT
350
1A
  3
ACAD_PLOTSETTINGS
350
19
  3
ACAD_PLOTSTYLENAME
350
E
  0
DICTIONARY
  5
D
102
{ACAD_REACTORS
330
C
102
}
100
AcDbDictionary
280
0
281
1
  0
ACDBDICTIONARYWDFLT
  5
E
102
{ACAD_REACTORS
330
C
102
}
100
AcDbDictionary
281
1
  3
Normal
350
F
100
AcDbDictionaryWithDefault
340
F
  0
DICTIONARY
  5
17
102
{ACAD_REACTORS
330
C
102
}
100
AcDbDictionary
280
0
281
1
  3
Standard
350
18
  0
DICTIONARY
  5
19
102
{ACAD_REACTORS
330
C
102
}
100
AcDbDictionary
281
1
  0
DICTIONARY
  5
1A
102
{ACAD_REACTORS
330
C
102
}
100
AcDbDictionary
281
1
  3
Model
350
39F
  3
Layout1
350
3A0
  0
ACDBPLACEHOLDER
  5
F
102
{ACAD_REACTORS
330
E
102
}
  0
MLINESTYLE
  5
18
102
{ACAD_REACTORS
330
17
102
}
100
AcDbMlineStyle
  2
STANDARD
 70
0
  3

 62
256
 51
90.0
 52
90.0
 71
2
 49
0.5
 62
256
  6
BYLAYER
 49
-0.5
 62
256
  6
BYLAYER
  0
LAYOUT
  5
39F
102
{ACAD_REACTORS
330
1A
102
}
100
AcDbPlotSettings
  1

  2
none_device
  4

  6

 40
0.0
 41
0.0
 42
0.0
 43
0.0
 44
210.0
 45
297.0
 46
0.0
 47
0.0
 48
0.0
 49
0.0
140
0.0
141
0.0
142
1.0
143
1.0
 70
1024
 72
1
 73
0
 74
0
  7

 75
0
147
1.0
148
0.0
149
0.0
100
AcDbLayout
  1
Model
 70
0
 71
0
 10
0.0
 20
0.0
 11
210.0
 21
297.0
 12
0.0
 22
0.0
 32
0.0
 14
0.0
 24
0.0
 34
0.0
 15
0.0
 25
0.0
 35
0.0
146
0.0
 13
0.0
 23
0.0
 33
0.0
 16
1.0
 26
0.0
 36
0.0
 17
0.0
 27
1.0
 37
0.0
 76
0
330
219
345
0
346
0
  0
LAYOUT
  5
3A0
102
{ACAD_REACTORS
330
1A
102
}
100
AcDbPlotSettings
  1

  2
none_device
  4

  6

 40
0.0
 41
0.0
 42
0.0
 43
0.0
 44
210.0
 45
297.0
 46
0.0
 47
0.0
 48
0.0
 49
0.0
140
0.0
141
0.0
142
1.0
143
1.0
 70
0
 72
1
 73
0
 74
0
  7

 75
0
147
1.0
148
0.0
149
0.0
100
AcDbLayout
  1
Layout1
 70
0
 71
1
 10
0.0
 20
0.0
 11
210.0
 21
297.0
 12
0.0
 22
0.0
 32
0.0
 14
0.0
 24
0.0
 34
0.0
 15
0.0
 25
0.0
 35
0.0
146
0.0
 13
0.0
 23
0.0
 33
0.0
 16
1.0
 26
0.0
 36
0.0
 17
0.0
 27
1.0
 37
0.0
 76
0
330
21A
345
0
346
0
  0
ENDSEC
  0
EOF
