  0
SECTION
  2
HEADER
  9
$ACADVER
  1
AC1024
  9
$DWGCODEPAGE
  3
ANSI_1252
  9
$EXTMAX
 10
558.8
 20
431.8
 30
0.0
  9
$EXTMIN
 10
0.0
 20
0.0
 30
0.0
  9
$LIMMIN
 10
0.0
 20
0.0
  9
$LIMMAX
 10
558.8
 20
431.8
  9
$VIEWCTR
 10
279.4
 20
215.9
  9
$VIEWSIZE
 40
431.8
  9
$CLAYER
  8
0
  9
$LTSCALE
 40
30.734
  9
$CELTYPE
  6
BYLAYER
  9
$DIMSCALE
 40
1.0
  9
$DIMASZ
 40
3.0
  9
$DIMEXO
 40
0.5
  9
$DIMDLI
 40
21.2344
  9
$DIMEXE
 40
1.5
  9
$DIMCEN
 40
5.0292
  9
$DIMLFAC
 40
1.0
  9
$DIMBLK
  1
_FILLED
  9
$DIMALT
 70
0
  9
$DIMALTF
 40
0.0393700787
  9
$DIMTXT
 40
3.0
  9
$DIMTOL
 70
1
  9
$DIMLIM
 70
0
  9
$DIMTFAC
 40
1.0
  9
$DIMTP
 40
0.01
  9
$DIMTM
 40
0.01
  9
$DIMGAP
 40
0.625
  9
$DIMDSEP
 70
44
  9
$AUNITS
 70
0
  9
$PDMODE
 70
3
  9
$PDSIZE
 40
3.0
  9
$HANDSEED
  5
324
  9
$TILEMODE
 70
1
  9
$MEASUREMENT
 70
1
  9
$INSUNITS
 70
4
  0
ENDSEC
  0
SECTION
  2
CLASSES
  0
CLASS
  1
ACDBDICTIONARYWDFLT
  2
AcDbDictionaryWithDefault
  3
AutoCAD 2000
 90
0
 91
1
280
0
281
0
  0
CLASS
  1
ACDBPLACEHOLDER
  2
AcDbPlaceHolder
  3
AutoCAD 2000
 90
0
 91
1
280
0
281
0
  0
CLASS
  1
LAYOUT
  2
AcDbLayout
  3
AutoCAD 2000
 90
0
 91
0
280
0
281
0
  0
ENDSEC
  0
SECTION
  2
TABLES
  0
TABLE
  2
VPORT
  5
8
100
AcDbSymbolTable
 70
2
  0
VPORT
  5
1F4
100
AcDbSymbolTableRecord
100
AcDbViewportTableRecord
  2
*ACTIVE
 70
0
 10
0.0
 20
0.0
 11
1.0
 21
1.0
 12
279.4
 22
215.9
 13
0.0
 23
0.0
 14
1.0
 24
1.0
 15
0.0
 25
0.0
 16
0.0
 26
0.0
 36
1.0
 17
0.0
 27
0.0
 37
0.0
 40
431.8
 41
1.2941176471
 42
50.0
 43
0.0
 44
0.0
 50
0.0
 51
0.0
 71
0
 72
100
 73
1
 74
1
 75
0
 76
0
 77
0
 78
0
  0
ENDTAB
  0
TABLE
  2
LTYPE
  5
5
100
AcDbSymbolTable
 70
6
  0
LTYPE
  5
14
100
AcDbSymbolTableRecord
100
AcDbLinetypeTableRecord
  2
BYBLOCK
 70
0
  3

 72
65
 73
0
 40
0.0
  0
LTYPE
  5
15
100
AcDbSymbolTableRecord
100
AcDbLinetypeTableRecord
  2
BYLAYER
 70
0
  3

 72
65
 73
0
 40
0.0
  0
LTYPE
  5
16
100
AcDbSymbolTableRecord
100
AcDbLinetypeTableRecord
  2
CONTINUOUS
 70
64
  3
Solid line
 72
65
 73
0
 40
0.0
  0
LTYPE
  5
1F5
100
AcDbSymbolTableRecord
100
AcDbLinetypeTableRecord
  2
CENTER
 70
64
  3
____ _ ____ _ ____ _ ____ _ ____ _ ____ _ ____
 72
65
 73
4
 40
0.6
 49
0.375
 74
0
 49
-0.075
 74
0
 49
0.075
 74
0
 49
-0.075
 74
0
  0
LTYPE
  5
1F6
100
AcDbSymbolTableRecord
100
AcDbLinetypeTableRecord
  2
HIDDEN
 70
64
  3
- - - - - - - - - - - - - - - - - - - -
 72
65
 73
2
 40
0.2
 49
0.1
 74
0
 49
-0.1
 74
0
  0
LTYPE
  5
1F7
100
AcDbSymbolTableRecord
100
AcDbLinetypeTableRecord
  2
PHANTOM
 70
64
  3
_____ _ _ _____ _ _ _____ _ _ _____
 72
65
 73
6
 40
0.8
 49
0.45
 74
0
 49
-0.05
 74
0
 49
0.1
 74
0
 49
-0.05
 74
0
 49
0.1
 74
0
 49
-0.05
 74
0
  0
LTYPE
  5
1F8
100
AcDbSymbolTableRecord
100
AcDbLinetypeTableRecord
  2
DOT
 70
64
  3
. . . . . . . . . . . . . . . . . . . .
 72
65
 73
2
 40
0.2
 49
0.1
 74
0
 49
-0.1
 74
0
  0
LTYPE
  5
1F9
100
AcDbSymbolTableRecord
100
AcDbLinetypeTableRecord
  2
DASHED
 70
64
  3
- - - - - - - - - - - - - - - - - - - -
 72
65
 73
2
 40
0.2
 49
0.1
 74
0
 49
-0.1
 74
0
  0
ENDTAB
  0
TABLE
  2
LAYER
  5
2
100
AcDbSymbolTable
 70
36
  0
LAYER
  5
10
100
AcDbSymbolTableRecord
100
AcDbLayerTableRecord
  2
0
 70
0
 62
7
  6
CONTINUOUS
370
-3
390
F
  0
LAYER
  5
1FA
100
AcDbSymbolTableRecord
100
AcDbLayerTableRecord
  2
DEFAULT_1
 70
0
 62
7
  6
CENTER
370
-3
390
F
  0
LAYER
  5
1FB
100
AcDbSymbolTableRecord
100
AcDbLayerTableRecord
  2
DEFAULT_2
 70
0
 62
7
  6
HIDDEN
370
-3
390
F
  0
LAYER
  5
1FC
100
AcDbSymbolTableRecord
100
AcDbLayerTableRecord
  2
DEFAULT_3
 70
0
 62
7
  6
PHANTOM
370
-3
390
F
  0
LAYER
  5
1FD
100
AcDbSymbolTableRecord
100
AcDbLayerTableRecord
  2
ASSI
 70
0
 62
7
  6
CONTINUOUS
370
-3
390
F
  0
LAYER
  5
1FE
100
AcDbSymbolTableRecord
100
AcDbLayerTableRecord
  2
COORDINATE
 70
0
 62
7
  6
CONTINUOUS
370
-3
390
F
  0
LAYER
  5
1FF
100
AcDbSymbolTableRecord
100
AcDbLayerTableRecord
  2
COPY_PUBLISH
 70
0
 62
7
  6
CONTINUOUS
370
-3
390
F
  0
LAYER
  5
200
100
AcDbSymbolTableRecord
100
AcDbLayerTableRecord
  2
COSMETICI
 70
0
 62
7
  6
CONTINUOUS
370
-3
390
F
  0
LAYER
  5
201
100
AcDbSymbolTableRecord
100
AcDbLayerTableRecord
  2
CURVE
 70
0
 62
7
  6
CONTINUOUS
370
-3
390
F
  0
LAYER
  5
202
100
AcDbSymbolTableRecord
100
AcDbLayerTableRecord
  2
DRAFT
 70
0
 62
7
  6
CONTINUOUS
370
-3
390
F
  0
LAYER
  5
203
100
AcDbSymbolTableRecord
100
AcDbLayerTableRecord
  2
IMPORT_IGES
 70
0
 62
7
  6
CONTINUOUS
370
-3
390
F
  0
LAYER
  5
204
100
AcDbSymbolTableRecord
100
AcDbLayerTableRecord
  2
INTF_1
 70
0
 62
7
  6
CONTINUOUS
370
-3
390
F
  0
LAYER
  5
205
100
AcDbSymbolTableRecord
100
AcDbLayerTableRecord
  2
INTF_11
 70
0
 62
7
  6
CONTINUOUS
370
-3
390
F
  0
LAYER
  5
206
100
AcDbSymbolTableRecord
100
AcDbLayerTableRecord
  2
INTF_2
 70
0
 62
7
  6
CONTINUOUS
370
-3
390
F
  0
LAYER
  5
207
100
AcDbSymbolTableRecord
100
AcDbLayerTableRecord
  2
NOTE
 70
0
 62
7
  6
CONTINUOUS
370
-3
390
F
  0
LAYER
  5
208
100
AcDbSymbolTableRecord
100
AcDbLayerTableRecord
  2
PIANI
 70
0
 62
7
  6
CONTINUOUS
370
-3
390
F
  0
LAYER
  5
209
100
AcDbSymbolTableRecord
100
AcDbLayerTableRecord
  2
PUNTI
 70
0
 62
7
  6
CONTINUOUS
370
-3
390
F
  0
LAYER
  5
20A
100
AcDbSymbolTableRecord
100
AcDbLayerTableRecord
  2
RACCORDO
 70
0
 62
7
  6
CONTINUOUS
370
-3
390
F
  0
LAYER
  5
20B
100
AcDbSymbolTableRecord
100
AcDbLayerTableRecord
  2
RGB__255__255__255__
 70
0
 62
7
  6
CONTINUOUS
370
-3
390
F
  0
LAYER
  5
20C
100
AcDbSymbolTableRecord
100
AcDbLayerTableRecord
  2
SIMBOLI
 70
0
 62
7
  6
CONTINUOUS
370
-3
390
F
  0
LAYER
  5
20D
100
AcDbSymbolTableRecord
100
AcDbLayerTableRecord
  2
SMUSSO
 70
0
 62
7
  6
CONTINUOUS
370
-3
390
F
  0
LAYER
  5
20E
100
AcDbSymbolTableRecord
100
AcDbLayerTableRecord
  2
SNAPLINE
 70
0
 62
7
  6
CONTINUOUS
370
-3
390
F
  0
LAYER
  5
20F
100
AcDbSymbolTableRecord
100
AcDbLayerTableRecord
  2
SUPERFICI
 70
0
 62
7
  6
CONTINUOUS
370
-3
390
F
  0
LAYER
  5
210
100
AcDbSymbolTableRecord
100
AcDbLayerTableRecord
  2
TRASH
 70
0
 62
7
  6
CONTINUOUS
370
-3
390
F
  0
ENDTAB
  0
TABLE
  2
STYLE
  5
3
100
AcDbSymbolTable
 70
1
  0
STYLE
  5
11
100
AcDbSymbolTableRecord
100
AcDbTextStyleTableRecord
  2
STANDARD
 70
0
 40
0.0
 41
0.8
 50
0.0
 71
0
 42
0.2
  3
txt
  4

  0
STYLE
  5
211
100
AcDbSymbolTableRecord
100
AcDbTextStyleTableRecord
  2
TEXTSTYLE_1
 70
0
 40
0.0
 41
0.8
 50
0.0
 71
0
 42
0.2
  3
gdt
  4

  0
STYLE
  5
212
100
AcDbSymbolTableRecord
100
AcDbTextStyleTableRecord
  2
TEXTSTYLE_2
 70
0
 40
0.0
 41
1.0
 50
0.0
 71
0
 42
0.2
  3
symbol_asme.ttf
  4

  0
ENDTAB
  0
TABLE
  2
VIEW
  5
6
100
AcDbSymbolTable
 70
0
  0
ENDTAB
  0
TABLE
  2
UCS
  5
7
100
AcDbSymbolTable
 70
0
  0
ENDTAB
  0
TABLE
  2
APPID
  5
9
100
AcDbSymbolTable
 70
1
  0
APPID
  5
213
100
AcDbSymbolTableRecord
100
AcDbRegAppTableRecord
  2
ACAD
 70
0
  0
ENDTAB
  0
TABLE
  2
BLOCK_RECORD
  5
1
100
AcDbSymbolTable
 70
0
  0
BLOCK_RECORD
  5
214
100
AcDbSymbolTableRecord
100
AcDbBlockTableRecord
  2
*Model_Space
  0
BLOCK_RECORD
  5
215
100
AcDbSymbolTableRecord
100
AcDbBlockTableRecord
  2
*Paper_Space
  0
BLOCK_RECORD
  5
216
100
AcDbSymbolTableRecord
100
AcDbBlockTableRecord
  2
_FILLED
  0
BLOCK_RECORD
  5
217
100
AcDbSymbolTableRecord
100
AcDbBlockTableRecord
  2
*D0
  0
BLOCK_RECORD
  5
218
100
AcDbSymbolTableRecord
100
AcDbBlockTableRecord
  2
*D1
  0
BLOCK_RECORD
  5
219
100
AcDbSymbolTableRecord
100
AcDbBlockTableRecord
  2
*D2
  0
BLOCK_RECORD
  5
21A
100
AcDbSymbolTableRecord
100
AcDbBlockTableRecord
  2
*D3
  0
ENDTAB
  0
TABLE
  2
DIMSTYLE
  5
A
100
AcDbSymbolTable
 70
1
100
AcDbDimStyleTable
 71
0
  0
DIMSTYLE
105
21B
100
AcDbSymbolTableRecord
100
AcDbDimStyleTableRecord
  2
STANDARD
 70
0
  3

  4

 40
1.0
 41
3.0
 42
0.5
 43
0.38
 44
1.5
 45
0.0
 46
0.0
 47
0.01
 48
0.01
140
3.0
141
0.09
142
0.0
143
25.4
144
1.0
145
0.0
146
1.0
147
0.625
 71
1
 72
0
 73
0
 74
0
 75
0
 76
0
 77
1
 78
8
 79
2
170
0
171
1
172
0
173
0
174
0
175
0
176
0
177
0
178
0
270
2
179
2
271
2
272
2
273
2
274
2
275
0
280
0
281
0
282
0
283
1
284
8
285
0
286
0
287
3
288
0
340
11
278
44
341
216
342
216
343
216
344
216
  0
DIMSTYLE
105
21C
100
AcDbSymbolTableRecord
100
AcDbDimStyleTableRecord
  2
DIMSTYLE_1
 70
0
  3

  4

 40
1.0
 41
3.0
 42
0.5
 43
0.38
 44
1.5
 45
0.0
 46
0.0
 47
0.0
 48
0.0
140
3.0
141
0.09
142
0.0
143
25.4
144
1.0
145
0.0
146
1.0
147
0.75
 71
0
 72
0
 73
0
 74
0
 75
0
 76
0
 77
1
 78
8
 79
2
170
0
171
1
172
0
173
0
174
0
175
0
176
0
177
0
178
0
270
2
179
2
271
2
272
2
273
2
274
2
275
0
280
0
281
0
282
0
283
1
284
8
285
0
286
0
287
3
288
0
340
11
278
44
341
216
342
216
343
216
344
216
  0
DIMSTYLE
105
21D
100
AcDbSymbolTableRecord
100
AcDbDimStyleTableRecord
  2
DIMSTYLE_2
 70
0
  3

  4

 40
1.0
 41
3.0
 42
0.5
 43
0.38
 44
1.5
 45
0.0
 46
0.0
 47
0.0
 48
0.0
140
3.0
141
0.09
142
0.0
143
25.4
144
1.0
145
0.0
146
1.0
147
0.75
 71
0
 72
0
 73
0
 74
0
 75
0
 76
0
 77
1
 78
8
 79
2
170
0
171
1
172
0
173
0
174
0
175
0
176
0
177
0
178
0
270
2
179
2
271
0
272
0
273
2
274
2
275
0
280
0
281
0
282
0
283
1
284
8
285
0
286
0
287
3
288
0
340
11
278
44
341
216
342
216
343
216
344
216
  0
DIMSTYLE
105
21E
100
AcDbSymbolTableRecord
100
AcDbDimStyleTableRecord
  2
DIMSTYLE_3
 70
0
  3
<>
  4

 40
1.0
 41
3.0
 42
0.5
 43
0.38
 44
1.5
 45
0.0
 46
0.0
 47
0.0
 48
0.0
140
3.0
141
0.09
142
0.0
143
25.4
144
1.0
145
0.0
146
1.0
147
0.625
 71
0
 72
0
 73
0
 74
0
 75
0
 76
0
 77
1
 78
8
 79
2
170
0
171
1
172
1
173
0
174
0
175
0
176
0
177
0
178
0
270
2
179
2
271
0
272
0
273
2
274
2
275
0
280
0
281
0
282
0
283
1
284
8
285
0
286
0
287
3
288
1
340
11
278
44
289
2
341
216
342
216
343
216
344
216
  0
ENDTAB
  0
ENDSEC
  0
SECTION
  2
BLOCKS
  0
BLOCK
  5
20
100
AcDbEntity
  8
0
100
AcDbBlockBegin
  2
*Model_Space
 70
0
 10
0.0
 20
0.0
 30
0.0
  3
*Model_Space
  1

  0
ENDBLK
  5
21
100
AcDbEntity
  8
0
100
AcDbBlockEnd
  0
BLOCK
  5
1C
100
AcDbEntity
  8
0
100
AcDbBlockBegin
  2
*Paper_Space
 70
0
 10
0.0
 20
0.0
 30
0.0
  3
*Paper_Space
  1

  0
ENDBLK
  5
1D
100
AcDbEntity
  8
0
100
AcDbBlockEnd
  0
BLOCK
  5
21F
100
AcDbEntity
  8
0
100
AcDbBlockBegin
  2
_FILLED
 70
64
 10
0.0
 20
0.0
  3
_FILLED
  1

  0
SOLID
  5
220
100
AcDbEntity
  8
0
  6
BYBLOCK
 62
0
100
AcDbTrace
 10
0.0
 20
0.0
 11
-1.0
 21
0.3166666667
 12
-1.0
 22
-0.3166666667
 13
-1.0
 23
-0.3166666667
  0
ENDBLK
  5
221
100
AcDbEntity
  8
0
  6
BYBLOCK
 62
0
100
AcDbBlockEnd
  0
BLOCK
  5
222
100
AcDbEntity
  8
0
100
AcDbBlockBegin
 62
7
  6
CONTINUOUS
  2
*D0
 70
65
 10
0.0
 20
0.0
  3
*D0
  1

  0
LINE
  5
223
100
AcDbEntity
  8
0
100
AcDbLine
 62
7
  6
CONTINUOUS
 10
-46.6320842105
 20
6.6871843354
 11
-46.6320842105
 21
36.3647333774
  0
LINE
  5
224
100
AcDbEntity
  8
0
100
AcDbLine
 62
7
  6
CONTINUOUS
 10
-83.9320842105
 20
20.0950978521
 11
-83.9320842105
 21
36.3647333774
  0
LINE
  5
225
100
AcDbEntity
  8
0
100
AcDbLine
 62
7
  6
CONTINUOUS
 10
-46.6320842105
 20
34.8647333774
 11
-65.2820842105
 21
34.8647333774
  0
LINE
  5
226
100
AcDbEntity
  8
0
100
AcDbLine
 62
7
  6
CONTINUOUS
 10
-83.9320842105
 20
34.8647333774
 11
-65.2820842105
 21
34.8647333774
  0
INSERT
  5
227
100
AcDbEntity
  8
0
100
AcDbBlockReference
 62
7
  6
CONTINUOUS
  2
_FILLED
 10
-46.6320842105
 20
34.8647333774
 41
3.0
 42
3.0
 43
3.0
  0
INSERT
  5
228
100
AcDbEntity
  8
0
100
AcDbBlockReference
 62
7
  6
CONTINUOUS
  2
_FILLED
 10
-83.9320842105
 20
34.8647333774
 41
3.0
 42
3.0
 43
3.0
 50
180.0
  0
ENDBLK
  5
229
100
AcDbEntity
  8
0
  6
BYBLOCK
 62
0
100
AcDbBlockEnd
  0
BLOCK
  5
22A
100
AcDbEntity
  8
0
100
AcDbBlockBegin
 62
7
  6
CONTINUOUS
  2
*D1
 70
65
 10
0.0
 20
0.0
  3
*D1
  1

  0
LINE
  5
22B
100
AcDbEntity
  8
0
100
AcDbLine
 62
7
  6
CONTINUOUS
 10
-105.6320842105
 20
26.8895643554
 11
-105.6320842105
 21
46.2197381131
  0
LINE
  5
22C
100
AcDbEntity
  8
0
100
AcDbLine
 62
7
  6
CONTINUOUS
 10
-46.6320842105
 20
6.6871843354
 11
-46.6320842105
 21
46.2197381131
  0
LINE
  5
22D
100
AcDbEntity
  8
0
100
AcDbLine
 62
7
  6
CONTINUOUS
 10
-105.6320842105
 20
44.7197381131
 11
-76.1320842105
 21
44.7197381131
  0
LINE
  5
22E
100
AcDbEntity
  8
0
100
AcDbLine
 62
7
  6
CONTINUOUS
 10
-46.6320842105
 20
44.7197381131
 11
-76.1320842105
 21
44.7197381131
  0
INSERT
  5
22F
100
AcDbEntity
  8
0
100
AcDbBlockReference
 62
7
  6
CONTINUOUS
  2
_FILLED
 10
-105.6320842105
 20
44.7197381131
 41
3.0
 42
3.0
 43
3.0
 50
180.0
  0
INSERT
  5
230
100
AcDbEntity
  8
0
100
AcDbBlockReference
 62
7
  6
CONTINUOUS
  2
_FILLED
 10
-46.6320842105
 20
44.7197381131
 41
3.0
 42
3.0
 43
3.0
  0
ENDBLK
  5
231
100
AcDbEntity
  8
0
  6
BYBLOCK
 62
0
100
AcDbBlockEnd
  0
BLOCK
  5
232
100
AcDbEntity
  8
0
100
AcDbBlockBegin
 62
7
  6
CONTINUOUS
  2
*D2
 70
65
 10
0.0
 20
0.0
  3
*D2
  1

  0
LINE
  5
233
100
AcDbEntity
  8
0
100
AcDbLine
 62
7
  6
CONTINUOUS
 10
-31.389488203
 20
0.5
 11
-31.389488203
 21
36.3065074134
  0
LINE
  5
234
100
AcDbEntity
  8
0
100
AcDbLine
 62
7
  6
CONTINUOUS
 10
31.389488203
 20
0.5
 11
31.389488203
 21
36.3065074134
  0
LINE
  5
235
100
AcDbEntity
  8
0
100
AcDbLine
 62
7
  6
CONTINUOUS
 10
-31.389488203
 20
34.8065074134
 11
-0.0
 21
34.8065074134
  0
LINE
  5
236
100
AcDbEntity
  8
0
100
AcDbLine
 62
7
  6
CONTINUOUS
 10
31.389488203
 20
34.8065074134
 11
-0.0
 21
34.8065074134
  0
INSERT
  5
237
100
AcDbEntity
  8
0
100
AcDbBlockReference
 62
7
  6
CONTINUOUS
  2
_FILLED
 10
-31.389488203
 20
34.8065074134
 41
3.0
 42
3.0
 43
3.0
 50
180.0
  0
INSERT
  5
238
100
AcDbEntity
  8
0
100
AcDbBlockReference
 62
7
  6
CONTINUOUS
  2
_FILLED
 10
31.389488203
 20
34.8065074134
 41
3.0
 42
3.0
 43
3.0
  0
ENDBLK
  5
239
100
AcDbEntity
  8
0
  6
BYBLOCK
 62
0
100
AcDbBlockEnd
  0
BLOCK
  5
23A
100
AcDbEntity
  8
0
100
AcDbBlockBegin
 62
7
  6
CONTINUOUS
  2
*D3
 70
65
 10
0.0
 20
0.0
  3
*D3
  1

  0
LINE
  5
23B
100
AcDbEntity
  8
0
100
AcDbLine
 62
7
  6
CONTINUOUS
 10
15.3868255763
 20
-18.0985840418
 11
-4.5
 21
0.0
  0
LINE
  5
23C
100
AcDbEntity
  8
0
100
AcDbLine
 62
7
  6
CONTINUOUS
 10
-4.5
 20
0.0
 11
26.297246463
 21
-28.0279299091
  0
LINE
  5
23D
100
AcDbEntity
  8
0
100
AcDbLine
 62
7
  6
CONTINUOUS
 10
26.297246463
 20
-28.0279299091
 11
36.8357080014
 21
-28.0279299091
  0
LINE
  5
23E
100
AcDbEntity
  8
0
100
AcDbLine
 62
7
  6
CONTINUOUS
 10
36.8357080014
 20
-28.0279299091
 11
26.297246463
 21
-28.0279299091
  0
LINE
  5
23F
100
AcDbEntity
  8
0
100
AcDbLine
 62
7
  6
CONTINUOUS
 10
-24.3868255763
 20
18.0985840418
 11
-4.5
 21
0.0
  0
INSERT
  5
240
100
AcDbEntity
  8
0
100
AcDbBlockReference
 62
7
  6
CONTINUOUS
  2
_FILLED
 10
15.3868255763
 20
-18.0985840418
 41
3.0
 42
3.0
 43
3.0
 50
317.6953270438
  0
INSERT
  5
241
100
AcDbEntity
  8
0
100
AcDbBlockReference
 62
7
  6
CONTINUOUS
  2
_FILLED
 10
-24.3868255763
 20
18.0985840418
 41
3.0
 42
3.0
 43
3.0
 50
137.6953270438
  0
ENDBLK
  5
242
100
AcDbEntity
  8
0
  6
BYBLOCK
 62
0
100
AcDbBlockEnd
  0
ENDSEC
  0
SECTION
  2
ENTITIES
  0
DIMENSION
  5
243
100
AcDbEntity
  8
0
100
AcDbDimension
 62
7
  6
CONTINUOUS
  2
*D0
 10
-83.9320842105
 20
34.8647333774
 11
-69.4606556391
 21
34.8647333774
 70
160
 71
2
 72
2
 41
0.9
 42
37.3
  3
DIMSTYLE_1
100
AcDbAlignedDimension
 13
-46.6320842105
 23
6.1871843354
 14
-83.9320842105
 24
19.5950978521
 50
180.0
100
AcDbRotatedDimension
  0
DIMENSION
  5
244
100
AcDbEntity
  8
0
100
AcDbDimension
 62
7
  6
CONTINUOUS
  2
*D1
 10
-46.6320842105
 20
44.7197381131
 11
-78.3820842105
 21
44.7197381131
 70
160
 71
2
 72
2
 41
0.9
 42
59.0
  3
DIMSTYLE_1
100
AcDbAlignedDimension
 13
-105.6320842105
 23
26.3895643554
 14
-46.6320842105
 24
6.1871843354
100
AcDbRotatedDimension
  0
DIMENSION
  5
245
100
AcDbEntity
  8
0
100
AcDbDimension
 62
7
  6
CONTINUOUS
  2
*D2
 10
31.389488203
 20
34.8065074134
 11
-2.25
 21
34.8065074134
 70
160
 71
2
 72
2
 41
0.9
 42
62.778976406
  3
DIMSTYLE_2
100
AcDbAlignedDimension
 13
-31.389488203
 23
0.0
 14
31.389488203
 24
0.0
100
AcDbRotatedDimension
  0
SOLID
  5
246
100
AcDbEntity
  8
0
100
AcDbTrace
 62
7
  6
CONTINUOUS
 10
28.8519909885
 20
-24.3436213349
 11
29.0490712805
 21
-24.3217255295
 12
29.202355952
 22
-24.3436213349
 13
29.202355952
 23
-24.3436213349
  0
SOLID
  5
247
100
AcDbEntity
  8
0
100
AcDbTrace
 62
7
  6
CONTINUOUS
 10
29.202355952
 20
-24.3436213349
 11
29.3556406236
 21
-24.3655211499
 12
28.6768085068
 22
-24.3874189602
 13
28.6768085068
 23
-24.3874189602
  0
SOLID
  5
248
100
AcDbEntity
  8
0
100
AcDbTrace
 62
7
  6
CONTINUOUS
 10
29.202355952
 20
-24.3436213349
 11
28.6768085068
 21
-24.3874189602
 12
28.8519909885
 22
-24.3436213349
 13
28.8519909885
 23
-24.3436213349
  0
SOLID
  5
249
100
AcDbEntity
  8
0
100
AcDbTrace
 62
7
  6
CONTINUOUS
 10
28.6768085068
 20
-24.3874189602
 11
29.3556406236
 21
-24.3655211499
 12
29.5089252951
 22
-24.4093167704
 13
29.5089252951
 23
-24.4093167704
  0
SOLID
  5
24A
100
AcDbEntity
  8
0
100
AcDbTrace
 62
7
  6
CONTINUOUS
 10
29.5089252951
 20
-24.4093167704
 11
28.4797282148
 21
-24.4531123908
 12
28.6768085068
 22
-24.3874189602
 13
28.6768085068
 23
-24.3874189602
  0
SOLID
  5
24B
100
AcDbEntity
  8
0
100
AcDbTrace
 62
7
  6
CONTINUOUS
 10
28.4797282148
 20
-24.4531123908
 11
29.5089252951
 21
-24.4093167704
 12
29.6622099666
 22
-24.4531123908
 13
29.6622099666
 23
-24.4531123908
  0
SOLID
  5
24C
100
AcDbEntity
  8
0
100
AcDbTrace
 62
7
  6
CONTINUOUS
 10
30.4067355141
 20
-23.7304846536
 11
29.6622099666
 21
-24.4531123908
 12
30.1658596017
 22
-23.5771999821
 13
30.1658596017
 23
-23.5771999821
  0
SOLID
  5
24D
100
AcDbEntity
  8
0
100
AcDbTrace
 62
7
  6
CONTINUOUS
 10
29.6622099666
 20
-24.4531123908
 11
28.304545733
 21
-24.5407036317
 12
28.4797282148
 22
-24.4531123908
 13
28.4797282148
 23
-24.4531123908
  0
SOLID
  5
24E
100
AcDbEntity
  8
0
100
AcDbTrace
 62
7
  6
CONTINUOUS
 10
29.903085879
 20
-24.6063970624
 11
28.304545733
 21
-24.5407036317
 12
29.6622099666
 22
-24.4531123908
 13
29.6622099666
 23
-24.4531123908
  0
SOLID
  5
24F
100
AcDbEntity
  8
0
100
AcDbTrace
 62
7
  6
CONTINUOUS
 10
29.6622099666
 20
-24.4531123908
 11
30.4067355141
 21
-23.7304846536
 12
29.903085879
 22
-24.6063970624
 13
29.903085879
 23
-24.6063970624
  0
SOLID
  5
250
100
AcDbEntity
  8
0
100
AcDbTrace
 62
7
  6
CONTINUOUS
 10
29.903085879
 20
-24.6063970624
 11
28.1512610615
 21
-24.6282955408
 12
28.304545733
 22
-24.5407036317
 13
28.304545733
 23
-24.5407036317
  0
SOLID
  5
251
100
AcDbEntity
  8
0
100
AcDbTrace
 62
7
  6
CONTINUOUS
 10
28.895786609
 20
-24.6282955408
 11
28.1512610615
 21
-24.6282955408
 12
29.903085879
 22
-24.6063970624
 13
29.903085879
 23
-24.6063970624
  0
SOLID
  5
252
100
AcDbEntity
  8
0
100
AcDbTrace
 62
7
  6
CONTINUOUS
 10
29.0490712805
 20
-24.6282955408
 11
28.895786609
 21
-24.6282955408
 12
29.903085879
 22
-24.6063970624
 13
29.903085879
 23
-24.6063970624
  0
SOLID
  5
253
100
AcDbEntity
  8
0
100
AcDbTrace
 62
7
  6
CONTINUOUS
 10
29.1804581418
 20
-24.6282955408
 11
29.0490712805
 21
-24.6282955408
 12
29.903085879
 22
-24.6063970624
 13
29.903085879
 23
-24.6063970624
  0
SOLID
  5
254
100
AcDbEntity
  8
0
100
AcDbTrace
 62
7
  6
CONTINUOUS
 10
29.2899471929
 20
-24.6501926828
 11
29.1804581418
 21
-24.6282955408
 12
29.903085879
 22
-24.6063970624
 13
29.903085879
 23
-24.6063970624
  0
SOLID
  5
255
100
AcDbEntity
  8
0
100
AcDbTrace
 62
7
  6
CONTINUOUS
 10
29.399436244
 20
-24.6720898247
 11
29.2899471929
 21
-24.6501926828
 12
29.903085879
 22
-24.6063970624
 13
29.903085879
 23
-24.6063970624
  0
SOLID
  5
256
100
AcDbEntity
  8
0
100
AcDbTrace
 62
7
  6
CONTINUOUS
 10
29.5089252951
 20
-24.7158847769
 11
29.399436244
 21
-24.6720898247
 12
29.903085879
 22
-24.6063970624
 13
29.903085879
 23
-24.6063970624
  0
SOLID
  5
257
100
AcDbEntity
  8
0
100
AcDbTrace
 62
7
  6
CONTINUOUS
 10
29.5089252951
 20
-24.7158847769
 11
29.903085879
 21
-24.6063970624
 12
30.0563705506
 22
-24.7158847769
 13
30.0563705506
 23
-24.7158847769
  0
SOLID
  5
258
100
AcDbEntity
  8
0
100
AcDbTrace
 62
7
  6
CONTINUOUS
 10
28.7425019374
 20
-24.6720898247
 11
28.6111150761
 21
-24.7158847769
 12
28.0198742002
 22
-24.7596817339
 13
28.0198742002
 23
-24.7596817339
  0
SOLID
  5
259
100
AcDbEntity
  8
0
100
AcDbTrace
 62
7
  6
CONTINUOUS
 10
28.895786609
 20
-24.6282955408
 11
28.7425019374
 21
-24.6720898247
 12
28.0198742002
 22
-24.7596817339
 13
28.0198742002
 23
-24.7596817339
  0
SOLID
  5
25A
100
AcDbEntity
  8
0
100
AcDbTrace
 62
7
  6
CONTINUOUS
 10
28.895786609
 20
-24.6282955408
 11
28.0198742002
 21
-24.7596817339
 12
28.1512610615
 22
-24.6282955408
 13
28.1512610615
 23
-24.6282955408
  0
SOLID
  5
25B
100
AcDbEntity
  8
0
100
AcDbTrace
 62
7
  6
CONTINUOUS
 10
28.0198742002
 20
-24.7596817339
 11
28.6111150761
 21
-24.7158847769
 12
28.4578304046
 22
-24.7815795441
 13
28.4578304046
 23
-24.7815795441
  0
SOLID
  5
25C
100
AcDbEntity
  8
0
100
AcDbTrace
 62
7
  6
CONTINUOUS
 10
28.4578304046
 20
-24.7815795441
 11
28.3264435433
 21
-24.8691704508
 12
27.8884873389
 22
-24.9129664054
 13
27.8884873389
 23
-24.9129664054
  0
SOLID
  5
25D
100
AcDbEntity
  8
0
100
AcDbTrace
 62
7
  6
CONTINUOUS
 10
28.4578304046
 20
-24.7815795441
 11
27.8884873389
 21
-24.9129664054
 12
28.0198742002
 22
-24.7596817339
 13
28.0198742002
 23
-24.7596817339
  0
SOLID
  5
25E
100
AcDbEntity
  8
0
100
AcDbTrace
 62
7
  6
CONTINUOUS
 10
27.8884873389
 20
-24.9129664054
 11
28.3264435433
 21
-24.8691704508
 12
28.2169544922
 22
-24.9786615067
 13
28.2169544922
 23
-24.9786615067
  0
SOLID
  5
25F
100
AcDbEntity
  8
0
100
AcDbTrace
 62
7
  6
CONTINUOUS
 10
29.8592902586
 20
-24.9567620259
 11
29.7716990177
 21
-24.8691704508
 12
30.1658596017
 22
-24.8472729748
 13
30.1658596017
 23
-24.8472729748
  0
SOLID
  5
260
100
AcDbEntity
  8
0
100
AcDbTrace
 62
7
  6
CONTINUOUS
 10
29.8592902586
 20
-24.9567620259
 11
30.1658596017
 21
-24.8472729748
 12
30.2753486528
 22
-24.9786615067
 13
30.2753486528
 23
-24.9786615067
  0
SOLID
  5
261
100
AcDbEntity
  8
0
100
AcDbTrace
 62
7
  6
CONTINUOUS
 10
30.2753486528
 20
-24.9786615067
 11
29.9687793097
 21
-25.0443532667
 12
29.8592902586
 22
-24.9567620259
 13
29.8592902586
 23
-24.9567620259
  0
SOLID
  5
262
100
AcDbEntity
  8
0
100
AcDbTrace
 62
7
  6
CONTINUOUS
 10
28.2169544922
 20
-24.9786615067
 11
27.7789982878
 21
-25.066251077
 12
27.8884873389
 22
-24.9129664054
 13
27.8884873389
 23
-24.9129664054
  0
SOLID
  5
263
100
AcDbEntity
  8
0
100
AcDbTrace
 62
7
  6
CONTINUOUS
 10
27.7789982878
 20
-25.066251077
 11
28.2169544922
 21
-24.9786615067
 12
28.1293632513
 22
-25.0881488872
 13
28.1293632513
 23
-25.0881488872
  0
SOLID
  5
264
100
AcDbEntity
  8
0
100
AcDbTrace
 62
7
  6
CONTINUOUS
 10
29.9687793097
 20
-25.0443532667
 11
30.2753486528
 21
-24.9786615067
 12
30.3629398936
 22
-25.1319445076
 13
30.3629398936
 23
-25.1319445076
  0
SOLID
  5
265
100
AcDbEntity
  8
0
100
AcDbTrace
 62
7
  6
CONTINUOUS
 10
30.3629398936
 20
-25.1319445076
 11
30.0344727403
 21
-25.1538423178
 12
29.9687793097
 22
-25.0443532667
 13
29.9687793097
 23
-25.0443532667
  0
SOLID
  5
266
100
AcDbEntity
  8
0
100
AcDbTrace
 62
7
  6
CONTINUOUS
 10
28.1293632513
 20
-25.0881488872
 11
28.0417720104
 21
-25.2195357485
 12
27.6914070469
 22
-25.2414335587
 13
27.6914070469
 23
-25.2414335587
  0
SOLID
  5
267
100
AcDbEntity
  8
0
100
AcDbTrace
 62
7
  6
CONTINUOUS
 10
28.1293632513
 20
-25.0881488872
 11
27.6914070469
 21
-25.2414335587
 12
27.7789982878
 22
-25.066251077
 13
27.7789982878
 23
-25.066251077
  0
SOLID
  5
268
100
AcDbEntity
  8
0
100
AcDbTrace
 62
7
  6
CONTINUOUS
 10
30.100166171
 20
-25.2852285109
 11
30.0344727403
 21
-25.1538423178
 12
30.3629398936
 22
-25.1319445076
 13
30.3629398936
 23
-25.1319445076
  0
SOLID
  5
269
100
AcDbEntity
  8
0
100
AcDbTrace
 62
7
  6
CONTINUOUS
 10
30.100166171
 20
-25.2852285109
 11
30.3629398936
 21
-25.1319445076
 12
30.4286333243
 22
-25.2852285109
 13
30.4286333243
 23
-25.2852285109
  0
SOLID
  5
26A
100
AcDbEntity
  8
0
100
AcDbTrace
 62
7
  6
CONTINUOUS
 10
27.6914070469
 20
-25.2414335587
 11
28.0417720104
 21
-25.2195357485
 12
27.9541807695
 22
-25.3509226098
 13
27.9541807695
 23
-25.3509226098
  0
SOLID
  5
26B
100
AcDbEntity
  8
0
100
AcDbTrace
 62
7
  6
CONTINUOUS
 10
30.4286333243
 20
-25.2852285109
 11
30.1658596017
 21
-25.3947182302
 12
30.100166171
 22
-25.2852285109
 13
30.100166171
 23
-25.2852285109
  0
SOLID
  5
26C
100
AcDbEntity
  8
0
100
AcDbTrace
 62
7
  6
CONTINUOUS
 10
27.9541807695
 20
-25.3509226098
 11
27.6257136163
 21
-25.4166160405
 12
27.6914070469
 22
-25.2414335587
 13
27.6914070469
 23
-25.2414335587
  0
SOLID
  5
26D
100
AcDbEntity
  8
0
100
AcDbTrace
 62
7
  6
CONTINUOUS
 10
30.1658596017
 20
-25.3947182302
 11
30.4286333243
 21
-25.2852285109
 12
30.4943267549
 22
-25.4604116609
 13
30.4943267549
 23
-25.4604116609
  0
SOLID
  5
26E
100
AcDbEntity
  8
0
100
AcDbTrace
 62
7
  6
CONTINUOUS
 10
27.6257136163
 20
-25.4166160405
 11
27.9541807695
 21
-25.3509226098
 12
27.9103851491
 22
-25.5042072813
 13
27.9103851491
 23
-25.5042072813
  0
SOLID
  5
26F
100
AcDbEntity
  8
0
100
AcDbTrace
 62
7
  6
CONTINUOUS
 10
30.4943267549
 20
-25.4604116609
 11
30.2096552221
 21
-25.5261050916
 12
30.1658596017
 22
-25.3947182302
 13
30.1658596017
 23
-25.3947182302
  0
SOLID
  5
270
100
AcDbEntity
  8
0
100
AcDbTrace
 62
7
  6
CONTINUOUS
 10
27.9103851491
 20
-25.5042072813
 11
27.5819179958
 21
-25.6136963324
 12
27.6257136163
 22
-25.4166160405
 13
27.6257136163
 23
-25.4166160405
  0
SOLID
  5
271
100
AcDbEntity
  8
0
100
AcDbTrace
 62
7
  6
CONTINUOUS
 10
30.2096552221
 20
-25.5261050916
 11
30.4943267549
 21
-25.4604116609
 12
30.5162245652
 22
-25.6355941426
 13
30.5162245652
 23
-25.6355941426
  0
SOLID
  5
272
100
AcDbEntity
  8
0
100
AcDbTrace
 62
7
  6
CONTINUOUS
 10
27.5819179958
 20
-25.6136963324
 11
27.9103851491
 21
-25.5042072813
 12
27.8884873389
 22
-25.6574919529
 13
27.8884873389
 23
-25.6574919529
  0
SOLID
  5
273
100
AcDbEntity
  8
0
100
AcDbTrace
 62
7
  6
CONTINUOUS
 10
30.5162245652
 20
-25.6355941426
 11
30.2315530323
 21
-25.6793897631
 12
30.2096552221
 22
-25.5261050916
 13
30.2096552221
 23
-25.5261050916
  0
SOLID
  5
274
100
AcDbEntity
  8
0
100
AcDbTrace
 62
7
  6
CONTINUOUS
 10
27.8884873389
 20
-25.6574919529
 11
27.5819179958
 21
-25.8107777939
 12
27.5819179958
 22
-25.6136963324
 13
27.5819179958
 23
-25.6136963324
  0
SOLID
  5
275
100
AcDbEntity
  8
0
100
AcDbTrace
 62
7
  6
CONTINUOUS
 10
27.5819179958
 20
-25.8107777939
 11
27.8884873389
 21
-25.6574919529
 12
27.8665895287
 22
-25.8107777939
 13
27.8665895287
 23
-25.8107777939
  0
SOLID
  5
276
100
AcDbEntity
  8
0
100
AcDbTrace
 62
7
  6
CONTINUOUS
 10
30.2315530323
 20
-25.8107777939
 11
30.2315530323
 21
-25.6793897631
 12
30.5162245652
 22
-25.6355941426
 13
30.5162245652
 23
-25.6355941426
  0
SOLID
  5
277
100
AcDbEntity
  8
0
100
AcDbTrace
 62
7
  6
CONTINUOUS
 10
30.2315530323
 20
-25.8107777939
 11
30.5162245652
 21
-25.6355941426
 12
30.5162245652
 22
-25.8107777939
 13
30.5162245652
 23
-25.8107777939
  0
SOLID
  5
278
100
AcDbEntity
  8
0
100
AcDbTrace
 62
7
  6
CONTINUOUS
 10
30.5162245652
 20
-25.8107777939
 11
30.2315530323
 21
-25.9640612959
 12
30.2315530323
 22
-25.8107777939
 13
30.2315530323
 23
-25.8107777939
  0
SOLID
  5
279
100
AcDbEntity
  8
0
100
AcDbTrace
 62
7
  6
CONTINUOUS
 10
27.8665895287
 20
-25.8107777939
 11
27.8884873389
 21
-25.9421634857
 12
27.5819179958
 22
-25.9859591061
 13
27.5819179958
 23
-25.9859591061
  0
SOLID
  5
27A
100
AcDbEntity
  8
0
100
AcDbTrace
 62
7
  6
CONTINUOUS
 10
27.8665895287
 20
-25.8107777939
 11
27.5819179958
 21
-25.9859591061
 12
27.5819179958
 22
-25.8107777939
 13
27.5819179958
 23
-25.8107777939
  0
SOLID
  5
27B
100
AcDbEntity
  8
0
100
AcDbTrace
 62
7
  6
CONTINUOUS
 10
30.2315530323
 20
-25.9640612959
 11
30.5162245652
 21
-25.8107777939
 12
30.5162245652
 22
-26.0078569164
 13
30.5162245652
 23
-26.0078569164
  0
SOLID
  5
27C
100
AcDbEntity
  8
0
100
AcDbTrace
 62
7
  6
CONTINUOUS
 10
27.5819179958
 20
-25.9859591061
 11
27.8884873389
 21
-25.9421634857
 12
27.9103851491
 22
-26.0954481572
 13
27.9103851491
 23
-26.0954481572
  0
SOLID
  5
27D
100
AcDbEntity
  8
0
100
AcDbTrace
 62
7
  6
CONTINUOUS
 10
30.5162245652
 20
-26.0078569164
 11
30.1877574119
 21
-26.1173459675
 12
30.2315530323
 22
-25.9640612959
 13
30.2315530323
 23
-25.9640612959
  0
SOLID
  5
27E
100
AcDbEntity
  8
0
100
AcDbTrace
 62
7
  6
CONTINUOUS
 10
27.9103851491
 20
-26.0954481572
 11
27.6257136163
 21
-26.1611415879
 12
27.5819179958
 22
-25.9859591061
 13
27.5819179958
 23
-25.9859591061
  0
SOLID
  5
27F
100
AcDbEntity
  8
0
100
AcDbTrace
 62
7
  6
CONTINUOUS
 10
30.1877574119
 20
-26.1173459675
 11
30.5162245652
 21
-26.0078569164
 12
30.4724289447
 22
-26.2049372083
 13
30.4724289447
 23
-26.2049372083
  0
SOLID
  5
280
100
AcDbEntity
  8
0
100
AcDbTrace
 62
7
  6
CONTINUOUS
 10
27.6257136163
 20
-26.1611415879
 11
27.9103851491
 21
-26.0954481572
 12
27.9541807695
 22
-26.2268350186
 13
27.9541807695
 23
-26.2268350186
  0
SOLID
  5
281
100
AcDbEntity
  8
0
100
AcDbTrace
 62
7
  6
CONTINUOUS
 10
30.4724289447
 20
-26.2049372083
 11
30.1439617914
 21
-26.270630639
 12
30.1877574119
 22
-26.1173459675
 13
30.1877574119
 23
-26.1173459675
  0
SOLID
  5
282
100
AcDbEntity
  8
0
100
AcDbTrace
 62
7
  6
CONTINUOUS
 10
27.9541807695
 20
-26.2268350186
 11
27.6695092367
 21
-26.336322566
 12
27.6257136163
 22
-26.1611415879
 13
27.6257136163
 23
-26.1611415879
  0
SOLID
  5
283
100
AcDbEntity
  8
0
100
AcDbTrace
 62
7
  6
CONTINUOUS
 10
27.6695092367
 20
-26.336322566
 11
27.9541807695
 21
-26.2268350186
 12
27.99797639
 22
-26.336322566
 13
27.99797639
 23
-26.336322566
  0
SOLID
  5
284
100
AcDbEntity
  8
0
100
AcDbTrace
 62
7
  6
CONTINUOUS
 10
30.1439617914
 20
-26.270630639
 11
30.4724289447
 21
-26.2049372083
 12
30.4067355141
 22
-26.3801196901
 13
30.4067355141
 23
-26.3801196901
  0
SOLID
  5
285
100
AcDbEntity
  8
0
100
AcDbTrace
 62
7
  6
CONTINUOUS
 10
30.4067355141
 20
-26.3801196901
 11
30.0782683608
 21
-26.4020175003
 12
30.1439617914
 22
-26.270630639
 13
30.1439617914
 23
-26.270630639
  0
SOLID
  5
286
100
AcDbEntity
  8
0
100
AcDbTrace
 62
7
  6
CONTINUOUS
 10
27.99797639
 20
-26.336322566
 11
28.0636698206
 21
-26.467710931
 12
27.7352026674
 22
-26.4896087412
 13
27.7352026674
 23
-26.4896087412
  0
SOLID
  5
287
100
AcDbEntity
  8
0
100
AcDbTrace
 62
7
  6
CONTINUOUS
 10
27.99797639
 20
-26.336322566
 11
27.7352026674
 21
-26.4896087412
 12
27.6695092367
 22
-26.336322566
 13
27.6695092367
 23
-26.336322566
  0
SOLID
  5
288
100
AcDbEntity
  8
0
100
AcDbTrace
 62
7
  6
CONTINUOUS
 10
29.9906771199
 20
-26.5334043616
 11
30.0782683608
 21
-26.4020175003
 12
30.4067355141
 22
-26.3801196901
 13
30.4067355141
 23
-26.3801196901
  0
SOLID
  5
289
100
AcDbEntity
  8
0
100
AcDbTrace
 62
7
  6
CONTINUOUS
 10
29.9906771199
 20
-26.5334043616
 11
30.4067355141
 21
-26.3801196901
 12
30.3191442732
 22
-26.5553021718
 13
30.3191442732
 23
-26.5553021718
  0
SOLID
  5
28A
100
AcDbEntity
  8
0
100
AcDbTrace
 62
7
  6
CONTINUOUS
 10
27.7352026674
 20
-26.4896087412
 11
28.0636698206
 21
-26.467710931
 12
28.1512610615
 22
-26.5771999821
 13
28.1512610615
 23
-26.5771999821
  0
SOLID
  5
28B
100
AcDbEntity
  8
0
100
AcDbTrace
 62
7
  6
CONTINUOUS
 10
28.1512610615
 20
-26.5771999821
 11
27.8446917185
 21
-26.642894081
 12
27.7352026674
 22
-26.4896087412
 13
27.7352026674
 23
-26.4896087412
  0
SOLID
  5
28C
100
AcDbEntity
  8
0
100
AcDbTrace
 62
7
  6
CONTINUOUS
 10
30.3191442732
 20
-26.5553021718
 11
29.8811880688
 21
-26.642894081
 12
29.9906771199
 22
-26.5334043616
 13
29.9906771199
 23
-26.5334043616
  0
SOLID
  5
28D
100
AcDbEntity
  8
0
100
AcDbTrace
 62
7
  6
CONTINUOUS
 10
27.8446917185
 20
-26.642894081
 11
28.1512610615
 21
-26.5771999821
 12
28.2388523024
 22
-26.6647912229
 13
28.2388523024
 23
-26.6647912229
  0
SOLID
  5
28E
100
AcDbEntity
  8
0
100
AcDbTrace
 62
7
  6
CONTINUOUS
 10
29.8811880688
 20
-26.642894081
 11
30.3191442732
 21
-26.5553021718
 12
30.2096552221
 22
-26.7085868434
 13
30.2096552221
 23
-26.7085868434
  0
SOLID
  5
28F
100
AcDbEntity
  8
0
100
AcDbTrace
 62
7
  6
CONTINUOUS
 10
30.0563705506
 20
-24.7158847769
 11
30.1658596017
 21
-24.8472729748
 12
29.7716990177
 22
-24.8691704508
 13
29.7716990177
 23
-24.8691704508
  0
SOLID
  5
290
100
AcDbEntity
  8
0
100
AcDbTrace
 62
7
  6
CONTINUOUS
 10
29.5089252951
 20
-24.7158847769
 11
30.0563705506
 21
-24.7158847769
 12
29.7716990177
 22
-24.8691704508
 13
29.7716990177
 23
-24.8691704508
  0
SOLID
  5
291
100
AcDbEntity
  8
0
100
AcDbTrace
 62
7
  6
CONTINUOUS
 10
29.7716990177
 20
-24.8691704508
 11
28.3483413535
 21
-26.7523807931
 12
29.5089252951
 22
-24.7158847769
 13
29.5089252951
 23
-24.7158847769
  0
SOLID
  5
292
100
AcDbEntity
  8
0
100
AcDbTrace
 62
7
  6
CONTINUOUS
 10
30.2096552221
 20
-26.7085868434
 11
29.7716990177
 21
-26.7523807931
 12
29.8811880688
 22
-26.642894081
 13
29.8811880688
 23
-26.642894081
  0
SOLID
  5
293
100
AcDbEntity
  8
0
100
AcDbTrace
 62
7
  6
CONTINUOUS
 10
28.2388523024
 20
-26.6647912229
 11
28.3483413535
 21
-26.7523807931
 12
27.9322829593
 22
-26.774280274
 13
27.9322829593
 23
-26.774280274
  0
SOLID
  5
294
100
AcDbEntity
  8
0
100
AcDbTrace
 62
7
  6
CONTINUOUS
 10
28.2388523024
 20
-26.6647912229
 11
27.9322829593
 21
-26.774280274
 12
27.8446917185
 22
-26.642894081
 13
27.8446917185
 23
-26.642894081
  0
SOLID
  5
295
100
AcDbEntity
  8
0
100
AcDbTrace
 62
7
  6
CONTINUOUS
 10
29.6403121564
 20
-26.8399737047
 11
29.7716990177
 21
-26.7523807931
 12
30.2096552221
 22
-26.7085868434
 13
30.2096552221
 23
-26.7085868434
  0
SOLID
  5
296
100
AcDbEntity
  8
0
100
AcDbTrace
 62
7
  6
CONTINUOUS
 10
29.6403121564
 20
-26.8399737047
 11
30.2096552221
 21
-26.7085868434
 12
30.100166171
 22
-26.8618715149
 13
30.100166171
 23
-26.8618715149
  0
SOLID
  5
297
100
AcDbEntity
  8
0
100
AcDbTrace
 62
7
  6
CONTINUOUS
 10
28.0636698206
 20
-26.9056664671
 11
27.9322829593
 21
-26.774280274
 12
28.3483413535
 22
-26.7523807931
 13
28.3483413535
 23
-26.7523807931
  0
SOLID
  5
298
100
AcDbEntity
  8
0
100
AcDbTrace
 62
7
  6
CONTINUOUS
 10
28.5892172659
 20
-26.9056664671
 11
28.0636698206
 21
-26.9056664671
 12
28.3483413535
 22
-26.7523807931
 13
28.3483413535
 23
-26.7523807931
  0
SOLID
  5
299
100
AcDbEntity
  8
0
100
AcDbTrace
 62
7
  6
CONTINUOUS
 10
28.3483413535
 20
-26.7523807931
 11
29.7716990177
 21
-24.8691704508
 12
28.5892172659
 22
-26.9056664671
 13
28.5892172659
 23
-26.9056664671
  0
SOLID
  5
29A
100
AcDbEntity
  8
0
100
AcDbTrace
 62
7
  6
CONTINUOUS
 10
30.100166171
 20
-26.8618715149
 11
29.5089252951
 21
-26.9056664671
 12
29.6403121564
 22
-26.8399737047
 13
29.6403121564
 23
-26.8399737047
  0
SOLID
  5
29B
100
AcDbEntity
  8
0
100
AcDbTrace
 62
7
  6
CONTINUOUS
 10
29.3556406236
 20
-26.9494610851
 11
29.5089252951
 21
-26.9056664671
 12
30.100166171
 22
-26.8618715149
 13
30.100166171
 23
-26.8618715149
  0
SOLID
  5
29C
100
AcDbEntity
  8
0
100
AcDbTrace
 62
7
  6
CONTINUOUS
 10
29.3556406236
 20
-26.9494610851
 11
30.100166171
 21
-26.8618715149
 12
29.9468814995
 22
-26.9713583941
 13
29.9468814995
 23
-26.9713583941
  0
SOLID
  5
29D
100
AcDbEntity
  8
0
100
AcDbTrace
 62
7
  6
CONTINUOUS
 10
29.9468814995
 20
-26.9713583941
 11
29.202355952
 21
-26.993260214
 12
29.3556406236
 22
-26.9494610851
 13
29.3556406236
 23
-26.9494610851
  0
SOLID
  5
29E
100
AcDbEntity
  8
0
100
AcDbTrace
 62
7
  6
CONTINUOUS
 10
29.0490712805
 20
-26.993260214
 11
29.202355952
 21
-26.993260214
 12
28.195056682
 22
-27.0151561864
 13
28.195056682
 23
-27.0151561864
  0
SOLID
  5
29F
100
AcDbEntity
  8
0
100
AcDbTrace
 62
7
  6
CONTINUOUS
 10
28.9395822294
 20
-26.993260214
 11
29.0490712805
 21
-26.993260214
 12
28.195056682
 22
-27.0151561864
 13
28.195056682
 23
-27.0151561864
  0
SOLID
  5
2A0
100
AcDbEntity
  8
0
100
AcDbTrace
 62
7
  6
CONTINUOUS
 10
28.8081953681
 20
-26.9713583941
 11
28.9395822294
 21
-26.993260214
 12
28.195056682
 22
-27.0151561864
 13
28.195056682
 23
-27.0151561864
  0
SOLID
  5
2A1
100
AcDbEntity
  8
0
100
AcDbTrace
 62
7
  6
CONTINUOUS
 10
28.698706317
 20
-26.9494610851
 11
28.8081953681
 21
-26.9713583941
 12
28.195056682
 22
-27.0151561864
 13
28.195056682
 23
-27.0151561864
  0
SOLID
  5
2A2
100
AcDbEntity
  8
0
100
AcDbTrace
 62
7
  6
CONTINUOUS
 10
28.5892172659
 20
-26.9056664671
 11
28.698706317
 21
-26.9494610851
 12
28.195056682
 22
-27.0151561864
 13
28.195056682
 23
-27.0151561864
  0
SOLID
  5
2A3
100
AcDbEntity
  8
0
100
AcDbTrace
 62
7
  6
CONTINUOUS
 10
28.5892172659
 20
-26.9056664671
 11
28.195056682
 21
-27.0151561864
 12
28.0636698206
 22
-26.9056664671
 13
28.0636698206
 23
-26.9056664671
  0
SOLID
  5
2A4
100
AcDbEntity
  8
0
100
AcDbTrace
 62
7
  6
CONTINUOUS
 10
29.7935968279
 20
-27.0808496171
 11
28.195056682
 21
-27.0151561864
 12
29.202355952
 22
-26.993260214
 13
29.202355952
 23
-26.993260214
  0
SOLID
  5
2A5
100
AcDbEntity
  8
0
100
AcDbTrace
 62
7
  6
CONTINUOUS
 10
29.202355952
 20
-26.993260214
 11
29.9468814995
 21
-26.9713583941
 12
29.7935968279
 22
-27.0808496171
 13
29.7935968279
 23
-27.0808496171
  0
SOLID
  5
2A6
100
AcDbEntity
  8
0
100
AcDbTrace
 62
7
  6
CONTINUOUS
 10
28.4359325944
 20
-27.1684388532
 11
29.7935968279
 21
-27.0808496171
 12
29.6184143462
 22
-27.1684388532
 13
29.6184143462
 23
-27.1684388532
  0
SOLID
  5
2A7
100
AcDbEntity
  8
0
100
AcDbTrace
 62
7
  6
CONTINUOUS
 10
29.6184143462
 20
-27.1684388532
 11
28.5892172659
 21
-27.2122364784
 12
28.4359325944
 22
-27.1684388532
 13
28.4359325944
 23
-27.1684388532
  0
SOLID
  5
2A8
100
AcDbEntity
  8
0
100
AcDbTrace
 62
7
  6
CONTINUOUS
 10
28.5892172659
 20
-27.2122364784
 11
29.6184143462
 21
-27.1684388532
 12
29.4432318644
 22
-27.2341342886
 13
29.4432318644
 23
-27.2341342886
  0
SOLID
  5
2A9
100
AcDbEntity
  8
0
100
AcDbTrace
 62
7
  6
CONTINUOUS
 10
29.4432318644
 20
-27.2341342886
 11
28.7425019374
 21
-27.2560320988
 12
28.5892172659
 22
-27.2122364784
 13
28.5892172659
 23
-27.2122364784
  0
SOLID
  5
2AA
100
AcDbEntity
  8
0
100
AcDbTrace
 62
7
  6
CONTINUOUS
 10
28.895786609
 20
-27.2779299091
 11
28.7425019374
 21
-27.2560320988
 12
29.4432318644
 22
-27.2341342886
 13
29.4432318644
 23
-27.2341342886
  0
SOLID
  5
2AB
100
AcDbEntity
  8
0
100
AcDbTrace
 62
7
  6
CONTINUOUS
 10
29.0490712805
 20
-27.2779299091
 11
28.895786609
 21
-27.2779299091
 12
29.4432318644
 22
-27.2341342886
 13
29.4432318644
 23
-27.2341342886
  0
SOLID
  5
2AC
100
AcDbEntity
  8
0
100
AcDbTrace
 62
7
  6
CONTINUOUS
 10
29.0490712805
 20
-27.2779299091
 11
29.4432318644
 21
-27.2341342886
 12
29.2461515725
 22
-27.2779299091
 13
29.2461515725
 23
-27.2779299091
  0
SOLID
  5
2AD
100
AcDbEntity
  8
0
100
AcDbTrace
 62
7
  6
CONTINUOUS
 10
28.195056682
 20
-27.0151561864
 11
29.7935968279
 21
-27.0808496171
 12
28.4359325944
 22
-27.1684388532
 13
28.4359325944
 23
-27.1684388532
  0
SOLID
  5
2AE
100
AcDbEntity
  8
0
100
AcDbTrace
 62
7
  6
CONTINUOUS
 10
28.4359325944
 20
-27.1684388532
 11
27.6914070469
 21
-27.869170785
 12
28.195056682
 22
-27.0151561864
 13
28.195056682
 23
-27.0151561864
  0
SOLID
  5
2AF
100
AcDbEntity
  8
0
100
AcDbTrace
 62
7
  6
CONTINUOUS
 10
27.6914070469
 20
-27.869170785
 11
28.4359325944
 21
-27.1684388532
 12
27.9541807695
 22
-28.0224554565
 13
27.9541807695
 23
-28.0224554565
  0
DIMENSION
  5
2B0
100
AcDbEntity
  8
0
100
AcDbDimension
 62
7
  6
CONTINUOUS
  2
*D3
 10
15.3868255763
 20
-18.0985840418
 11
27.297246463
 21
-27.2779299091
 70
163
 71
1
 72
2
 41
0.9
 42
53.778976406
  1
{\fSymbol_ASME;\W1.0;⌀}<>
  3
DIMSTYLE_3
100
AcDbDiametricDimension
 15
-24.3868255763
 25
18.0985840418
1001
ACAD
1000
DSTYLE
1002
{
1070
73
1070
1
1070
74
1070
1
1002
}
  0
LWPOLYLINE
  5
2B1
100
AcDbEntity
  8
0
100
AcDbPolyline
 62
7
  6
CONTINUOUS
 90
5
 70
0
 43
0.3500000087
 10
0.9642857329
 20
37.2707924744
 10
1.3214285106
 20
37.485079007
 10
1.3214285106
 20
38.1279343414
 10
0.9642857329
 20
38.5565074066
 10
0.1071428583
 20
38.5565074066
  0
LWPOLYLINE
  5
2B2
100
AcDbEntity
  8
0
100
AcDbPolyline
 62
7
  6
CONTINUOUS
 90
10
 70
0
 43
0.3500000087
 10
-1.1785713995
 20
38.5565074066
 10
-1.8214285992
 20
37.9136520721
 10
-2.2500000656
 20
37.0565059418
 10
-2.2500000656
 20
35.9850775421
 10
-1.8214285992
 20
35.5565087402
 10
-1.1785713995
 20
35.5565087402
 10
-0.7499999997
 20
35.9850775421
 10
-0.7499999997
 20
36.8422236725
 10
-1.1785713995
 20
37.2707924744
 10
-2.1071428213
 20
37.2707924744
  0
LWPOLYLINE
  5
2B3
100
AcDbEntity
  8
0
100
AcDbPolyline
 62
7
  6
CONTINUOUS
 90
8
 70
0
 43
0.3500000087
 10
30.8357075516
 20
-27.2779297531
 10
31.6928515503
 20
-27.2779297531
 10
32.1214224838
 20
-26.8493582867
 10
32.1214224838
 20
-25.9922158867
 10
31.6928515503
 20
-25.5636444202
 10
30.8357075516
 20
-25.5636444202
 10
30.8357075516
 20
-24.2779300209
 10
32.1214224838
 20
-24.2779300209
  0
LWPOLYLINE
  5
2B4
100
AcDbEntity
  8
0
100
AcDbPolyline
 62
7
  6
CONTINUOUS
 90
3
 70
0
 43
0.3500000087
 10
34.4785658157
 20
-26.6350728199
 10
32.9785643509
 20
-26.6350728199
 10
33.621421817
 20
-24.2779300209
  0
LINE
  5
2B5
100
AcDbEntity
  8
RACCORDO
100
AcDbLine
 62
250
  6
CONTINUOUS
 10
14.1602399083
 20
18.6602399083
 11
14.513739451
 21
19.013739451
  0
LINE
  5
2B6
100
AcDbEntity
  8
RACCORDO
100
AcDbLine
 62
250
  6
CONTINUOUS
 10
14.1602399083
 20
-18.6602399083
 11
14.513739451
 21
-19.013739451
  0
LINE
  5
2B7
100
AcDbEntity
  8
RACCORDO
100
AcDbLine
 62
250
  6
CONTINUOUS
 10
29.5242009389
 20
3.2962788776
 11
29.8777004816
 21
3.6497784203
  0
LINE
  5
2B8
100
AcDbEntity
  8
RACCORDO
100
AcDbLine
 62
250
  6
CONTINUOUS
 10
29.5242009389
 20
-3.2962788776
 11
29.8777004816
 21
-3.6497784203
  0
LINE
  5
2B9
100
AcDbEntity
  8
RACCORDO
100
AcDbLine
 62
250
  6
CONTINUOUS
 10
14.1602399083
 20
-18.6602399083
 11
29.5242009389
 21
-3.2962788776
  0
LINE
  5
2BA
100
AcDbEntity
  8
RACCORDO
100
AcDbLine
 62
7
  6
CONTINUOUS
 10
14.513739451
 20
-19.013739451
 11
29.8777004816
 21
-3.6497784203
  0
LINE
  5
2BB
100
AcDbEntity
  8
RACCORDO
100
AcDbLine
 62
250
  6
CONTINUOUS
 10
29.5242009389
 20
3.2962788776
 11
14.1602399083
 21
18.6602399083
  0
LINE
  5
2BC
100
AcDbEntity
  8
RACCORDO
100
AcDbLine
 62
7
  6
CONTINUOUS
 10
29.8777004816
 20
3.6497784203
 11
14.513739451
 21
19.013739451
  0
LWPOLYLINE
  5
2BD
100
AcDbEntity
  8
0
100
AcDbPolyline
 62
7
  6
CONTINUOUS
 90
2
 70
0
 43
0.3500000087
 10
33.9785653275
 20
-27.2779297531
 10
33.9785653275
 20
-25.777929887
  0
LWPOLYLINE
  5
2BE
100
AcDbEntity
  8
0
100
AcDbPolyline
 62
7
  6
CONTINUOUS
 90
6
 70
0
 43
0.3500000087
 10
0.1071428583
 20
35.5565087402
 10
1.1785713995
 20
35.5565087402
 10
1.3928571327
 20
35.7707910095
 10
1.3928571327
 20
36.8422236725
 10
0.9642857329
 20
37.2707924744
 10
0.5357142998
 20
37.2707924744
  0
LWPOLYLINE
  5
2BF
100
AcDbEntity
  8
0
100
AcDbPolyline
 62
7
  6
CONTINUOUS
 90
10
 70
0
 43
0.3500000087
 10
-75.8106555481
 20
45.4697389191
 10
-74.9535094177
 20
46.3268807861
 10
-74.7392271484
 20
47.1840226532
 10
-74.7392271484
 20
48.0411687836
 10
-75.1678002136
 20
48.4697375854
 10
-75.8106555481
 20
48.4697375854
 10
-76.2392286133
 20
48.0411687836
 10
-76.2392286133
 20
47.1840226532
 10
-75.8106555481
 20
46.7554538513
 10
-74.8820819946
 20
46.7554538513
  0
LINE
  5
2C0
100
AcDbEntity
  8
RACCORDO
100
AcDbLine
 62
7
  6
CONTINUOUS
 10
-105.8320842105
 20
-20.5499999967
 11
-105.8320842105
 21
20.55
  0
LINE
  5
2C1
100
AcDbEntity
  8
RACCORDO
100
AcDbLine
 62
7
  6
CONTINUOUS
 10
-105.6320842105
 20
-26.3834582983
 11
-105.6320842105
 21
26.3845867579
  0
LINE
  5
2C2
100
AcDbEntity
  8
RACCORDO
100
AcDbLine
 62
250
  6
CONTINUOUS
 10
-105.1233580073
 20
-26.889488203
 11
-105.1233580073
 21
26.889488203
  0
LWPOLYLINE
  5
2C3
100
AcDbEntity
  8
0
100
AcDbPolyline
 62
7
  6
CONTINUOUS
 90
5
 70
0
 43
0.3500000087
 10
-68.6035117432
 20
37.3290207031
 10
-68.2463703644
 20
37.5433029724
 10
-68.2463703644
 20
38.1861625702
 10
-68.6035117432
 20
38.6147313721
 10
-69.4606536102
 20
38.6147313721
  0
LINE
  5
2C4
100
AcDbEntity
  8
DRAFT
100
AcDbLine
 62
7
  6
CONTINUOUS
 10
-97.1320842105
 20
-26.75
 11
-99.7820842105
 21
-26.7962559221
  0
LINE
  5
2C5
100
AcDbEntity
  8
DRAFT
100
AcDbLine
 62
7
  6
CONTINUOUS
 10
-100.4820842105
 20
-26.8084744675
 11
-105.1233580073
 21
-26.889488203
  0
LINE
  5
2C6
100
AcDbEntity
  8
0
100
AcDbLine
 62
7
  6
CONTINUOUS
 10
-99.7820842105
 20
-26.45
 11
-100.4820842105
 21
-26.45
  0
LINE
  5
2C7
100
AcDbEntity
  8
DRAFT
100
AcDbLine
 62
7
  6
CONTINUOUS
 10
-100.4820842105
 20
-26.8084744398
 11
-100.4820842105
 21
26.8084744398
  0
LWPOLYLINE
  5
2C8
100
AcDbEntity
  8
0
100
AcDbPolyline
 62
7
  6
CONTINUOUS
 90
5
 70
0
 43
0.3500000087
 10
-62.3892278778
 20
37.3290207031
 10
-62.0320822357
 20
37.5433029724
 10
-62.0320822357
 20
38.1861625702
 10
-62.3892278778
 20
38.6147313721
 10
-63.2463697449
 20
38.6147313721
  0
LINE
  5
2C9
100
AcDbEntity
  8
DRAFT
100
AcDbLine
 62
7
  6
CONTINUOUS
 10
-99.7820842105
 20
-26.7962558943
 11
-99.7820842105
 21
26.7962558943
  0
LINE
  5
2CA
100
AcDbEntity
  8
DRAFT
100
AcDbLine
 62
7
  6
CONTINUOUS
 10
-97.1320842105
 20
-26.75
 11
-97.1320842105
 21
26.75
  0
LINE
  5
2CB
100
AcDbEntity
  8
DRAFT
100
AcDbLine
 62
7
  6
CONTINUOUS
 10
-84.302674688
 20
-23.3123700791
 11
-97.1320842105
 21
-26.75
  0
LINE
  5
2CC
100
AcDbEntity
  8
RACCORDO
100
AcDbLine
 62
250
  6
CONTINUOUS
 10
-105.1233580073
 20
-19.013739451
 11
-100.4820842105
 21
-18.9564540892
  0
LINE
  5
2CD
100
AcDbEntity
  8
DRAFT
100
AcDbLine
 62
250
  6
CONTINUOUS
 10
-99.7820842105
 20
-18.9478142729
 11
-97.1320842105
 21
-18.9151063967
  0
LINE
  5
2CE
100
AcDbEntity
  8
0
100
AcDbLine
 62
250
  6
CONTINUOUS
 10
-99.7820842105
 20
-18.7029743624
 11
-100.4820842105
 21
-18.7029743624
  0
LINE
  5
2CF
100
AcDbEntity
  8
RACCORDO
100
AcDbLine
 62
250
  6
CONTINUOUS
 10
-97.1320842105
 20
-18.9151063967
 11
-84.302674688
 21
-16.4843349684
  0
LINE
  5
2D0
100
AcDbEntity
  8
ASSI
100
AcDbLine
 62
7
  6
CONTINUOUS
 10
-83.9320842105
 20
-13.8179255981
 11
-66.1320842105
 21
-13.8179255981
  0
LINE
  5
2D1
100
AcDbEntity
  8
RACCORDO
100
AcDbLine
 62
250
  6
CONTINUOUS
 10
-83.9320842105
 20
-13.8008153208
 11
-66.1320842105
 21
-13.8008153208
  0
LINE
  5
2D2
100
AcDbEntity
  8
RACCORDO
100
AcDbLine
 62
250
  6
CONTINUOUS
 10
-66.1320842105
 20
-12.8616747495
 11
-83.9320842105
 21
-12.8616747495
  0
LINE
  5
2D3
100
AcDbEntity
  8
RACCORDO
100
AcDbLine
 62
250
  6
CONTINUOUS
 10
-66.1320842105
 20
-11.4399843486
 11
-83.9320842105
 21
-11.4399843486
  0
LINE
  5
2D4
100
AcDbEntity
  8
RACCORDO
100
AcDbLine
 62
250
  6
CONTINUOUS
 10
-84.302674688
 20
23.3123700791
 11
-84.302674688
 21
-23.3123700791
  0
LINE
  5
2D5
100
AcDbEntity
  8
RACCORDO
100
AcDbLine
 62
7
  6
CONTINUOUS
 10
-83.9320842105
 20
22.8241253177
 11
-83.9320842105
 21
-22.8250980614
  0
LINE
  5
2D6
100
AcDbEntity
  8
ASSI
100
AcDbLine
 62
7
  6
CONTINUOUS
 10
-55.6320842105
 20
-8.1871843354
 11
-48.6320842105
 21
-8.1871843354
  0
LINE
  5
2D7
100
AcDbEntity
  8
ASSI
100
AcDbLine
 62
7
  6
CONTINUOUS
 10
-55.6320842105
 20
-7.9871843354
 11
-65.6320842105
 21
-7.9871843354
  0
LINE
  5
2D8
100
AcDbEntity
  8
RACCORDO
100
AcDbLine
 62
250
  6
CONTINUOUS
 10
-105.1233580073
 20
-3.6497784203
 11
-100.4820842105
 21
-3.5924930586
  0
LINE
  5
2D9
100
AcDbEntity
  8
DRAFT
100
AcDbLine
 62
250
  6
CONTINUOUS
 10
-99.7820842105
 20
-3.5838532422
 11
-97.1320842105
 21
-3.5511453661
  0
LINE
  5
2DA
100
AcDbEntity
  8
ASSI
100
AcDbLine
 62
7
  6
CONTINUOUS
 10
-55.6320842105
 20
-4.3871843354
 11
-65.6320842105
 21
-4.3871843354
  0
LINE
  5
2DB
100
AcDbEntity
  8
ASSI
100
AcDbLine
 62
7
  6
CONTINUOUS
 10
-55.6320842105
 20
-4.1871843354
 11
-48.6320842105
 21
-4.1871843354
  0
LINE
  5
2DC
100
AcDbEntity
  8
0
100
AcDbLine
 62
250
  6
CONTINUOUS
 10
-99.7820842105
 20
-3.3390133317
 11
-100.4820842105
 21
-3.3390133317
  0
LWPOLYLINE
  5
2DD
100
AcDbEntity
  8
0
100
AcDbPolyline
 62
7
  6
CONTINUOUS
 90
3
 70
0
 43
0.3500000087
 10
-64.2463707214
 20
35.9004466614
 10
-64.3177981445
 20
35.6861601288
 10
-64.460657254
 20
35.4004461731
  0
LINE
  5
2DE
100
AcDbEntity
  8
RACCORDO
100
AcDbLine
 62
250
  6
CONTINUOUS
 10
-66.1320842105
 20
-0.1750515674
 11
-83.9320842105
 21
-0.1750515674
  0
LINE
  5
2DF
100
AcDbEntity
  8
RACCORDO
100
AcDbLine
 62
250
  6
CONTINUOUS
 10
-97.1320842105
 20
3.5511453661
 11
-84.302674688
 21
1.1203739378
  0
LINE
  5
2E0
100
AcDbEntity
  8
RACCORDO
100
AcDbLine
 62
250
  6
CONTINUOUS
 10
-97.1320842105
 20
-3.5511453661
 11
-84.302674688
 21
-1.1203739378
  0
LINE
  5
2E1
100
AcDbEntity
  8
RACCORDO
100
AcDbLine
 62
250
  6
CONTINUOUS
 10
-66.1320842105
 20
2.7078513775
 11
-83.9320842105
 21
2.7078513775
  0
LINE
  5
2E2
100
AcDbEntity
  8
0
100
AcDbLine
 62
250
  6
CONTINUOUS
 10
-99.7820842105
 20
3.3390133317
 11
-100.4820842105
 21
3.3390133317
  0
LINE
  5
2E3
100
AcDbEntity
  8
ASSI
100
AcDbLine
 62
7
  6
CONTINUOUS
 10
-55.6320842105
 20
4.1871843354
 11
-48.6320842105
 21
4.1871843354
  0
LINE
  5
2E4
100
AcDbEntity
  8
ASSI
100
AcDbLine
 62
7
  6
CONTINUOUS
 10
-65.6320842105
 20
4.3871843354
 11
-55.6320842105
 21
4.3871843354
  0
LINE
  5
2E5
100
AcDbEntity
  8
RACCORDO
100
AcDbLine
 62
250
  6
CONTINUOUS
 10
-105.1233580073
 20
3.6497784203
 11
-100.4820842105
 21
3.5924930586
  0
LINE
  5
2E6
100
AcDbEntity
  8
DRAFT
100
AcDbLine
 62
250
  6
CONTINUOUS
 10
-99.7820842105
 20
3.5838532422
 11
-97.1320842105
 21
3.5511453661
  0
LINE
  5
2E7
100
AcDbEntity
  8
ASSI
100
AcDbLine
 62
7
  6
CONTINUOUS
 10
-65.6320842105
 20
7.9871843354
 11
-55.6320842105
 21
7.9871843354
  0
LINE
  5
2E8
100
AcDbEntity
  8
ASSI
100
AcDbLine
 62
7
  6
CONTINUOUS
 10
-55.6320842105
 20
8.1871843354
 11
-48.6320842105
 21
8.1871843354
  0
LWPOLYLINE
  5
2E9
100
AcDbEntity
  8
0
100
AcDbPolyline
 62
7
  6
CONTINUOUS
 90
4
 70
0
 43
0.3500000087
 10
-67.3177968109
 20
37.9718760376
 10
-67.3177968109
 20
38.6147313721
 10
-65.8177996094
 20
38.6147313721
 10
-66.6749414764
 20
35.6147327057
  0
LINE
  5
2EA
100
AcDbEntity
  8
RACCORDO
100
AcDbLine
 62
250
  6
CONTINUOUS
 10
-66.1320842105
 20
12.1023846187
 11
-66.1320842105
 21
-13.8179255981
  0
LINE
  5
2EB
100
AcDbEntity
  8
RACCORDO
100
AcDbLine
 62
7
  6
CONTINUOUS
 10
-65.6320842105
 20
11.6023084296
 11
-65.6320842105
 21
-13.317849409
  0
LINE
  5
2EC
100
AcDbEntity
  8
RACCORDO
100
AcDbLine
 62
250
  6
CONTINUOUS
 10
-83.9320842105
 20
9.8413322343
 11
-66.1320842105
 21
9.8413322343
  0
LINE
  5
2ED
100
AcDbEntity
  8
ASSI
100
AcDbLine
 62
7
  6
CONTINUOUS
 10
-83.9320842105
 20
12.1023846187
 11
-66.1320842105
 21
12.1023846187
  0
LINE
  5
2EE
100
AcDbEntity
  8
RACCORDO
100
AcDbLine
 62
250
  6
CONTINUOUS
 10
-97.1320842105
 20
18.9151063967
 11
-84.302674688
 21
16.4843349684
  0
LINE
  5
2EF
100
AcDbEntity
  8
0
100
AcDbLine
 62
250
  6
CONTINUOUS
 10
-99.7820842105
 20
18.7029743624
 11
-100.4820842105
 21
18.7029743624
  0
LINE
  5
2F0
100
AcDbEntity
  8
RACCORDO
100
AcDbLine
 62
250
  6
CONTINUOUS
 10
-105.1233580073
 20
19.013739451
 11
-100.4820842105
 21
18.9564540892
  0
LINE
  5
2F1
100
AcDbEntity
  8
DRAFT
100
AcDbLine
 62
250
  6
CONTINUOUS
 10
-99.7820842105
 20
18.9478142729
 11
-97.1320842105
 21
18.9151063967
  0
LINE
  5
2F2
100
AcDbEntity
  8
ASSI
100
AcDbLine
 62
7
  6
CONTINUOUS
 10
-55.6320842105
 20
-4.1871843354
 11
-55.6320842105
 21
-8.1871843354
  0
LINE
  5
2F3
100
AcDbEntity
  8
ASSI
100
AcDbLine
 62
7
  6
CONTINUOUS
 10
-55.6320842105
 20
4.1871843369
 11
-55.6320842105
 21
8.1871843339
  0
LINE
  5
2F4
100
AcDbEntity
  8
DRAFT
100
AcDbLine
 62
7
  6
CONTINUOUS
 10
-84.302674688
 20
23.3123700791
 11
-97.1320842105
 21
26.75
  0
LINE
  5
2F5
100
AcDbEntity
  8
0
100
AcDbLine
 62
7
  6
CONTINUOUS
 10
-99.7820842105
 20
26.45
 11
-100.4820842105
 21
26.45
  0
LINE
  5
2F6
100
AcDbEntity
  8
DRAFT
100
AcDbLine
 62
7
  6
CONTINUOUS
 10
-97.1320842105
 20
26.75
 11
-99.7820842105
 21
26.7962559221
  0
LINE
  5
2F7
100
AcDbEntity
  8
DRAFT
100
AcDbLine
 62
7
  6
CONTINUOUS
 10
-100.4820842105
 20
26.8084744675
 11
-105.1233580073
 21
26.889488203
  0
LWPOLYLINE
  5
2F8
100
AcDbEntity
  8
0
100
AcDbPolyline
 62
7
  6
CONTINUOUS
 90
10
 70
0
 43
0.3500000087
 10
-64.3177981445
 20
36.114733194
 10
-64.2463707214
 20
35.9718783478
 10
-64.2463707214
 20
35.9004466614
 10
-64.3892255676
 20
35.7575918152
 10
-64.460657254
 20
35.7575918152
 10
-64.5320846771
 20
35.8290192383
 10
-64.5320846771
 20
35.9004466614
 10
-64.460657254
 20
36.0433057709
 10
-64.3892255676
 20
36.114733194
 10
-64.3177981445
 20
36.114733194
  0
LINE
  5
2F9
100
AcDbEntity
  8
RACCORDO
100
AcDbLine
 62
250
  6
CONTINUOUS
 10
-48.6320842105
 20
8.1871843354
 11
-48.6320842105
 21
4.1871843354
  0
LINE
  5
2FA
100
AcDbEntity
  8
RACCORDO
100
AcDbLine
 62
250
  6
CONTINUOUS
 10
-48.6320842105
 20
-4.1871843354
 11
-48.6320842105
 21
-8.1871843354
  0
LWPOLYLINE
  5
2FB
100
AcDbEntity
  8
0
100
AcDbPolyline
 62
7
  6
CONTINUOUS
 90
6
 70
0
 43
0.3500000087
 10
-69.4606536102
 20
35.6147327057
 10
-68.3892252106
 20
35.6147327057
 10
-68.1749429413
 20
35.8290192383
 10
-68.1749429413
 20
36.9004476379
 10
-68.6035117432
 20
37.3290207031
 10
-69.0320848083
 20
37.3290207031
  0
LWPOLYLINE
  5
2FC
100
AcDbEntity
  8
0
100
AcDbPolyline
 62
7
  6
CONTINUOUS
 90
6
 70
0
 43
0.3500000087
 10
-63.2463697449
 20
35.6147327057
 10
-62.1749413452
 20
35.6147327057
 10
-61.9606548126
 20
35.8290192383
 10
-61.9606548126
 20
36.9004476379
 10
-62.3892278778
 20
37.3290207031
 10
-62.8177966797
 20
37.3290207031
  0
LWPOLYLINE
  5
2FD
100
AcDbEntity
  8
0
100
AcDbPolyline
 62
7
  6
CONTINUOUS
 90
8
 70
0
 43
0.3500000087
 10
-78.3820854126
 20
45.4697389191
 10
-77.5249392822
 20
45.4697389191
 10
-77.096366217
 20
45.8983077209
 10
-77.096366217
 20
46.7554538513
 10
-77.5249392822
 20
47.1840226532
 10
-78.3820854126
 20
47.1840226532
 10
-78.3820854126
 20
48.4697375854
 10
-77.096366217
 20
48.4697375854
  0
ARC
  5
2FE
100
AcDbEntity
  8
RACCORDO
100
AcDbCircle
 62
7
  6
CONTINUOUS
 10
-4.5
 20
0.0
 40
26.889488203
100
AcDbArc
 50
45.0
 51
315.0
  0
ARC
  5
2FF
100
AcDbEntity
  8
0
100
AcDbCircle
 62
7
  6
CONTINUOUS
 10
-4.5
 20
0.0
 40
26.889488203
100
AcDbArc
 50
315.0
 51
318.7605979206
  0
ARC
  5
300
100
AcDbEntity
  8
RACCORDO
100
AcDbCircle
 62
250
  6
CONTINUOUS
 10
-4.5
 20
0.0
 40
26.3895643554
100
AcDbArc
 50
45.0
 51
315.0
  0
CIRCLE
  5
301
100
AcDbEntity
  8
RACCORDO
100
AcDbCircle
 62
250
  6
CONTINUOUS
 10
-4.5
 20
0.0
 40
20.55
  0
ARC
  5
302
100
AcDbEntity
  8
RACCORDO
100
AcDbCircle
 62
7
  6
CONTINUOUS
 10
26.2279220614
 20
0.0
 40
5.1615661416
100
AcDbArc
 50
315.0
 51
45.0
  0
ARC
  5
303
100
AcDbEntity
  8
RACCORDO
100
AcDbCircle
 62
250
  6
CONTINUOUS
 10
26.2279220614
 20
0.0
 40
4.661642294
100
AcDbArc
 50
315.0
 51
45.0
  0
ARC
  5
304
100
AcDbEntity
  8
RACCORDO
100
AcDbCircle
 62
250
  6
CONTINUOUS
 10
-66.1322016262
 20
13.5635953324
 40
3.7222630999
100
AcDbArc
 50
270.0018073482
 51
271.3378983967
  0
ARC
  5
305
100
AcDbEntity
  8
RACCORDO
100
AcDbCircle
 62
7
  6
CONTINUOUS
 10
-48.6320842105
 20
-6.1871843354
 40
2.0
100
AcDbArc
 50
270.0
 51
90.0
  0
ARC
  5
306
100
AcDbEntity
  8
RACCORDO
100
AcDbCircle
 62
7
  6
CONTINUOUS
 10
-48.6320842105
 20
6.1871843354
 40
2.0
100
AcDbArc
 50
270.0
 51
90.0
  0
ARC
  5
307
100
AcDbEntity
  8
RACCORDO
100
AcDbCircle
 62
7
  6
CONTINUOUS
 10
-105.1320842105
 20
26.3895643554
 40
0.5
100
AcDbArc
 50
89.0
 51
180.0
  0
ARC
  5
308
100
AcDbEntity
  8
RACCORDO
100
AcDbCircle
 62
7
  6
CONTINUOUS
 10
-105.1320842105
 20
-26.3895643554
 40
0.5
100
AcDbArc
 50
180.0
 51
271.0
  0
ARC
  5
309
100
AcDbEntity
  8
RACCORDO
100
AcDbCircle
 62
7
  6
CONTINUOUS
 10
-66.1320842105
 20
11.6023846187
 40
0.5
100
AcDbArc
 50
0.0
 51
90.0
  0
ARC
  5
30A
100
AcDbEntity
  8
RACCORDO
100
AcDbCircle
 62
7
  6
CONTINUOUS
 10
-66.1320842105
 20
-13.3179255981
 40
0.5
100
AcDbArc
 50
270.0
 51
360.0
  0
ARC
  5
30B
100
AcDbEntity
  8
RACCORDO
100
AcDbCircle
 62
7
  6
CONTINUOUS
 10
-84.4320842105
 20
22.8294071659
 40
0.5
100
AcDbArc
 50
0.0
 51
62.5000088655
  0
ARC
  5
30C
100
AcDbEntity
  8
RACCORDO
100
AcDbCircle
 62
7
  6
CONTINUOUS
 10
-84.4320842105
 20
-22.8294071659
 40
0.5
100
AcDbArc
 50
285.0
 51
360.0
  0
ARC
  5
30D
100
AcDbEntity
  8
RACCORDO
100
AcDbCircle
 62
7
  6
CONTINUOUS
 10
-105.5320842105
 20
20.55
 40
0.3
100
AcDbArc
 50
109.4712206345
 51
180.0
  0
ARC
  5
30E
100
AcDbEntity
  8
RACCORDO
100
AcDbCircle
 62
7
  6
CONTINUOUS
 10
-105.5320842105
 20
-20.55
 40
0.3
100
AcDbArc
 50
180.0
 51
250.5287793655
  0
SPLINE
  5
30F
100
AcDbEntity
  8
RACCORDO
100
AcDbSpline
 62
7
  6
CONTINUOUS
 70
0
 71
3
 72
15
 73
11
 74
0
 42
0.0000001
 43
0.0000001
 44
0.0000000001
 40
0.0
 40
0.0
 40
0.0
 40
0.0
 40
0.1250167805
 40
0.2499856697
 40
0.3749984174
 40
0.5000000005
 40
0.6250015828
 40
0.7500143299
 40
0.8749832194
 40
1.0
 40
1.0
 40
1.0
 40
1.0
 10
-25.35
 20
0.0
 30
0.0
 10
-25.35
 20
-2.7100819134
 30
0.0
 10
-24.2378461457
 20
-8.1827164969
 30
0.0
 10
-19.618294925
 20
-15.1121551736
 30
0.0
 10
-12.6800670347
 20
-19.74777616
 30
0.0
 10
-4.4999999859
 20
-21.3753517615
 30
0.0
 10
3.680067054
 20
-19.7477761584
 30
0.0
 10
10.6182949062
 20
-15.1121551661
 30
0.0
 10
15.2378461553
 20
-8.1827165129
 30
0.0
 10
16.35
 20
-2.7100819164
 30
0.0
 10
16.35
 20
0.0
 30
0.0
  0
SPLINE
  5
310
100
AcDbEntity
  8
RACCORDO
100
AcDbSpline
 62
7
  6
CONTINUOUS
 70
0
 71
3
 72
15
 73
11
 74
0
 42
0.0000001
 43
0.0000001
 44
0.0000000001
 40
0.0
 40
0.0
 40
0.0
 40
0.0
 40
0.1250167805
 40
0.2499856697
 40
0.3749984174
 40
0.5000000005
 40
0.6250015828
 40
0.7500143299
 40
0.8749832194
 40
1.0
 40
1.0
 40
1.0
 40
1.0
 10
16.35
 20
0.0
 30
0.0
 10
16.35
 20
2.7100819134
 30
0.0
 10
15.2378461457
 20
8.1827164969
 30
0.0
 10
10.618294925
 20
15.1121551736
 30
0.0
 10
3.6800670347
 20
19.74777616
 30
0.0
 10
-4.5000000141
 20
21.3753517615
 30
0.0
 10
-12.680067054
 20
19.7477761584
 30
0.0
 10
-19.6182949062
 20
15.1121551661
 30
0.0
 10
-24.2378461553
 20
8.1827165129
 30
0.0
 10
-25.35
 20
2.7100819164
 30
0.0
 10
-25.35
 20
0.0
 30
0.0
  0
SPLINE
  5
311
100
AcDbEntity
  8
RACCORDO
100
AcDbSpline
 62
250
  6
CONTINUOUS
 70
0
 71
3
 72
10
 73
6
 74
0
 42
0.0000001
 43
0.0000001
 44
0.0000000001
 40
0.0
 40
0.0
 40
0.0
 40
0.0
 40
0.0893681132
 40
0.305664212
 40
1.0
 40
1.0
 40
1.0
 40
1.0
 10
-65.6320842105
 20
2.7731144736
 30
0.0
 10
-65.6320842105
 20
2.7579217427
 30
0.0
 10
-65.7009231245
 20
2.739786299
 30
0.0
 10
-65.8455426704
 20
2.7131689397
 30
0.0
 10
-66.0140459489
 20
2.7078513775
 30
0.0
 10
-66.1320842105
 20
2.7078513775
 30
0.0
  0
SPLINE
  5
312
100
AcDbEntity
  8
RACCORDO
100
AcDbSpline
 62
250
  6
CONTINUOUS
 70
0
 71
3
 72
9
 73
5
 74
0
 42
0.0000001
 43
0.0000001
 44
0.0000000001
 40
0.0
 40
0.0
 40
0.0
 40
0.0
 40
0.4402133985
 40
1.0
 40
1.0
 40
1.0
 40
1.0
 10
-65.6320842105
 20
0.1785018232
 30
0.0
 10
-65.6320842105
 20
0.0819217656
 30
0.0
 10
-65.7808249994
 20
-0.1283927669
 30
0.0
 10
-66.0092705424
 20
-0.1750515674
 30
0.0
 10
-66.1320842105
 20
-0.1750515674
 30
0.0
  0
SPLINE
  5
313
100
AcDbEntity
  8
RACCORDO
100
AcDbSpline
 62
250
  6
CONTINUOUS
 70
0
 71
3
 72
9
 73
5
 74
0
 42
0.0000001
 43
0.0000001
 44
0.0000000001
 40
0.0
 40
0.0
 40
0.0
 40
0.0
 40
0.4967212143
 40
1.0
 40
1.0
 40
1.0
 40
1.0
 10
-65.6320842105
 20
-11.086430958
 30
0.0
 10
-65.6320842105
 20
-11.0966933187
 30
0.0
 10
-65.6334234915
 20
-11.1173729547
 30
0.0
 10
-65.6373109241
 20
-11.1377214251
 30
0.0
 10
-65.6398584852
 20
-11.1478023496
 30
0.0
  0
SPLINE
  5
314
100
AcDbEntity
  8
RACCORDO
100
AcDbSpline
 62
250
  6
CONTINUOUS
 70
0
 71
3
 72
9
 73
5
 74
0
 42
0.0000001
 43
0.0000001
 44
0.0000000001
 40
0.0
 40
0.0
 40
0.0
 40
0.0
 40
0.2175788567
 40
1.0
 40
1.0
 40
1.0
 40
1.0
 10
-65.6398584852
 20
-11.1478023496
 30
0.0
 10
-65.6504748395
 20
-11.1898122018
 30
0.0
 10
-65.7484416866
 20
-11.3712514492
 30
0.0
 10
-65.9762661232
 20
-11.4399843486
 30
0.0
 10
-66.1320842105
 20
-11.4399843486
 30
0.0
  0
SPLINE
  5
315
100
AcDbEntity
  8
RACCORDO
100
AcDbSpline
 62
250
  6
CONTINUOUS
 70
0
 71
3
 72
9
 73
5
 74
0
 42
0.0000001
 43
0.0000001
 44
0.0000000001
 40
0.0
 40
0.0
 40
0.0
 40
0.0
 40
0.4984806969
 40
1.0
 40
1.0
 40
1.0
 40
1.0
 10
-65.6320842105
 20
-12.3659523188
 30
0.0
 10
-65.6320842105
 20
-12.4925905808
 30
0.0
 10
-65.7397231219
 20
-12.7570416616
 30
0.0
 10
-66.0046739953
 20
-12.8616747495
 30
0.0
 10
-66.1320842105
 20
-12.8616747495
 30
0.0
  0
SPLINE
  5
316
100
AcDbEntity
  8
RACCORDO
100
AcDbSpline
 62
250
  6
CONTINUOUS
 70
0
 71
3
 72
8
 73
4
 74
0
 42
0.0000001
 43
0.0000001
 44
0.0000000001
 40
0.0
 40
0.0
 40
0.0
 40
0.0
 40
1.0
 40
1.0
 40
1.0
 40
1.0
 10
-65.6320842105
 20
-13.3050928901
 30
0.0
 10
-65.6320842105
 20
-13.3389595331
 30
0.0
 10
-65.6357744572
 20
-13.3729958174
 30
0.0
 10
-65.6427961597
 20
-13.4061265463
 30
0.0
  0
SPLINE
  5
317
100
AcDbEntity
  8
RACCORDO
100
AcDbSpline
 62
250
  6
CONTINUOUS
 70
0
 71
3
 72
8
 73
4
 74
0
 42
0.0000001
 43
0.0000001
 44
0.0000000001
 40
0.0
 40
0.0
 40
0.0
 40
0.0
 40
1.0
 40
1.0
 40
1.0
 40
1.0
 10
-65.6427961597
 20
-13.4061265463
 30
0.0
 10
-65.6536634018
 20
-13.4574018105
 30
0.0
 10
-65.6727904329
 20
-13.5076048527
 30
0.0
 10
-65.6990715086
 20
-13.5529541055
 30
0.0
  0
SPLINE
  5
318
100
AcDbEntity
  8
RACCORDO
100
AcDbSpline
 62
250
  6
CONTINUOUS
 70
0
 71
3
 72
8
 73
4
 74
0
 42
0.0000001
 43
0.0000001
 44
0.0000000001
 40
0.0
 40
0.0
 40
0.0
 40
0.0
 40
1.0
 40
1.0
 40
1.0
 40
1.0
 10
-65.6990715086
 20
-13.5529541055
 30
0.0
 10
-65.7824618895
 20
-13.6968481952
 30
0.0
 10
-65.9657728619
 20
-13.8008153208
 30
0.0
 10
-66.1320842105
 20
-13.8008153208
 30
0.0
  0
SPLINE
  5
319
100
AcDbEntity
  8
RACCORDO
100
AcDbSpline
 62
250
  6
CONTINUOUS
 70
0
 71
3
 72
9
 73
5
 74
0
 42
0.0000001
 43
0.0000001
 44
0.0000000001
 40
0.0
 40
0.0
 40
0.0
 40
0.0
 40
0.2203201502
 40
1.0
 40
1.0
 40
1.0
 40
1.0
 10
-83.9320842105
 20
0.7788675868
 30
0.0
 10
-83.9320842105
 20
0.8177395529
 30
0.0
 10
-83.976182652
 20
0.9959555406
 30
0.0
 10
-84.1675172282
 20
1.0947658308
 30
0.0
 10
-84.302674688
 20
1.1203739378
 30
0.0
  0
SPLINE
  5
31A
100
AcDbEntity
  8
RACCORDO
100
AcDbSpline
 62
250
  6
CONTINUOUS
 70
0
 71
3
 72
9
 73
5
 74
0
 42
0.0000001
 43
0.0000001
 44
0.0000000001
 40
0.0
 40
0.0
 40
0.0
 40
0.0
 40
0.2203201501
 40
1.0
 40
1.0
 40
1.0
 40
1.0
 10
-83.9320842105
 20
-0.7788675868
 30
0.0
 10
-83.9320842105
 20
-0.8177395529
 30
0.0
 10
-83.9761826519
 20
-0.995955541
 30
0.0
 10
-84.1675172287
 20
-1.0947658278
 30
0.0
 10
-84.302674688
 20
-1.1203739378
 30
0.0
  0
SPLINE
  5
31B
100
AcDbEntity
  8
RACCORDO
100
AcDbSpline
 62
250
  6
CONTINUOUS
 70
0
 71
3
 72
9
 73
5
 74
0
 42
0.0000001
 43
0.0000001
 44
0.0000000001
 40
0.0
 40
0.0
 40
0.0
 40
0.0
 40
0.2203201476
 40
1.0
 40
1.0
 40
1.0
 40
1.0
 10
-83.9320842105
 20
-16.1428286175
 30
0.0
 10
-83.9320842105
 20
-16.1817005831
 30
0.0
 10
-83.9761826513
 20
-16.3599165854
 30
0.0
 10
-84.1675172491
 20
-16.4587267498
 30
0.0
 10
-84.302674688
 20
-16.4843349684
 30
0.0
  0
SPLINE
  5
31C
100
AcDbEntity
  8
RACCORDO
100
AcDbSpline
 62
250
  6
CONTINUOUS
 70
0
 71
3
 72
9
 73
5
 74
0
 42
0.0000001
 43
0.0000001
 44
0.0000000001
 40
0.0
 40
0.0
 40
0.0
 40
0.0
 40
0.2203201502
 40
1.0
 40
1.0
 40
1.0
 40
1.0
 10
-83.9320842105
 20
16.1428286175
 30
0.0
 10
-83.9320842105
 20
16.1817005836
 30
0.0
 10
-83.976182652
 20
16.3599165713
 30
0.0
 10
-84.1675172282
 20
16.4587268615
 30
0.0
 10
-84.302674688
 20
16.4843349684
 30
0.0
  0
SPLINE
  5
31D
100
AcDbEntity
  8
RACCORDO
100
AcDbSpline
 62
250
  6
CONTINUOUS
 70
0
 71
3
 72
9
 73
5
 74
0
 42
0.0000001
 43
0.0000001
 44
0.0000000001
 40
0.0
 40
0.0
 40
0.0
 40
0.0
 40
0.439940101
 40
1.0
 40
1.0
 40
1.0
 40
1.0
 10
-105.6320842105
 20
3.2962788776
 30
0.0
 10
-105.6320842105
 20
3.3940072794
 30
0.0
 10
-105.47965686
 20
3.606424591
 30
0.0
 10
-105.2477603751
 20
3.6513138683
 30
0.0
 10
-105.1233580073
 20
3.6497784203
 30
0.0
  0
SPLINE
  5
31E
100
AcDbEntity
  8
RACCORDO
100
AcDbSpline
 62
250
  6
CONTINUOUS
 70
0
 71
3
 72
9
 73
5
 74
0
 42
0.0000001
 43
0.0000001
 44
0.0000000001
 40
0.0
 40
0.0
 40
0.0
 40
0.0
 40
0.439940101
 40
1.0
 40
1.0
 40
1.0
 40
1.0
 10
-105.6320842105
 20
-3.2962788776
 30
0.0
 10
-105.6320842105
 20
-3.3940072794
 30
0.0
 10
-105.47965686
 20
-3.606424591
 30
0.0
 10
-105.2477603751
 20
-3.6513138683
 30
0.0
 10
-105.1233580073
 20
-3.6497784203
 30
0.0
  0
SPLINE
  5
31F
100
AcDbEntity
  8
RACCORDO
100
AcDbSpline
 62
250
  6
CONTINUOUS
 70
0
 71
3
 72
9
 73
5
 74
0
 42
0.0000001
 43
0.0000001
 44
0.0000000001
 40
0.0
 40
0.0
 40
0.0
 40
0.0
 40
0.439940101
 40
1.0
 40
1.0
 40
1.0
 40
1.0
 10
-105.6320842105
 20
-18.6602399083
 30
0.0
 10
-105.6320842105
 20
-18.75796831
 30
0.0
 10
-105.47965686
 20
-18.9703856217
 30
0.0
 10
-105.2477603751
 20
-19.015274899
 30
0.0
 10
-105.1233580073
 20
-19.013739451
 30
0.0
  0
SPLINE
  5
320
100
AcDbEntity
  8
RACCORDO
100
AcDbSpline
 62
250
  6
CONTINUOUS
 70
0
 71
3
 72
9
 73
5
 74
0
 42
0.0000001
 43
0.0000001
 44
0.0000000001
 40
0.0
 40
0.0
 40
0.0
 40
0.0
 40
0.4399401011
 40
1.0
 40
1.0
 40
1.0
 40
1.0
 10
-105.6320842105
 20
18.6602399083
 30
0.0
 10
-105.6320842105
 20
18.75796831
 30
0.0
 10
-105.4796568596
 20
18.9703856196
 30
0.0
 10
-105.2477603749
 20
19.015274903
 30
0.0
 10
-105.1233580073
 20
19.013739451
 30
0.0
  0
SPLINE
  5
321
100
AcDbEntity
  8
RACCORDO
100
AcDbSpline
 62
250
  6
CONTINUOUS
 70
0
 71
3
 72
10
 73
6
 74
0
 42
0.0000001
 43
0.0000001
 44
0.0000000001
 40
0.0
 40
0.0
 40
0.0
 40
0.0
 40
0.0886207655
 40
0.2982101773
 40
1.0
 40
1.0
 40
1.0
 40
1.0
 10
-65.6320842105
 20
9.9065953304
 30
0.0
 10
-65.6320842105
 20
9.894083038
 30
0.0
 10
-65.6854588538
 20
9.8760630409
 30
0.0
 10
-65.8074734614
 20
9.8521122323
 30
0.0
 10
-65.9462337747
 20
9.8446574344
 30
0.0
 10
-66.0452919564
 20
9.8423469807
 30
0.0
  0
ENDSEC
  0
SECTION
  2
OBJECTS
  0
DICTIONARY
  5
C
100
AcDbDictionary
280
0
281
1
  3
ACAD_GROUP
350
D
  3
ACAD_MLINESTYLE
350
17
  3
ACAD_LAYOUT
350
1A
  3
ACAD_PLOTSETTINGS
350
19
  3
ACAD_PLOTSTYLENAME
350
E
  0
DICTIONARY
  5
D
102
{ACAD_REACTORS
330
C
102
}
100
AcDbDictionary
280
0
281
1
  0
ACDBDICTIONARYWDFLT
  5
E
102
{ACAD_REACTORS
330
C
102
}
100
AcDbDictionary
281
1
  3
Normal
350
F
100
AcDbDictionaryWithDefault
340
F
  0
DICTIONARY
  5
17
102
{ACAD_REACTORS
330
C
102
}
100
AcDbDictionary
280
0
281
1
  3
Standard
350
18
  0
DICTIONARY
  5
19
102
{ACAD_REACTORS
330
C
102
}
100
AcDbDictionary
281
1
  0
DICTIONARY
  5
1A
102
{ACAD_REACTORS
330
C
102
}
100
AcDbDictionary
281
1
  3
Model
350
322
  3
Layout1
350
323
  0
ACDBPLACEHOLDER
  5
F
102
{ACAD_REACTORS
330
E
102
}
  0
MLINESTYLE
  5
18
102
{ACAD_REACTORS
330
17
102
}
100
AcDbMlineStyle
  2
STANDARD
 70
0
  3

 62
256
 51
90.0
 52
90.0
 71
2
 49
0.5
 62
256
  6
BYLAYER
 49
-0.5
 62
256
  6
BYLAYER
  0
LAYOUT
  5
322
102
{ACAD_REACTORS
330
1A
102
}
100
AcDbPlotSettings
  1

  2
none_device
  4
ANSI_C_(22.00_x_17.00_Inches)
  6

 40
0.0
 41
0.0
 42
0.0
 43
0.0
 44
558.8
 45
431.8
 46
0.0
 47
0.0
 48
0.0
 49
0.0
140
0.0
141
0.0
142
1.0
143
1.0
 70
1024
 72
1
 73
0
 74
0
  7

 75
0
147
1.0
148
0.0
149
0.0
100
AcDbLayout
  1
Model
 70
0
 71
0
 10
0.0
 20
0.0
 11
558.8
 21
431.8
 12
0.0
 22
0.0
 32
0.0
 14
0.0
 24
0.0
 34
0.0
 15
0.0
 25
0.0
 35
0.0
146
0.0
 13
0.0
 23
0.0
 33
0.0
 16
1.0
 26
0.0
 36
0.0
 17
0.0
 27
1.0
 37
0.0
 76
0
330
214
345
0
346
0
  0
LAYOUT
  5
323
102
{ACAD_REACTORS
330
1A
102
}
100
AcDbPlotSettings
  1

  2
none_device
  4
ANSI_C_(22.00_x_17.00_Inches)
  6

 40
0.0
 41
0.0
 42
0.0
 43
0.0
 44
558.8
 45
431.8
 46
0.0
 47
0.0
 48
0.0
 49
0.0
140
0.0
141
0.0
142
1.0
143
1.0
 70
0
 72
1
 73
0
 74
0
  7

 75
0
147
1.0
148
0.0
149
0.0
100
AcDbLayout
  1
Layout1
 70
0
 71
1
 10
0.0
 20
0.0
 11
558.8
 21
431.8
 12
0.0
 22
0.0
 32
0.0
 14
0.0
 24
0.0
 34
0.0
 15
0.0
 25
0.0
 35
0.0
146
0.0
 13
0.0
 23
0.0
 33
0.0
 16
1.0
 26
0.0
 36
0.0
 17
0.0
 27
1.0
 37
0.0
 76
0
330
215
345
0
346
0
  0
ENDSEC
  0
EOF
