  0
SECTION
  2
HEADER
  9
$ACADVER
  1
AC1015
  9
$DWGCODEPAGE
  3
ANSI_1252
  9
$EXTMAX
 10
297.0
 20
210.0
 30
0.0
  9
$EXTMIN
 10
0.0
 20
0.0
 30
0.0
  9
$LIMMIN
 10
0.0
 20
0.0
  9
$LIMMAX
 10
297.0
 20
210.0
  9
$VIEWCTR
 10
148.5
 20
105.0
  9
$VIEWSIZE
 40
210.0
  9
$CLAYER
  8
0
  9
$LTSCALE
 40
16.335
  9
$CELTYPE
  6
BYLAYER
  9
$DIMSCALE
 40
1.0
  9
$DIMASZ
 40
3.0
  9
$DIMEXO
 40
1.85625
  9
$DIMDLI
 40
11.286
  9
$DIMEXE
 40
5.346
  9
$DIMCEN
 40
2.673
  9
$DIMLFAC
 40
1.0
  9
$DIMBLK
  1
_FILLED
  9
$DIMTXT
 40
3.0
  9
$DIMTOL
 70
1
  9
$DIMLIM
 70
0
  9
$DIMTFAC
 40
1.0
  9
$DIMTP
 40
0.01
  9
$DIMTM
 40
0.01
  9
$PDMODE
 70
3
  9
$PDSIZE
 40
3.0
  9
$HANDSEED
  5
40C
  9
$TILEMODE
 70
1
  9
$MEASUREMENT
 70
1
  9
$INSUNITS
 70
4
  0
ENDSEC
  0
SECTION
  2
CLASSES
  0
CLASS
  1
ACDBDICTIONARYWDFLT
  2
AcDbDictionaryWithDefault
  3
AutoCAD 2000
 90
0
280
0
281
0
  0
CLASS
  1
ACDBPLACEHOLDER
  2
AcDbPlaceHolder
  3
AutoCAD 2000
 90
0
280
0
281
0
  0
CLASS
  1
LAYOUT
  2
AcDbLayout
  3
AutoCAD 2000
 90
0
280
0
281
0
  0
ENDSEC
  0
SECTION
  2
TABLES
  0
TABLE
  2
VPORT
  5
8
100
AcDbSymbolTable
 70
2
  0
VPORT
  5
1F4
100
AcDbSymbolTableRecord
100
AcDbViewportTableRecord
  2
*ACTIVE
 70
0
 10
0.0
 20
0.0
 11
1.0
 21
1.0
 12
148.5
 22
105.0
 13
0.0
 23
0.0
 14
1.0
 24
1.0
 15
0.0
 25
0.0
 16
0.0
 26
0.0
 36
1.0
 17
0.0
 27
0.0
 37
0.0
 40
210.0
 41
1.4142857143
 42
50.0
 43
0.0
 44
0.0
 50
0.0
 51
0.0
 71
0
 72
100
 73
1
 74
1
 75
0
 76
0
 77
0
 78
0
  0
ENDTAB
  0
TABLE
  2
LTYPE
  5
5
100
AcDbSymbolTable
 70
6
  0
LTYPE
  5
14
100
AcDbSymbolTableRecord
100
AcDbLinetypeTableRecord
  2
BYBLOCK
 70
0
  3

 72
65
 73
0
 40
0.0
  0
LTYPE
  5
15
100
AcDbSymbolTableRecord
100
AcDbLinetypeTableRecord
  2
BYLAYER
 70
0
  3

 72
65
 73
0
 40
0.0
  0
LTYPE
  5
16
100
AcDbSymbolTableRecord
100
AcDbLinetypeTableRecord
  2
CONTINUOUS
 70
64
  3
Solid line
 72
65
 73
0
 40
0.0
  0
LTYPE
  5
1F5
100
AcDbSymbolTableRecord
100
AcDbLinetypeTableRecord
  2
CENTER
 70
64
  3
____ _ ____ _ ____ _ ____ _ ____ _ ____ _ ____
 72
65
 73
4
 40
0.6
 49
0.375
 74
0
 49
-0.075
 74
0
 49
0.075
 74
0
 49
-0.075
 74
0
  0
LTYPE
  5
1F6
100
AcDbSymbolTableRecord
100
AcDbLinetypeTableRecord
  2
HIDDEN
 70
64
  3
- - - - - - - - - - - - - - - - - - - -
 72
65
 73
2
 40
0.2
 49
0.1
 74
0
 49
-0.1
 74
0
  0
LTYPE
  5
1F7
100
AcDbSymbolTableRecord
100
AcDbLinetypeTableRecord
  2
PHANTOM
 70
64
  3
_____ _ _ _____ _ _ _____ _ _ _____
 72
65
 73
6
 40
0.8
 49
0.45
 74
0
 49
-0.05
 74
0
 49
0.1
 74
0
 49
-0.05
 74
0
 49
0.1
 74
0
 49
-0.05
 74
0
  0
LTYPE
  5
1F8
100
AcDbSymbolTableRecord
100
AcDbLinetypeTableRecord
  2
DOT
 70
64
  3
. . . . . . . . . . . . . . . . . . . .
 72
65
 73
2
 40
0.2
 49
0.1
 74
0
 49
-0.1
 74
0
  0
LTYPE
  5
1F9
100
AcDbSymbolTableRecord
100
AcDbLinetypeTableRecord
  2
DASHED
 70
64
  3
- - - - - - - - - - - - - - - - - - - -
 72
65
 73
2
 40
0.2
 49
0.1
 74
0
 49
-0.1
 74
0
  0
ENDTAB
  0
TABLE
  2
LAYER
  5
2
100
AcDbSymbolTable
 70
36
  0
LAYER
  5
10
100
AcDbSymbolTableRecord
100
AcDbLayerTableRecord
  2
0
 70
0
 62
7
  6
CONTINUOUS
370
-3
390
F
  0
LAYER
  5
1FA
100
AcDbSymbolTableRecord
100
AcDbLayerTableRecord
  2
DEFAULT_1
 70
0
 62
7
  6
CENTER
370
-3
390
F
  0
LAYER
  5
1FB
100
AcDbSymbolTableRecord
100
AcDbLayerTableRecord
  2
DEFAULT_2
 70
0
 62
7
  6
HIDDEN
370
-3
390
F
  0
LAYER
  5
1FC
100
AcDbSymbolTableRecord
100
AcDbLayerTableRecord
  2
DEFAULT_3
 70
0
 62
7
  6
PHANTOM
370
-3
390
F
  0
LAYER
  5
1FD
100
AcDbSymbolTableRecord
100
AcDbLayerTableRecord
  2
ASSI
 70
0
 62
7
  6
CONTINUOUS
370
-3
390
F
  0
LAYER
  5
1FE
100
AcDbSymbolTableRecord
100
AcDbLayerTableRecord
  2
COORDINATE
 70
0
 62
7
  6
CONTINUOUS
370
-3
390
F
  0
LAYER
  5
1FF
100
AcDbSymbolTableRecord
100
AcDbLayerTableRecord
  2
COORD_ORIGINE
 70
0
 62
7
  6
CONTINUOUS
370
-3
390
F
  0
LAYER
  5
200
100
AcDbSymbolTableRecord
100
AcDbLayerTableRecord
  2
COPY_PUBLISH
 70
0
 62
7
  6
CONTINUOUS
370
-3
390
F
  0
LAYER
  5
201
100
AcDbSymbolTableRecord
100
AcDbLayerTableRecord
  2
COSMETIC
 70
0
 62
7
  6
CONTINUOUS
370
-3
390
F
  0
LAYER
  5
202
100
AcDbSymbolTableRecord
100
AcDbLayerTableRecord
  2
CURVE
 70
0
 62
7
  6
CONTINUOUS
370
-3
390
F
  0
LAYER
  5
203
100
AcDbSymbolTableRecord
100
AcDbLayerTableRecord
  2
DRAFT
 70
0
 62
7
  6
CONTINUOUS
370
-3
390
F
  0
LAYER
  5
204
100
AcDbSymbolTableRecord
100
AcDbLayerTableRecord
  2
IMPORT_IGES
 70
0
 62
7
  6
CONTINUOUS
370
-3
390
F
  0
LAYER
  5
205
100
AcDbSymbolTableRecord
100
AcDbLayerTableRecord
  2
NOTE
 70
0
 62
7
  6
CONTINUOUS
370
-3
390
F
  0
LAYER
  5
206
100
AcDbSymbolTableRecord
100
AcDbLayerTableRecord
  2
PIANI
 70
0
 62
7
  6
CONTINUOUS
370
-3
390
F
  0
LAYER
  5
207
100
AcDbSymbolTableRecord
100
AcDbLayerTableRecord
  2
PIANI_ORIGINE
 70
0
 62
7
  6
CONTINUOUS
370
-3
390
F
  0
LAYER
  5
208
100
AcDbSymbolTableRecord
100
AcDbLayerTableRecord
  2
PUNTI
 70
0
 62
7
  6
CONTINUOUS
370
-3
390
F
  0
LAYER
  5
209
100
AcDbSymbolTableRecord
100
AcDbLayerTableRecord
  2
RACCORDO
 70
0
 62
7
  6
CONTINUOUS
370
-3
390
F
  0
LAYER
  5
20A
100
AcDbSymbolTableRecord
100
AcDbLayerTableRecord
  2
SMUSSO
 70
0
 62
7
  6
CONTINUOUS
370
-3
390
F
  0
LAYER
  5
20B
100
AcDbSymbolTableRecord
100
AcDbLayerTableRecord
  2
SNAPLINE
 70
0
 62
7
  6
CONTINUOUS
370
-3
390
F
  0
LAYER
  5
20C
100
AcDbSymbolTableRecord
100
AcDbLayerTableRecord
  2
SUPERFICI
 70
0
 62
7
  6
CONTINUOUS
370
-3
390
F
  0
LAYER
  5
20D
100
AcDbSymbolTableRecord
100
AcDbLayerTableRecord
  2
TRASH
 70
0
 62
7
  6
CONTINUOUS
370
-3
390
F
  0
LAYER
  5
20E
100
AcDbSymbolTableRecord
100
AcDbLayerTableRecord
  2
XSEC_DATUMS
 70
0
 62
7
  6
CONTINUOUS
370
-3
390
F
  0
ENDTAB
  0
TABLE
  2
STYLE
  5
3
100
AcDbSymbolTable
 70
1
  0
STYLE
  5
11
100
AcDbSymbolTableRecord
100
AcDbTextStyleTableRecord
  2
STANDARD
 70
0
 40
0.0
 41
0.8
 50
0.0
 71
0
 42
0.2
  3
txt
  4

  0
STYLE
  5
20F
100
AcDbSymbolTableRecord
100
AcDbTextStyleTableRecord
  2
TEXTSTYLE_1
 70
0
 40
0.0
 41
0.8
 50
0.0
 71
0
 42
0.2
  3
gdt
  4

  0
ENDTAB
  0
TABLE
  2
VIEW
  5
6
100
AcDbSymbolTable
 70
0
  0
ENDTAB
  0
TABLE
  2
UCS
  5
7
100
AcDbSymbolTable
 70
0
  0
ENDTAB
  0
TABLE
  2
APPID
  5
9
100
AcDbSymbolTable
 70
1
  0
APPID
  5
210
100
AcDbSymbolTableRecord
100
AcDbRegAppTableRecord
  2
ACAD
 70
0
  0
ENDTAB
  0
TABLE
  2
BLOCK_RECORD
  5
1
100
AcDbSymbolTable
 70
0
  0
BLOCK_RECORD
  5
211
100
AcDbSymbolTableRecord
100
AcDbBlockTableRecord
  2
*Model_Space
  0
BLOCK_RECORD
  5
212
100
AcDbSymbolTableRecord
100
AcDbBlockTableRecord
  2
*Paper_Space
  0
BLOCK_RECORD
  5
213
100
AcDbSymbolTableRecord
100
AcDbBlockTableRecord
  2
_FILLED
  0
BLOCK_RECORD
  5
214
100
AcDbSymbolTableRecord
100
AcDbBlockTableRecord
  2
_NONE
  0
BLOCK_RECORD
  5
215
100
AcDbSymbolTableRecord
100
AcDbBlockTableRecord
  2
*D0
  0
BLOCK_RECORD
  5
216
100
AcDbSymbolTableRecord
100
AcDbBlockTableRecord
  2
*D1
  0
BLOCK_RECORD
  5
217
100
AcDbSymbolTableRecord
100
AcDbBlockTableRecord
  2
*D2
  0
BLOCK_RECORD
  5
218
100
AcDbSymbolTableRecord
100
AcDbBlockTableRecord
  2
*D3
  0
BLOCK_RECORD
  5
219
100
AcDbSymbolTableRecord
100
AcDbBlockTableRecord
  2
*D4
  0
BLOCK_RECORD
  5
21A
100
AcDbSymbolTableRecord
100
AcDbBlockTableRecord
  2
*D5
  0
BLOCK_RECORD
  5
21B
100
AcDbSymbolTableRecord
100
AcDbBlockTableRecord
  2
*D6
  0
BLOCK_RECORD
  5
21C
100
AcDbSymbolTableRecord
100
AcDbBlockTableRecord
  2
*D7
  0
BLOCK_RECORD
  5
21D
100
AcDbSymbolTableRecord
100
AcDbBlockTableRecord
  2
*D8
  0
ENDTAB
  0
TABLE
  2
DIMSTYLE
  5
A
100
AcDbSymbolTable
 70
1
100
AcDbDimStyleTable
 71
0
  0
DIMSTYLE
105
21E
100
AcDbSymbolTableRecord
100
AcDbDimStyleTableRecord
  2
STANDARD
 70
0
  3

  4

 40
1.0
 41
3.0
 42
0.0625
 43
0.38
 44
0.18
 45
0.0
 46
0.0
 47
0.01
 48
0.01
140
3.0
141
0.09
142
0.0
143
25.4
144
1.0
145
0.0
146
1.0
147
0.09
 71
1.0
 72
0.0
 73
0
 74
0
 75
0
 76
0
 77
1
 78
8
170
0
171
2
172
0
173
0
174
0
175
0
176
0
177
0
178
0
270
2
271
2
272
2
273
2
274
2
275
0
280
0
281
0
282
0
283
1
284
8
285
0
286
0
287
3
288
0
340
11
341
213
342
213
343
213
344
213
  0
DIMSTYLE
105
21F
100
AcDbSymbolTableRecord
100
AcDbDimStyleTableRecord
  2
DIMSTYLE_1
 70
0
  3

  4

 40
1.0
 41
3.0
 42
0.0625
 43
0.38
 44
0.18
 45
0.0
 46
0.0
 47
0.0
 48
0.0
140
3.0
141
0.09
142
0.0
143
25.4
144
1.0
145
0.0
146
1.0
147
0.09
 71
0.0
 72
0.0
 73
0
 74
0
 75
0
 76
0
 77
1
 78
8
170
0
171
2
172
0
173
0
174
0
175
0
176
0
177
0
178
0
270
2
271
2
272
2
273
2
274
2
275
0
280
0
281
0
282
0
283
1
284
8
285
0
286
0
287
3
288
0
340
11
341
213
342
213
343
213
344
213
  0
ENDTAB
  0
ENDSEC
  0
SECTION
  2
BLOCKS
  0
BLOCK
  5
20
100
AcDbEntity
  8
0
100
AcDbBlockBegin
  2
*Model_Space
 70
0
 10
0.0
 20
0.0
 30
0.0
  3
*Model_Space
  1

  0
ENDBLK
  5
21
100
AcDbEntity
  8
0
100
AcDbBlockEnd
  0
BLOCK
  5
1C
100
AcDbEntity
  8
0
100
AcDbBlockBegin
  2
*Paper_Space
 70
0
 10
0.0
 20
0.0
 30
0.0
  3
*Paper_Space
  1

  0
ENDBLK
  5
1D
100
AcDbEntity
  8
0
100
AcDbBlockEnd
  0
BLOCK
  5
220
100
AcDbEntity
  8
0
100
AcDbBlockBegin
  2
_FILLED
 70
64
 10
0.0
 20
0.0
  3
_FILLED
  1

  0
SOLID
  5
221
100
AcDbEntity
  8
0
  6
BYBLOCK
 62
0
100
AcDbTrace
 10
0.0
 20
0.0
 11
-1.0
 21
0.3166666667
 12
-1.0
 22
-0.3166666667
 13
-1.0
 23
-0.3166666667
  0
ENDBLK
  5
222
100
AcDbEntity
  8
0
  6
BYBLOCK
 62
0
100
AcDbBlockEnd
  0
BLOCK
  5
223
100
AcDbEntity
  8
0
100
AcDbBlockBegin
  2
_NONE
 70
64
 10
0.0
 20
0.0
  3
_NONE
  1

  0
ENDBLK
  5
224
100
AcDbEntity
  8
0
  6
BYBLOCK
 62
0
100
AcDbBlockEnd
  0
BLOCK
  5
225
100
AcDbEntity
  8
0
100
AcDbBlockBegin
 62
7
  6
CONTINUOUS
  2
*D0
 70
65
 10
0.0
 20
0.0
  3
*D0
  1

  0
MTEXT
  5
226
100
AcDbEntity
  8
0
100
AcDbMText
 62
7
  6
CONTINUOUS
  7
STANDARD
 71
2
 72
1
 10
0.0
 20
111.25
 30
0.0
 11
1.0
 21
0.0
 31
0.0
 44
0.9
  1
376
 40
3.0
 41
6.8571428571
  0
LINE
  5
227
100
AcDbEntity
  8
0
100
AcDbLine
 62
7
  6
CONTINUOUS
 10
-188.0
 20
70.0
 11
-188.0
 21
109.0
  0
LINE
  5
228
100
AcDbEntity
  8
0
100
AcDbLine
 62
7
  6
CONTINUOUS
 10
188.0
 20
70.0
 11
188.0
 21
109.0
  0
LINE
  5
229
100
AcDbEntity
  8
0
100
AcDbLine
 62
7
  6
CONTINUOUS
 10
-188.0
 20
107.5
 11
0.0
 21
107.5
  0
LINE
  5
22A
100
AcDbEntity
  8
0
100
AcDbLine
 62
7
  6
CONTINUOUS
 10
188.0
 20
107.5
 11
0.0
 21
107.5
  0
INSERT
  5
22B
100
AcDbEntity
  8
0
100
AcDbBlockReference
 62
7
  6
CONTINUOUS
  2
_FILLED
 10
-188.0
 20
107.5
 41
3.0
 42
3.0
 43
3.0
 50
180.0
  0
INSERT
  5
22C
100
AcDbEntity
  8
0
100
AcDbBlockReference
 62
7
  6
CONTINUOUS
  2
_FILLED
 10
188.0
 20
107.5
 41
3.0
 42
3.0
 43
3.0
  0
ENDBLK
  5
22D
100
AcDbEntity
  8
0
  6
BYBLOCK
 62
0
100
AcDbBlockEnd
  0
BLOCK
  5
22E
100
AcDbEntity
  8
0
100
AcDbBlockBegin
 62
7
  6
CONTINUOUS
  2
*D1
 70
65
 10
0.0
 20
0.0
  3
*D1
  1

  0
MTEXT
  5
22F
100
AcDbEntity
  8
0
100
AcDbMText
 62
7
  6
CONTINUOUS
  7
STANDARD
 71
2
 72
1
 10
-94.0
 20
101.25
 30
0.0
 11
1.0
 21
0.0
 31
0.0
 44
0.9
  1
188
 40
3.0
 41
6.4285714286
  0
LINE
  5
230
100
AcDbEntity
  8
0
100
AcDbLine
 62
7
  6
CONTINUOUS
 10
-188.0
 20
70.0
 11
-188.0
 21
99.0
  0
LINE
  5
231
100
AcDbEntity
  8
0
100
AcDbLine
 62
7
  6
CONTINUOUS
 10
0.0
 20
70.0
 11
0.0
 21
99.0
  0
LINE
  5
232
100
AcDbEntity
  8
0
100
AcDbLine
 62
7
  6
CONTINUOUS
 10
-188.0
 20
97.5
 11
-94.0
 21
97.5
  0
LINE
  5
233
100
AcDbEntity
  8
0
100
AcDbLine
 62
7
  6
CONTINUOUS
 10
0.0
 20
97.5
 11
-94.0
 21
97.5
  0
INSERT
  5
234
100
AcDbEntity
  8
0
100
AcDbBlockReference
 62
7
  6
CONTINUOUS
  2
_FILLED
 10
-188.0
 20
97.5
 41
3.0
 42
3.0
 43
3.0
 50
180.0
  0
INSERT
  5
235
100
AcDbEntity
  8
0
100
AcDbBlockReference
 62
7
  6
CONTINUOUS
  2
_FILLED
 10
0.0
 20
97.5
 41
3.0
 42
3.0
 43
3.0
  0
ENDBLK
  5
236
100
AcDbEntity
  8
0
  6
BYBLOCK
 62
0
100
AcDbBlockEnd
  0
BLOCK
  5
237
100
AcDbEntity
  8
0
100
AcDbBlockBegin
 62
7
  6
CONTINUOUS
  2
*D2
 70
65
 10
0.0
 20
0.0
  3
*D2
  1

  0
MTEXT
  5
238
100
AcDbEntity
  8
0
100
AcDbMText
 62
7
  6
CONTINUOUS
  7
STANDARD
 71
2
 72
1
 10
212.25
 20
-0.0
 30
0.0
 11
0.0
 21
1.0
 31
0.0
 44
0.9
  1
139
 40
3.0
 41
6.2142857143
  0
LINE
  5
239
100
AcDbEntity
  8
0
100
AcDbLine
 62
7
  6
CONTINUOUS
 10
188.5
 20
69.5
 11
217.5
 21
69.5
  0
LINE
  5
23A
100
AcDbEntity
  8
0
100
AcDbLine
 62
7
  6
CONTINUOUS
 10
188.5
 20
-69.5
 11
217.5
 21
-69.5
  0
LINE
  5
23B
100
AcDbEntity
  8
0
100
AcDbLine
 62
7
  6
CONTINUOUS
 10
216.0
 20
69.5
 11
216.0
 21
-0.0
  0
LINE
  5
23C
100
AcDbEntity
  8
0
100
AcDbLine
 62
7
  6
CONTINUOUS
 10
216.0
 20
-69.5
 11
216.0
 21
-0.0
  0
INSERT
  5
23D
100
AcDbEntity
  8
0
100
AcDbBlockReference
 62
7
  6
CONTINUOUS
  2
_FILLED
 10
216.0
 20
69.5
 41
3.0
 42
3.0
 43
3.0
 50
90.0
  0
INSERT
  5
23E
100
AcDbEntity
  8
0
100
AcDbBlockReference
 62
7
  6
CONTINUOUS
  2
_FILLED
 10
216.0
 20
-69.5
 41
3.0
 42
3.0
 43
3.0
 50
270.0
  0
ENDBLK
  5
23F
100
AcDbEntity
  8
0
  6
BYBLOCK
 62
0
100
AcDbBlockEnd
  0
BLOCK
  5
240
100
AcDbEntity
  8
0
100
AcDbBlockBegin
 62
7
  6
CONTINUOUS
  2
*D3
 70
65
 10
0.0
 20
0.0
  3
*D3
  1

  0
MTEXT
  5
241
100
AcDbEntity
  8
0
100
AcDbMText
 62
7
  6
CONTINUOUS
  7
STANDARD
 71
2
 72
1
 10
0.0
 20
121.25
 30
0.0
 11
1.0
 21
0.0
 31
0.0
 44
0.9
  1
416
 40
3.0
 41
6.4285714286
  0
LINE
  5
242
100
AcDbEntity
  8
0
100
AcDbLine
 62
7
  6
CONTINUOUS
 10
-208.0
 20
80.0
 11
-208.0
 21
119.0
  0
LINE
  5
243
100
AcDbEntity
  8
0
100
AcDbLine
 62
7
  6
CONTINUOUS
 10
208.0
 20
79.9999999735
 11
208.0
 21
119.0
  0
LINE
  5
244
100
AcDbEntity
  8
0
100
AcDbLine
 62
7
  6
CONTINUOUS
 10
-208.0
 20
117.5
 11
0.0
 21
117.5
  0
LINE
  5
245
100
AcDbEntity
  8
0
100
AcDbLine
 62
7
  6
CONTINUOUS
 10
208.0
 20
117.5
 11
0.0
 21
117.5
  0
INSERT
  5
246
100
AcDbEntity
  8
0
100
AcDbBlockReference
 62
7
  6
CONTINUOUS
  2
_FILLED
 10
-208.0
 20
117.5
 41
3.0
 42
3.0
 43
3.0
 50
180.0
  0
INSERT
  5
247
100
AcDbEntity
  8
0
100
AcDbBlockReference
 62
7
  6
CONTINUOUS
  2
_FILLED
 10
208.0
 20
117.5
 41
3.0
 42
3.0
 43
3.0
 50
0.0
  0
ENDBLK
  5
248
100
AcDbEntity
  8
0
  6
BYBLOCK
 62
0
100
AcDbBlockEnd
  0
BLOCK
  5
249
100
AcDbEntity
  8
0
100
AcDbBlockBegin
 62
7
  6
CONTINUOUS
  2
*D4
 70
65
 10
0.0
 20
0.0
  3
*D4
  1

  0
MTEXT
  5
24A
100
AcDbEntity
  8
0
100
AcDbMText
 62
7
  6
CONTINUOUS
  7
STANDARD
 71
2
 72
1
 10
222.25
 20
-0.0
 30
0.0
 11
0.0
 21
1.0
 31
0.0
 44
0.9
  1
179
 40
3.0
 41
6.4285714286
  0
LINE
  5
24B
100
AcDbEntity
  8
0
100
AcDbLine
 62
7
  6
CONTINUOUS
 10
198.5
 20
89.5
 11
227.5
 21
89.5
  0
LINE
  5
24C
100
AcDbEntity
  8
0
100
AcDbLine
 62
7
  6
CONTINUOUS
 10
198.4999999735
 20
-89.5
 11
227.5
 21
-89.5
  0
LINE
  5
24D
100
AcDbEntity
  8
0
100
AcDbLine
 62
7
  6
CONTINUOUS
 10
226.0
 20
89.5
 11
226.0
 21
-0.0
  0
LINE
  5
24E
100
AcDbEntity
  8
0
100
AcDbLine
 62
7
  6
CONTINUOUS
 10
226.0
 20
-89.5
 11
226.0
 21
-0.0
  0
INSERT
  5
24F
100
AcDbEntity
  8
0
100
AcDbBlockReference
 62
7
  6
CONTINUOUS
  2
_FILLED
 10
226.0
 20
89.5
 41
3.0
 42
3.0
 43
3.0
 50
90.0
  0
INSERT
  5
250
100
AcDbEntity
  8
0
100
AcDbBlockReference
 62
7
  6
CONTINUOUS
  2
_FILLED
 10
226.0
 20
-89.5
 41
3.0
 42
3.0
 43
3.0
 50
270.0
  0
ENDBLK
  5
251
100
AcDbEntity
  8
0
  6
BYBLOCK
 62
0
100
AcDbBlockEnd
  0
BLOCK
  5
252
100
AcDbEntity
  8
0
100
AcDbBlockBegin
 62
7
  6
CONTINUOUS
  2
*D5
 70
65
 10
0.0
 20
0.0
  3
*D5
  1

  0
MTEXT
  5
253
100
AcDbEntity
  8
0
100
AcDbMText
 62
7
  6
CONTINUOUS
  7
STANDARD
 71
2
 72
1
 10
-309.8945287145
 20
111.25
 30
0.0
 11
1.0
 21
0.0
 31
0.0
 44
0.9
  1
75,7
 40
3.0
 41
8.5714285714
  0
LINE
  5
254
100
AcDbEntity
  8
0
100
AcDbLine
 62
7
  6
CONTINUOUS
 10
-272.0445287145
 20
65.7599352941
 11
-272.0445287145
 21
109.0
  0
LINE
  5
255
100
AcDbEntity
  8
0
100
AcDbLine
 62
7
  6
CONTINUOUS
 10
-347.7445287145
 20
80.0
 11
-347.7445287145
 21
109.0
  0
LINE
  5
256
100
AcDbEntity
  8
0
100
AcDbLine
 62
7
  6
CONTINUOUS
 10
-272.0445287145
 20
107.5
 11
-309.8945287145
 21
107.5
  0
LINE
  5
257
100
AcDbEntity
  8
0
100
AcDbLine
 62
7
  6
CONTINUOUS
 10
-347.7445287145
 20
107.5
 11
-309.8945287145
 21
107.5
  0
INSERT
  5
258
100
AcDbEntity
  8
0
100
AcDbBlockReference
 62
7
  6
CONTINUOUS
  2
_FILLED
 10
-272.0445287145
 20
107.5
 41
3.0
 42
3.0
 43
3.0
  0
INSERT
  5
259
100
AcDbEntity
  8
0
100
AcDbBlockReference
 62
7
  6
CONTINUOUS
  2
_FILLED
 10
-347.7445287145
 20
107.5
 41
3.0
 42
3.0
 43
3.0
 50
180.0
  0
ENDBLK
  5
25A
100
AcDbEntity
  8
0
  6
BYBLOCK
 62
0
100
AcDbBlockEnd
  0
BLOCK
  5
25B
100
AcDbEntity
  8
0
100
AcDbBlockBegin
 62
7
  6
CONTINUOUS
  2
*D6
 70
65
 10
0.0
 20
0.0
  3
*D6
  1

  0
MTEXT
  5
25C
100
AcDbEntity
  8
0
100
AcDbMText
 62
7
  6
CONTINUOUS
  7
STANDARD
 71
2
 72
1
 10
-307.0445287145
 20
101.25
 30
0.0
 11
1.0
 21
0.0
 31
0.0
 44
0.9
  1
70
 40
3.0
 41
4.7142857143
  0
LINE
  5
25D
100
AcDbEntity
  8
0
100
AcDbLine
 62
7
  6
CONTINUOUS
 10
-272.0445287145
 20
65.7599352941
 11
-272.0445287145
 21
99.0
  0
LINE
  5
25E
100
AcDbEntity
  8
0
100
AcDbLine
 62
7
  6
CONTINUOUS
 10
-342.0445287145
 20
90.0
 11
-342.0445287145
 21
99.0
  0
LINE
  5
25F
100
AcDbEntity
  8
0
100
AcDbLine
 62
7
  6
CONTINUOUS
 10
-272.0445287145
 20
97.5
 11
-307.0445287145
 21
97.5
  0
LINE
  5
260
100
AcDbEntity
  8
0
100
AcDbLine
 62
7
  6
CONTINUOUS
 10
-342.0445287145
 20
97.5
 11
-307.0445287145
 21
97.5
  0
INSERT
  5
261
100
AcDbEntity
  8
0
100
AcDbBlockReference
 62
7
  6
CONTINUOUS
  2
_FILLED
 10
-272.0445287145
 20
97.5
 41
3.0
 42
3.0
 43
3.0
  0
INSERT
  5
262
100
AcDbEntity
  8
0
100
AcDbBlockReference
 62
7
  6
CONTINUOUS
  2
_FILLED
 10
-342.0445287145
 20
97.5
 41
3.0
 42
3.0
 43
3.0
 50
180.0
  0
ENDBLK
  5
263
100
AcDbEntity
  8
0
  6
BYBLOCK
 62
0
100
AcDbBlockEnd
  0
BLOCK
  5
264
100
AcDbEntity
  8
0
100
AcDbBlockBegin
 62
7
  6
CONTINUOUS
  2
*D7
 70
65
 10
0.0
 20
0.0
  3
*D7
  1

  0
MTEXT
  5
265
100
AcDbEntity
  8
0
100
AcDbMText
 62
7
  6
CONTINUOUS
  7
STANDARD
 71
3
 72
1
 10
-351.5126457326
 20
101.25
 30
0.0
 11
1.0
 21
0.0
 31
0.0
 44
0.9
  1
5,7
 40
3.0
 41
6.2142857143
  0
LINE
  5
266
100
AcDbEntity
  8
0
100
AcDbLine
 62
7
  6
CONTINUOUS
 10
-342.0445287145
 20
90.0
 11
-342.0445287145
 21
99.0
  0
LINE
  5
267
100
AcDbEntity
  8
0
100
AcDbLine
 62
7
  6
CONTINUOUS
 10
-347.7445287145
 20
80.0
 11
-347.7445287145
 21
99.0
  0
LINE
  5
268
100
AcDbEntity
  8
0
100
AcDbLine
 62
7
  6
CONTINUOUS
 10
-342.0445287145
 20
97.5
 11
-338.0445287145
 21
97.5
  0
LINE
  5
269
100
AcDbEntity
  8
0
100
AcDbLine
 62
7
  6
CONTINUOUS
 10
-338.0445287145
 20
97.5
 11
-344.8945287145
 21
97.5
  0
LINE
  5
26A
100
AcDbEntity
  8
0
100
AcDbLine
 62
7
  6
CONTINUOUS
 10
-347.7445287145
 20
97.5
 11
-357.7269314469
 21
97.5
  0
LINE
  5
26B
100
AcDbEntity
  8
0
100
AcDbLine
 62
7
  6
CONTINUOUS
 10
-357.7269314469
 20
97.5
 11
-344.8945287145
 21
97.5
  0
INSERT
  5
26C
100
AcDbEntity
  8
0
100
AcDbBlockReference
 62
7
  6
CONTINUOUS
  2
_NONE
 10
-342.0445287145
 20
97.5
 41
3.0
 42
3.0
 43
3.0
 50
180.0
  0
INSERT
  5
26D
100
AcDbEntity
  8
0
100
AcDbBlockReference
 62
7
  6
CONTINUOUS
  2
_FILLED
 10
-347.7445287145
 20
97.5
 41
3.0
 42
3.0
 43
3.0
  0
ENDBLK
  5
26E
100
AcDbEntity
  8
0
  6
BYBLOCK
 62
0
100
AcDbBlockEnd
  0
BLOCK
  5
26F
100
AcDbEntity
  8
0
100
AcDbBlockBegin
 62
7
  6
CONTINUOUS
  2
*D8
 70
65
 10
0.0
 20
0.0
  3
*D8
  1

  0
MTEXT
  5
270
100
AcDbEntity
  8
0
100
AcDbMText
 62
7
  6
CONTINUOUS
  7
STANDARD
 71
2
 72
1
 10
94.0
 20
101.25
 30
0.0
 11
1.0
 21
0.0
 31
0.0
 44
0.9
  1
188
 40
3.0
 41
6.4285714286
  0
LINE
  5
271
100
AcDbEntity
  8
0
100
AcDbLine
 62
7
  6
CONTINUOUS
 10
0.0
 20
70.0
 11
0.0
 21
99.0
  0
LINE
  5
272
100
AcDbEntity
  8
0
100
AcDbLine
 62
7
  6
CONTINUOUS
 10
188.0
 20
70.0
 11
188.0
 21
99.0
  0
LINE
  5
273
100
AcDbEntity
  8
0
100
AcDbLine
 62
7
  6
CONTINUOUS
 10
0.0
 20
97.5
 11
94.0
 21
97.5
  0
LINE
  5
274
100
AcDbEntity
  8
0
100
AcDbLine
 62
7
  6
CONTINUOUS
 10
188.0
 20
97.5
 11
94.0
 21
97.5
  0
INSERT
  5
275
100
AcDbEntity
  8
0
100
AcDbBlockReference
 62
7
  6
CONTINUOUS
  2
_FILLED
 10
0.0
 20
97.5
 41
3.0
 42
3.0
 43
3.0
 50
180.0
  0
INSERT
  5
276
100
AcDbEntity
  8
0
100
AcDbBlockReference
 62
7
  6
CONTINUOUS
  2
_FILLED
 10
188.0
 20
97.5
 41
3.0
 42
3.0
 43
3.0
  0
ENDBLK
  5
277
100
AcDbEntity
  8
0
  6
BYBLOCK
 62
0
100
AcDbBlockEnd
  0
ENDSEC
  0
SECTION
  2
ENTITIES
  0
DIMENSION
  5
278
100
AcDbEntity
  8
0
100
AcDbDimension
 62
7
  6
CONTINUOUS
  2
*D0
 10
188.0
 20
107.5
 11
-3.4285714286
 21
109.75
 70
160
 71
2
 42
376.0
  3
DIMSTYLE_1
100
AcDbAlignedDimension
 13
-188.0
 23
70.0
 14
188.0
 24
70.0
100
AcDbRotatedDimension
  0
DIMENSION
  5
279
100
AcDbEntity
  8
0
100
AcDbDimension
 62
7
  6
CONTINUOUS
  2
*D1
 10
0.0
 20
97.5
 11
-97.2142857143
 21
99.75
 70
160
 71
2
 42
188.0
  3
DIMSTYLE_1
100
AcDbAlignedDimension
 13
-188.0
 23
70.0
 14
0.0
 24
70.0
100
AcDbRotatedDimension
  0
DIMENSION
  5
27A
100
AcDbEntity
  8
0
100
AcDbDimension
 62
7
  6
CONTINUOUS
  2
*D2
 10
216.0
 20
-69.5
 11
215.1422287358
 21
-2.7777753476
 70
160
 71
2
 42
139.0
  3
DIMSTYLE_1
100
AcDbAlignedDimension
 13
188.5
 23
69.5
 14
188.5
 24
-69.5
 50
270.0
100
AcDbRotatedDimension
  0
DIMENSION
  5
27B
100
AcDbEntity
  8
0
100
AcDbDimension
 62
7
  6
CONTINUOUS
  2
*D3
 10
208.0
 20
117.5
 11
-3.2142857143
 21
119.75
 70
160
 71
2
 42
416.0
  3
DIMSTYLE_1
100
AcDbAlignedDimension
 13
-208.0
 23
80.0
 14
208.0
 24
79.9999999735
100
AcDbRotatedDimension
  0
DIMENSION
  5
27C
100
AcDbEntity
  8
0
100
AcDbDimension
 62
7
  6
CONTINUOUS
  2
*D4
 10
226.0
 20
-89.5
 11
225.1902366233
 21
-2.8735607044
 70
160
 71
2
 42
179.0
  3
DIMSTYLE_1
100
AcDbAlignedDimension
 13
198.5
 23
89.5
 14
198.4999999735
 24
-89.5
 50
270.0
100
AcDbRotatedDimension
  0
DIMENSION
  5
27D
100
AcDbEntity
  8
0
100
AcDbDimension
 62
7
  6
CONTINUOUS
  2
*D5
 10
-347.7445287145
 20
107.5
 11
-314.1802430002
 21
109.75
 70
160
 71
2
 42
75.7
  3
DIMSTYLE_1
100
AcDbAlignedDimension
 13
-272.0445287145
 23
65.7599352941
 14
-347.7445287145
 24
80.0
 50
180.0
100
AcDbRotatedDimension
  0
DIMENSION
  5
27E
100
AcDbEntity
  8
0
100
AcDbDimension
 62
7
  6
CONTINUOUS
  2
*D6
 10
-342.0445287145
 20
97.5
 11
-309.4016715716
 21
99.75
 70
160
 71
2
 42
70.0
  3
DIMSTYLE_1
100
AcDbAlignedDimension
 13
-272.0445287145
 23
65.7599352941
 14
-342.0445287145
 24
90.0
 50
180.0
100
AcDbRotatedDimension
  0
DIMENSION
  5
27F
100
AcDbEntity
  8
0
100
AcDbDimension
 62
7
  6
CONTINUOUS
  2
*D7
 10
-347.7445287145
 20
97.5
 11
-360.834074304
 21
99.75
 70
160
 71
3
 42
5.7
  3
DIMSTYLE_1
100
AcDbAlignedDimension
 13
-342.0445287145
 23
90.0
 14
-347.7445287145
 24
80.0
 50
180.0
100
AcDbRotatedDimension
1001
ACAD
1000
DSTYLE
1002
{
1070
173
1070
1
1070
6
1000
_NONE
1002
}
  0
DIMENSION
  5
280
100
AcDbEntity
  8
0
100
AcDbDimension
 62
7
  6
CONTINUOUS
  2
*D8
 10
188.0
 20
97.5
 11
90.7857142857
 21
99.75
 70
160
 71
2
 42
188.0
  3
DIMSTYLE_1
100
AcDbAlignedDimension
 13
0.0
 23
70.0
 14
188.0
 24
70.0
100
AcDbRotatedDimension
  0
LINE
  5
281
100
AcDbEntity
  8
RACCORDO
100
AcDbLine
 62
7
  6
CONTINUOUS
 10
-208.0
 20
79.5
 11
-208.0
 21
-79.5
  0
LINE
  5
282
100
AcDbEntity
  8
CURVE
100
AcDbLine
 62
7
  6
CONTINUOUS
 10
-208.0
 20
79.5
 11
-208.0
 21
-79.5
  0
LINE
  5
283
100
AcDbEntity
  8
RACCORDO
100
AcDbLine
 62
253
  6
CONTINUOUS
 10
-206.0
 20
79.5
 11
-206.0
 21
-79.5
  0
LINE
  5
284
100
AcDbEntity
  8
RACCORDO
100
AcDbLine
 62
253
  6
CONTINUOUS
 10
-198.0
 20
-87.5
 11
-198.0
 21
-89.5
  0
LINE
  5
285
100
AcDbEntity
  8
RACCORDO
100
AcDbLine
 62
253
  6
CONTINUOUS
 10
-198.0
 20
87.5
 11
-197.9999999735
 21
89.5
  0
LINE
  5
286
100
AcDbEntity
  8
0
100
AcDbLine
 62
7
  6
CONTINUOUS
 10
-188.5197234842
 20
70.0197234842
 11
-188.35
 21
70.5901949367
  0
LINE
  5
287
100
AcDbEntity
  8
0
100
AcDbLine
 62
7
  6
CONTINUOUS
 10
-187.65
 20
68.4098050633
 11
-187.4802765158
 21
68.9802765158
  0
LINE
  5
288
100
AcDbEntity
  8
0
100
AcDbLine
 62
7
  6
CONTINUOUS
 10
-188.35
 20
-70.5901949367
 11
-188.5197234842
 21
-70.0197234842
  0
LINE
  5
289
100
AcDbEntity
  8
0
100
AcDbLine
 62
7
  6
CONTINUOUS
 10
-187.4802765158
 20
-68.9802765158
 11
-187.65
 21
-68.4098050633
  0
LINE
  5
28A
100
AcDbEntity
  8
0
100
AcDbLine
 62
7
  6
CONTINUOUS
 10
-189.145
 20
-69.85
 11
-189.145
 21
-69.15
  0
LINE
  5
28B
100
AcDbEntity
  8
0
100
AcDbLine
 62
7
  6
CONTINUOUS
 10
-189.145
 20
69.15
 11
-189.145
 21
69.85
  0
LINE
  5
28C
100
AcDbEntity
  8
0
100
AcDbLine
 62
7
  6
CONTINUOUS
 10
-188.5
 20
-72.2041634566
 11
-188.5
 21
-70.0860176963
  0
LINE
  5
28D
100
AcDbEntity
  8
0
100
AcDbLine
 62
7
  6
CONTINUOUS
 10
-188.5
 20
-68.9139823037
 11
-188.5
 21
-66.7958365434
  0
LINE
  5
28E
100
AcDbEntity
  8
0
100
AcDbLine
 62
7
  6
CONTINUOUS
 10
-188.5
 20
66.7958365434
 11
-188.5
 21
68.9139823037
  0
LINE
  5
28F
100
AcDbEntity
  8
0
100
AcDbLine
 62
7
  6
CONTINUOUS
 10
-188.5
 20
70.0860176963
 11
-188.5
 21
72.2041634566
  0
LINE
  5
290
100
AcDbEntity
  8
0
100
AcDbLine
 62
7
  6
CONTINUOUS
 10
-188.35
 20
71.0937234472
 11
-188.35
 21
70.5901949367
  0
LINE
  5
291
100
AcDbEntity
  8
0
100
AcDbLine
 62
7
  6
CONTINUOUS
 10
-188.35
 20
68.4098050633
 11
-188.35
 21
67.9062765528
  0
LINE
  5
292
100
AcDbEntity
  8
0
100
AcDbLine
 62
7
  6
CONTINUOUS
 10
-188.35
 20
-67.9062765528
 11
-188.35
 21
-68.4098050633
  0
LINE
  5
293
100
AcDbEntity
  8
0
100
AcDbLine
 62
7
  6
CONTINUOUS
 10
-188.35
 20
-70.5901949367
 11
-188.35
 21
-71.0937234472
  0
LINE
  5
294
100
AcDbEntity
  8
0
100
AcDbLine
 62
7
  6
CONTINUOUS
 10
-187.65
 20
71.0937234472
 11
-187.65
 21
70.5901949367
  0
LINE
  5
295
100
AcDbEntity
  8
0
100
AcDbLine
 62
7
  6
CONTINUOUS
 10
-187.65
 20
68.4098050633
 11
-187.65
 21
67.9062765528
  0
LINE
  5
296
100
AcDbEntity
  8
0
100
AcDbLine
 62
7
  6
CONTINUOUS
 10
-187.65
 20
-67.9062765528
 11
-187.65
 21
-68.4098050633
  0
LINE
  5
297
100
AcDbEntity
  8
0
100
AcDbLine
 62
7
  6
CONTINUOUS
 10
-187.65
 20
-70.5901949367
 11
-187.65
 21
-71.0937234472
  0
LINE
  5
298
100
AcDbEntity
  8
0
100
AcDbLine
 62
7
  6
CONTINUOUS
 10
-187.5
 20
72.2041634566
 11
-187.5
 21
70.0860176963
  0
LINE
  5
299
100
AcDbEntity
  8
0
100
AcDbLine
 62
7
  6
CONTINUOUS
 10
-187.5
 20
68.9139823037
 11
-187.5
 21
66.7958365434
  0
LINE
  5
29A
100
AcDbEntity
  8
0
100
AcDbLine
 62
7
  6
CONTINUOUS
 10
-187.5
 20
-66.7958365434
 11
-187.5
 21
-68.9139823037
  0
LINE
  5
29B
100
AcDbEntity
  8
0
100
AcDbLine
 62
7
  6
CONTINUOUS
 10
-187.5
 20
-70.0860176963
 11
-187.5
 21
-72.2041634566
  0
LINE
  5
29C
100
AcDbEntity
  8
0
100
AcDbLine
 62
7
  6
CONTINUOUS
 10
-186.855
 20
69.85
 11
-186.855
 21
69.15
  0
LINE
  5
29D
100
AcDbEntity
  8
0
100
AcDbLine
 62
7
  6
CONTINUOUS
 10
-186.855
 20
-69.15
 11
-186.855
 21
-69.85
  0
LINE
  5
29E
100
AcDbEntity
  8
0
100
AcDbLine
 62
7
  6
CONTINUOUS
 10
-188.35
 20
-68.4098050633
 11
-188.5197234842
 21
-68.9802765158
  0
LINE
  5
29F
100
AcDbEntity
  8
0
100
AcDbLine
 62
7
  6
CONTINUOUS
 10
-187.4802765158
 20
-70.0197234842
 11
-187.65
 21
-70.5901949367
  0
LINE
  5
2A0
100
AcDbEntity
  8
0
100
AcDbLine
 62
7
  6
CONTINUOUS
 10
-188.35
 20
68.4098050633
 11
-188.5197234842
 21
68.9802765158
  0
LINE
  5
2A1
100
AcDbEntity
  8
0
100
AcDbLine
 62
7
  6
CONTINUOUS
 10
-187.4802765158
 20
70.0197234842
 11
-187.65
 21
70.5901949367
  0
LINE
  5
2A2
100
AcDbEntity
  8
0
100
AcDbLine
 62
7
  6
CONTINUOUS
 10
-189.0901949367
 20
69.85
 11
-188.5197234842
 21
70.0197234842
  0
LINE
  5
2A3
100
AcDbEntity
  8
0
100
AcDbLine
 62
7
  6
CONTINUOUS
 10
-186.9098050633
 20
69.15
 11
-187.4802765158
 21
68.9802765158
  0
LINE
  5
2A4
100
AcDbEntity
  8
0
100
AcDbLine
 62
7
  6
CONTINUOUS
 10
-188.5197234842
 20
-70.0197234842
 11
-189.0901949367
 21
-69.85
  0
LINE
  5
2A5
100
AcDbEntity
  8
0
100
AcDbLine
 62
7
  6
CONTINUOUS
 10
-187.4802765158
 20
-68.9802765158
 11
-186.9098050633
 21
-69.15
  0
LINE
  5
2A6
100
AcDbEntity
  8
RACCORDO
100
AcDbLine
 62
7
  6
CONTINUOUS
 10
-198.0
 20
-89.5
 11
198.0
 21
-89.5
  0
LINE
  5
2A7
100
AcDbEntity
  8
CURVE
100
AcDbLine
 62
7
  6
CONTINUOUS
 10
-198.0
 20
-89.5
 11
198.0
 21
-89.5
  0
LINE
  5
2A8
100
AcDbEntity
  8
RACCORDO
100
AcDbLine
 62
253
  6
CONTINUOUS
 10
-198.0
 20
-87.5
 11
198.0
 21
-87.5
  0
LINE
  5
2A9
100
AcDbEntity
  8
RACCORDO
100
AcDbLine
 62
253
  6
CONTINUOUS
 10
-206.0
 20
-79.5
 11
-208.0
 21
-79.4999999735
  0
LINE
  5
2AA
100
AcDbEntity
  8
RACCORDO
100
AcDbLine
 62
253
  6
CONTINUOUS
 10
206.0
 20
-79.5
 11
208.0
 21
-79.5
  0
LINE
  5
2AB
100
AcDbEntity
  8
0
100
AcDbLine
 62
7
  6
CONTINUOUS
 10
-1.0901949367
 20
69.85
 11
-0.5197234842
 21
70.0197234842
  0
LINE
  5
2AC
100
AcDbEntity
  8
0
100
AcDbLine
 62
7
  6
CONTINUOUS
 10
1.0901949367
 20
69.15
 11
0.5197234842
 21
68.9802765158
  0
LINE
  5
2AD
100
AcDbEntity
  8
0
100
AcDbLine
 62
7
  6
CONTINUOUS
 10
188.35
 20
-71.0937234472
 11
187.65
 21
-71.0937234472
  0
LINE
  5
2AE
100
AcDbEntity
  8
0
100
AcDbLine
 62
7
  6
CONTINUOUS
 10
0.35
 20
-71.0937234472
 11
-0.35
 21
-71.0937234472
  0
LINE
  5
2AF
100
AcDbEntity
  8
0
100
AcDbLine
 62
7
  6
CONTINUOUS
 10
-187.65
 20
-71.0937234472
 11
-188.35
 21
-71.0937234472
  0
LINE
  5
2B0
100
AcDbEntity
  8
0
100
AcDbLine
 62
7
  6
CONTINUOUS
 10
188.35
 20
-70.645
 11
187.65
 21
-70.645
  0
LINE
  5
2B1
100
AcDbEntity
  8
0
100
AcDbLine
 62
7
  6
CONTINUOUS
 10
0.35
 20
-70.645
 11
-0.35
 21
-70.645
  0
LINE
  5
2B2
100
AcDbEntity
  8
0
100
AcDbLine
 62
7
  6
CONTINUOUS
 10
-187.65
 20
-70.645
 11
-188.35
 21
-70.645
  0
LINE
  5
2B3
100
AcDbEntity
  8
0
100
AcDbLine
 62
7
  6
CONTINUOUS
 10
-189.9418577643
 20
-69.85
 11
-189.0901949367
 21
-69.85
  0
LINE
  5
2B4
100
AcDbEntity
  8
0
100
AcDbLine
 62
7
  6
CONTINUOUS
 10
-186.9098050633
 20
-69.85
 11
-186.0581422357
 21
-69.85
  0
LINE
  5
2B5
100
AcDbEntity
  8
0
100
AcDbLine
 62
7
  6
CONTINUOUS
 10
-1.9418577643
 20
-69.85
 11
-1.0901949367
 21
-69.85
  0
LINE
  5
2B6
100
AcDbEntity
  8
0
100
AcDbLine
 62
7
  6
CONTINUOUS
 10
1.0901949367
 20
-69.85
 11
1.9418577643
 21
-69.85
  0
LINE
  5
2B7
100
AcDbEntity
  8
0
100
AcDbLine
 62
7
  6
CONTINUOUS
 10
186.0581422357
 20
-69.85
 11
186.9098050633
 21
-69.85
  0
LINE
  5
2B8
100
AcDbEntity
  8
0
100
AcDbLine
 62
7
  6
CONTINUOUS
 10
189.0901949367
 20
-69.85
 11
189.9418577643
 21
-69.85
  0
LINE
  5
2B9
100
AcDbEntity
  8
0
100
AcDbLine
 62
7
  6
CONTINUOUS
 10
-189.9418577643
 20
-69.15
 11
-189.0901949367
 21
-69.15
  0
LINE
  5
2BA
100
AcDbEntity
  8
0
100
AcDbLine
 62
7
  6
CONTINUOUS
 10
-186.9098050633
 20
-69.15
 11
-186.0581422357
 21
-69.15
  0
LINE
  5
2BB
100
AcDbEntity
  8
0
100
AcDbLine
 62
7
  6
CONTINUOUS
 10
-1.9418577643
 20
-69.15
 11
-1.0901949367
 21
-69.15
  0
LINE
  5
2BC
100
AcDbEntity
  8
0
100
AcDbLine
 62
7
  6
CONTINUOUS
 10
1.0901949367
 20
-69.15
 11
1.9418577643
 21
-69.15
  0
LINE
  5
2BD
100
AcDbEntity
  8
0
100
AcDbLine
 62
7
  6
CONTINUOUS
 10
186.0581422357
 20
-69.15
 11
186.9098050633
 21
-69.15
  0
LINE
  5
2BE
100
AcDbEntity
  8
0
100
AcDbLine
 62
7
  6
CONTINUOUS
 10
189.0901949367
 20
-69.15
 11
189.9418577643
 21
-69.15
  0
LINE
  5
2BF
100
AcDbEntity
  8
0
100
AcDbLine
 62
7
  6
CONTINUOUS
 10
-188.35
 20
-68.355
 11
-187.65
 21
-68.355
  0
LINE
  5
2C0
100
AcDbEntity
  8
0
100
AcDbLine
 62
7
  6
CONTINUOUS
 10
-0.35
 20
-68.355
 11
0.35
 21
-68.355
  0
LINE
  5
2C1
100
AcDbEntity
  8
0
100
AcDbLine
 62
7
  6
CONTINUOUS
 10
187.65
 20
-68.355
 11
188.35
 21
-68.355
  0
LINE
  5
2C2
100
AcDbEntity
  8
0
100
AcDbLine
 62
7
  6
CONTINUOUS
 10
188.35
 20
-67.9062765528
 11
187.65
 21
-67.9062765528
  0
LINE
  5
2C3
100
AcDbEntity
  8
0
100
AcDbLine
 62
7
  6
CONTINUOUS
 10
0.35
 20
-67.9062765528
 11
-0.35
 21
-67.9062765528
  0
LINE
  5
2C4
100
AcDbEntity
  8
0
100
AcDbLine
 62
7
  6
CONTINUOUS
 10
-187.65
 20
-67.9062765528
 11
-188.35
 21
-67.9062765528
  0
LINE
  5
2C5
100
AcDbEntity
  8
0
100
AcDbLine
 62
7
  6
CONTINUOUS
 10
-0.5197234842
 20
-70.0197234842
 11
-1.0901949367
 21
-69.85
  0
LINE
  5
2C6
100
AcDbEntity
  8
0
100
AcDbLine
 62
7
  6
CONTINUOUS
 10
0.5197234842
 20
-68.9802765158
 11
1.0901949367
 21
-69.15
  0
LINE
  5
2C7
100
AcDbEntity
  8
0
100
AcDbLine
 62
7
  6
CONTINUOUS
 10
-0.5197234842
 20
70.0197234842
 11
-0.35
 21
70.5901949367
  0
LINE
  5
2C8
100
AcDbEntity
  8
0
100
AcDbLine
 62
7
  6
CONTINUOUS
 10
0.35
 20
68.4098050633
 11
0.5197234842
 21
68.9802765158
  0
LINE
  5
2C9
100
AcDbEntity
  8
0
100
AcDbLine
 62
7
  6
CONTINUOUS
 10
186.9098050633
 20
69.85
 11
187.4802765158
 21
70.0197234842
  0
LINE
  5
2CA
100
AcDbEntity
  8
0
100
AcDbLine
 62
7
  6
CONTINUOUS
 10
187.4802765158
 20
-70.0197234842
 11
186.9098050633
 21
-69.85
  0
LINE
  5
2CB
100
AcDbEntity
  8
0
100
AcDbLine
 62
7
  6
CONTINUOUS
 10
-0.5197234842
 20
-70.0197234842
 11
-0.35
 21
-70.5901949367
  0
LINE
  5
2CC
100
AcDbEntity
  8
0
100
AcDbLine
 62
7
  6
CONTINUOUS
 10
0.35
 20
-68.4098050633
 11
0.5197234842
 21
-68.9802765158
  0
LINE
  5
2CD
100
AcDbEntity
  8
0
100
AcDbLine
 62
7
  6
CONTINUOUS
 10
-1.145
 20
-69.85
 11
-1.145
 21
-69.15
  0
LINE
  5
2CE
100
AcDbEntity
  8
0
100
AcDbLine
 62
7
  6
CONTINUOUS
 10
-1.145
 20
69.15
 11
-1.145
 21
69.85
  0
LINE
  5
2CF
100
AcDbEntity
  8
0
100
AcDbLine
 62
7
  6
CONTINUOUS
 10
-0.5
 20
-72.2041634566
 11
-0.5
 21
-70.0860176963
  0
LINE
  5
2D0
100
AcDbEntity
  8
0
100
AcDbLine
 62
7
  6
CONTINUOUS
 10
-0.5
 20
-68.9139823037
 11
-0.5
 21
-66.7958365434
  0
LINE
  5
2D1
100
AcDbEntity
  8
0
100
AcDbLine
 62
7
  6
CONTINUOUS
 10
-0.5
 20
66.7958365434
 11
-0.5
 21
68.9139823037
  0
LINE
  5
2D2
100
AcDbEntity
  8
0
100
AcDbLine
 62
7
  6
CONTINUOUS
 10
-0.5
 20
70.0860176963
 11
-0.5
 21
72.2041634566
  0
LINE
  5
2D3
100
AcDbEntity
  8
0
100
AcDbLine
 62
7
  6
CONTINUOUS
 10
-0.35
 20
71.0937234472
 11
-0.35
 21
70.5901949367
  0
LINE
  5
2D4
100
AcDbEntity
  8
0
100
AcDbLine
 62
7
  6
CONTINUOUS
 10
-0.35
 20
68.4098050633
 11
-0.35
 21
67.9062765528
  0
LINE
  5
2D5
100
AcDbEntity
  8
0
100
AcDbLine
 62
7
  6
CONTINUOUS
 10
-0.35
 20
-67.9062765528
 11
-0.35
 21
-68.4098050633
  0
LINE
  5
2D6
100
AcDbEntity
  8
0
100
AcDbLine
 62
7
  6
CONTINUOUS
 10
-0.35
 20
-70.5901949367
 11
-0.35
 21
-71.0937234472
  0
LINE
  5
2D7
100
AcDbEntity
  8
0
100
AcDbLine
 62
7
  6
CONTINUOUS
 10
0.35
 20
71.0937234472
 11
0.35
 21
70.5901949367
  0
LINE
  5
2D8
100
AcDbEntity
  8
0
100
AcDbLine
 62
7
  6
CONTINUOUS
 10
0.35
 20
68.4098050633
 11
0.35
 21
67.9062765528
  0
LINE
  5
2D9
100
AcDbEntity
  8
0
100
AcDbLine
 62
7
  6
CONTINUOUS
 10
0.35
 20
-67.9062765528
 11
0.35
 21
-68.4098050633
  0
LINE
  5
2DA
100
AcDbEntity
  8
0
100
AcDbLine
 62
7
  6
CONTINUOUS
 10
0.35
 20
-70.5901949367
 11
0.35
 21
-71.0937234472
  0
LINE
  5
2DB
100
AcDbEntity
  8
0
100
AcDbLine
 62
7
  6
CONTINUOUS
 10
0.5
 20
72.2041634566
 11
0.5
 21
70.0860176963
  0
LINE
  5
2DC
100
AcDbEntity
  8
0
100
AcDbLine
 62
7
  6
CONTINUOUS
 10
0.5
 20
68.9139823037
 11
0.5
 21
66.7958365434
  0
LINE
  5
2DD
100
AcDbEntity
  8
0
100
AcDbLine
 62
7
  6
CONTINUOUS
 10
0.5
 20
-66.7958365434
 11
0.5
 21
-68.9139823037
  0
LINE
  5
2DE
100
AcDbEntity
  8
0
100
AcDbLine
 62
7
  6
CONTINUOUS
 10
0.5
 20
-70.0860176963
 11
0.5
 21
-72.2041634566
  0
LINE
  5
2DF
100
AcDbEntity
  8
0
100
AcDbLine
 62
7
  6
CONTINUOUS
 10
1.145
 20
69.85
 11
1.145
 21
69.15
  0
LINE
  5
2E0
100
AcDbEntity
  8
0
100
AcDbLine
 62
7
  6
CONTINUOUS
 10
1.145
 20
-69.15
 11
1.145
 21
-69.85
  0
LINE
  5
2E1
100
AcDbEntity
  8
0
100
AcDbLine
 62
7
  6
CONTINUOUS
 10
189.0901949367
 20
69.15
 11
188.5197234842
 21
68.9802765158
  0
LINE
  5
2E2
100
AcDbEntity
  8
0
100
AcDbLine
 62
7
  6
CONTINUOUS
 10
188.5197234842
 20
-68.9802765158
 11
189.0901949367
 21
-69.15
  0
LINE
  5
2E3
100
AcDbEntity
  8
0
100
AcDbLine
 62
7
  6
CONTINUOUS
 10
-189.0901949367
 20
-69.15
 11
-188.5197234842
 21
-68.9802765158
  0
LINE
  5
2E4
100
AcDbEntity
  8
0
100
AcDbLine
 62
7
  6
CONTINUOUS
 10
-186.9098050633
 20
-69.85
 11
-187.4802765158
 21
-70.0197234842
  0
LINE
  5
2E5
100
AcDbEntity
  8
0
100
AcDbLine
 62
7
  6
CONTINUOUS
 10
-188.5197234842
 20
68.9802765158
 11
-189.0901949367
 21
69.15
  0
LINE
  5
2E6
100
AcDbEntity
  8
0
100
AcDbLine
 62
7
  6
CONTINUOUS
 10
-187.4802765158
 20
70.0197234842
 11
-186.9098050633
 21
69.85
  0
LINE
  5
2E7
100
AcDbEntity
  8
0
100
AcDbLine
 62
7
  6
CONTINUOUS
 10
-0.35
 20
-68.4098050633
 11
-0.5197234842
 21
-68.9802765158
  0
LINE
  5
2E8
100
AcDbEntity
  8
0
100
AcDbLine
 62
7
  6
CONTINUOUS
 10
0.5197234842
 20
-70.0197234842
 11
0.35
 21
-70.5901949367
  0
LINE
  5
2E9
100
AcDbEntity
  8
0
100
AcDbLine
 62
7
  6
CONTINUOUS
 10
-0.35
 20
68.4098050633
 11
-0.5197234842
 21
68.9802765158
  0
LINE
  5
2EA
100
AcDbEntity
  8
0
100
AcDbLine
 62
7
  6
CONTINUOUS
 10
0.5197234842
 20
70.0197234842
 11
0.35
 21
70.5901949367
  0
LINE
  5
2EB
100
AcDbEntity
  8
0
100
AcDbLine
 62
7
  6
CONTINUOUS
 10
-1.0901949367
 20
-69.15
 11
-0.5197234842
 21
-68.9802765158
  0
LINE
  5
2EC
100
AcDbEntity
  8
0
100
AcDbLine
 62
7
  6
CONTINUOUS
 10
1.0901949367
 20
-69.85
 11
0.5197234842
 21
-70.0197234842
  0
LINE
  5
2ED
100
AcDbEntity
  8
0
100
AcDbLine
 62
7
  6
CONTINUOUS
 10
188.35
 20
67.9062765528
 11
187.65
 21
67.9062765528
  0
LINE
  5
2EE
100
AcDbEntity
  8
0
100
AcDbLine
 62
7
  6
CONTINUOUS
 10
0.35
 20
67.9062765528
 11
-0.35
 21
67.9062765528
  0
LINE
  5
2EF
100
AcDbEntity
  8
0
100
AcDbLine
 62
7
  6
CONTINUOUS
 10
-187.65
 20
67.9062765528
 11
-188.35
 21
67.9062765528
  0
LINE
  5
2F0
100
AcDbEntity
  8
0
100
AcDbLine
 62
7
  6
CONTINUOUS
 10
188.35
 20
68.355
 11
187.65
 21
68.355
  0
LINE
  5
2F1
100
AcDbEntity
  8
0
100
AcDbLine
 62
7
  6
CONTINUOUS
 10
0.35
 20
68.355
 11
-0.35
 21
68.355
  0
LINE
  5
2F2
100
AcDbEntity
  8
0
100
AcDbLine
 62
7
  6
CONTINUOUS
 10
-187.65
 20
68.355
 11
-188.35
 21
68.355
  0
LINE
  5
2F3
100
AcDbEntity
  8
0
100
AcDbLine
 62
7
  6
CONTINUOUS
 10
-189.9418577643
 20
69.15
 11
-189.0901949367
 21
69.15
  0
LINE
  5
2F4
100
AcDbEntity
  8
0
100
AcDbLine
 62
7
  6
CONTINUOUS
 10
-186.9098050633
 20
69.15
 11
-186.0581422357
 21
69.15
  0
LINE
  5
2F5
100
AcDbEntity
  8
0
100
AcDbLine
 62
7
  6
CONTINUOUS
 10
-1.9418577643
 20
69.15
 11
-1.0901949367
 21
69.15
  0
LINE
  5
2F6
100
AcDbEntity
  8
0
100
AcDbLine
 62
7
  6
CONTINUOUS
 10
1.0901949367
 20
69.15
 11
1.9418577643
 21
69.15
  0
LINE
  5
2F7
100
AcDbEntity
  8
0
100
AcDbLine
 62
7
  6
CONTINUOUS
 10
186.0581422357
 20
69.15
 11
186.9098050633
 21
69.15
  0
LINE
  5
2F8
100
AcDbEntity
  8
0
100
AcDbLine
 62
7
  6
CONTINUOUS
 10
189.0901949367
 20
69.15
 11
189.9418577643
 21
69.15
  0
LINE
  5
2F9
100
AcDbEntity
  8
0
100
AcDbLine
 62
7
  6
CONTINUOUS
 10
-189.9418577643
 20
69.85
 11
-189.0901949367
 21
69.85
  0
LINE
  5
2FA
100
AcDbEntity
  8
0
100
AcDbLine
 62
7
  6
CONTINUOUS
 10
-186.9098050633
 20
69.85
 11
-186.0581422357
 21
69.85
  0
LINE
  5
2FB
100
AcDbEntity
  8
0
100
AcDbLine
 62
7
  6
CONTINUOUS
 10
-1.9418577643
 20
69.85
 11
-1.0901949367
 21
69.85
  0
LINE
  5
2FC
100
AcDbEntity
  8
0
100
AcDbLine
 62
7
  6
CONTINUOUS
 10
1.0901949367
 20
69.85
 11
1.9418577643
 21
69.85
  0
LINE
  5
2FD
100
AcDbEntity
  8
0
100
AcDbLine
 62
7
  6
CONTINUOUS
 10
186.0581422357
 20
69.85
 11
186.9098050633
 21
69.85
  0
LINE
  5
2FE
100
AcDbEntity
  8
0
100
AcDbLine
 62
7
  6
CONTINUOUS
 10
189.0901949367
 20
69.85
 11
189.9418577643
 21
69.85
  0
LINE
  5
2FF
100
AcDbEntity
  8
0
100
AcDbLine
 62
7
  6
CONTINUOUS
 10
-188.35
 20
70.645
 11
-187.65
 21
70.645
  0
LINE
  5
300
100
AcDbEntity
  8
0
100
AcDbLine
 62
7
  6
CONTINUOUS
 10
-0.35
 20
70.645
 11
0.35
 21
70.645
  0
LINE
  5
301
100
AcDbEntity
  8
0
100
AcDbLine
 62
7
  6
CONTINUOUS
 10
187.65
 20
70.645
 11
188.35
 21
70.645
  0
LINE
  5
302
100
AcDbEntity
  8
0
100
AcDbLine
 62
7
  6
CONTINUOUS
 10
188.35
 20
71.0937234472
 11
187.65
 21
71.0937234472
  0
LINE
  5
303
100
AcDbEntity
  8
0
100
AcDbLine
 62
7
  6
CONTINUOUS
 10
0.35
 20
71.0937234472
 11
-0.35
 21
71.0937234472
  0
LINE
  5
304
100
AcDbEntity
  8
0
100
AcDbLine
 62
7
  6
CONTINUOUS
 10
-187.65
 20
71.0937234472
 11
-188.35
 21
71.0937234472
  0
LINE
  5
305
100
AcDbEntity
  8
0
100
AcDbLine
 62
7
  6
CONTINUOUS
 10
-0.5197234842
 20
68.9802765158
 11
-1.0901949367
 21
69.15
  0
LINE
  5
306
100
AcDbEntity
  8
0
100
AcDbLine
 62
7
  6
CONTINUOUS
 10
0.5197234842
 20
70.0197234842
 11
1.0901949367
 21
69.85
  0
LINE
  5
307
100
AcDbEntity
  8
RACCORDO
100
AcDbLine
 62
253
  6
CONTINUOUS
 10
-206.0
 20
79.5
 11
-208.0
 21
79.5
  0
LINE
  5
308
100
AcDbEntity
  8
RACCORDO
100
AcDbLine
 62
253
  6
CONTINUOUS
 10
206.0
 20
79.5
 11
208.0
 21
79.4999999735
  0
LINE
  5
309
100
AcDbEntity
  8
RACCORDO
100
AcDbLine
 62
253
  6
CONTINUOUS
 10
198.0
 20
87.5
 11
-198.0
 21
87.5
  0
LINE
  5
30A
100
AcDbEntity
  8
RACCORDO
100
AcDbLine
 62
7
  6
CONTINUOUS
 10
198.0
 20
89.5
 11
-198.0
 21
89.5
  0
LINE
  5
30B
100
AcDbEntity
  8
CURVE
100
AcDbLine
 62
7
  6
CONTINUOUS
 10
198.0
 20
89.5
 11
-198.0
 21
89.5
  0
LINE
  5
30C
100
AcDbEntity
  8
0
100
AcDbLine
 62
7
  6
CONTINUOUS
 10
186.9098050633
 20
-69.15
 11
187.4802765158
 21
-68.9802765158
  0
LINE
  5
30D
100
AcDbEntity
  8
0
100
AcDbLine
 62
7
  6
CONTINUOUS
 10
189.0901949367
 20
-69.85
 11
188.5197234842
 21
-70.0197234842
  0
LINE
  5
30E
100
AcDbEntity
  8
0
100
AcDbLine
 62
7
  6
CONTINUOUS
 10
187.4802765158
 20
68.9802765158
 11
186.9098050633
 21
69.15
  0
LINE
  5
30F
100
AcDbEntity
  8
0
100
AcDbLine
 62
7
  6
CONTINUOUS
 10
188.5197234842
 20
70.0197234842
 11
189.0901949367
 21
69.85
  0
LINE
  5
310
100
AcDbEntity
  8
0
100
AcDbLine
 62
7
  6
CONTINUOUS
 10
187.4802765158
 20
70.0197234842
 11
187.65
 21
70.5901949367
  0
LINE
  5
311
100
AcDbEntity
  8
0
100
AcDbLine
 62
7
  6
CONTINUOUS
 10
188.35
 20
68.4098050633
 11
188.5197234842
 21
68.9802765158
  0
LINE
  5
312
100
AcDbEntity
  8
0
100
AcDbLine
 62
7
  6
CONTINUOUS
 10
187.4802765158
 20
-70.0197234842
 11
187.65
 21
-70.5901949367
  0
LINE
  5
313
100
AcDbEntity
  8
0
100
AcDbLine
 62
7
  6
CONTINUOUS
 10
188.35
 20
-68.4098050633
 11
188.5197234842
 21
-68.9802765158
  0
LINE
  5
314
100
AcDbEntity
  8
0
100
AcDbLine
 62
7
  6
CONTINUOUS
 10
186.855
 20
-69.85
 11
186.855
 21
-69.15
  0
LINE
  5
315
100
AcDbEntity
  8
0
100
AcDbLine
 62
7
  6
CONTINUOUS
 10
186.855
 20
69.15
 11
186.855
 21
69.85
  0
LINE
  5
316
100
AcDbEntity
  8
0
100
AcDbLine
 62
7
  6
CONTINUOUS
 10
187.5
 20
-72.2041634566
 11
187.5
 21
-70.0860176963
  0
LINE
  5
317
100
AcDbEntity
  8
0
100
AcDbLine
 62
7
  6
CONTINUOUS
 10
187.5
 20
-68.9139823037
 11
187.5
 21
-66.7958365434
  0
LINE
  5
318
100
AcDbEntity
  8
0
100
AcDbLine
 62
7
  6
CONTINUOUS
 10
187.5
 20
66.7958365434
 11
187.5
 21
68.9139823037
  0
LINE
  5
319
100
AcDbEntity
  8
0
100
AcDbLine
 62
7
  6
CONTINUOUS
 10
187.5
 20
70.0860176963
 11
187.5
 21
72.2041634566
  0
LINE
  5
31A
100
AcDbEntity
  8
0
100
AcDbLine
 62
7
  6
CONTINUOUS
 10
187.65
 20
71.0937234472
 11
187.65
 21
70.5901949367
  0
LINE
  5
31B
100
AcDbEntity
  8
0
100
AcDbLine
 62
7
  6
CONTINUOUS
 10
187.65
 20
68.4098050633
 11
187.65
 21
67.9062765528
  0
LINE
  5
31C
100
AcDbEntity
  8
0
100
AcDbLine
 62
7
  6
CONTINUOUS
 10
187.65
 20
-67.9062765528
 11
187.65
 21
-68.4098050633
  0
LINE
  5
31D
100
AcDbEntity
  8
0
100
AcDbLine
 62
7
  6
CONTINUOUS
 10
187.65
 20
-70.5901949367
 11
187.65
 21
-71.0937234472
  0
LINE
  5
31E
100
AcDbEntity
  8
0
100
AcDbLine
 62
7
  6
CONTINUOUS
 10
188.35
 20
71.0937234472
 11
188.35
 21
70.5901949367
  0
LINE
  5
31F
100
AcDbEntity
  8
0
100
AcDbLine
 62
7
  6
CONTINUOUS
 10
188.35
 20
68.4098050633
 11
188.35
 21
67.9062765528
  0
LINE
  5
320
100
AcDbEntity
  8
0
100
AcDbLine
 62
7
  6
CONTINUOUS
 10
188.35
 20
-67.9062765528
 11
188.35
 21
-68.4098050633
  0
LINE
  5
321
100
AcDbEntity
  8
0
100
AcDbLine
 62
7
  6
CONTINUOUS
 10
188.35
 20
-70.5901949367
 11
188.35
 21
-71.0937234472
  0
LINE
  5
322
100
AcDbEntity
  8
0
100
AcDbLine
 62
7
  6
CONTINUOUS
 10
188.5
 20
72.2041634566
 11
188.5
 21
70.0860176963
  0
LINE
  5
323
100
AcDbEntity
  8
0
100
AcDbLine
 62
7
  6
CONTINUOUS
 10
188.5
 20
68.9139823037
 11
188.5
 21
66.7958365434
  0
LINE
  5
324
100
AcDbEntity
  8
0
100
AcDbLine
 62
7
  6
CONTINUOUS
 10
188.5
 20
-66.7958365434
 11
188.5
 21
-68.9139823037
  0
LINE
  5
325
100
AcDbEntity
  8
0
100
AcDbLine
 62
7
  6
CONTINUOUS
 10
188.5
 20
-70.0860176963
 11
188.5
 21
-72.2041634566
  0
LINE
  5
326
100
AcDbEntity
  8
0
100
AcDbLine
 62
7
  6
CONTINUOUS
 10
189.145
 20
69.85
 11
189.145
 21
69.15
  0
LINE
  5
327
100
AcDbEntity
  8
0
100
AcDbLine
 62
7
  6
CONTINUOUS
 10
189.145
 20
-69.15
 11
189.145
 21
-69.85
  0
LINE
  5
328
100
AcDbEntity
  8
RACCORDO
100
AcDbLine
 62
253
  6
CONTINUOUS
 10
198.0
 20
-87.5
 11
197.9999999735
 21
-89.5
  0
LINE
  5
329
100
AcDbEntity
  8
RACCORDO
100
AcDbLine
 62
253
  6
CONTINUOUS
 10
198.0
 20
87.5
 11
198.0
 21
89.5
  0
LINE
  5
32A
100
AcDbEntity
  8
RACCORDO
100
AcDbLine
 62
253
  6
CONTINUOUS
 10
206.0
 20
-79.5
 11
206.0
 21
79.5
  0
LINE
  5
32B
100
AcDbEntity
  8
RACCORDO
100
AcDbLine
 62
7
  6
CONTINUOUS
 10
208.0
 20
-79.5
 11
208.0
 21
79.5
  0
LINE
  5
32C
100
AcDbEntity
  8
CURVE
100
AcDbLine
 62
7
  6
CONTINUOUS
 10
208.0
 20
-79.5
 11
208.0
 21
79.5
  0
LINE
  5
32D
100
AcDbEntity
  8
0
100
AcDbLine
 62
7
  6
CONTINUOUS
 10
187.4802765158
 20
-68.9802765158
 11
187.65
 21
-68.4098050633
  0
LINE
  5
32E
100
AcDbEntity
  8
0
100
AcDbLine
 62
7
  6
CONTINUOUS
 10
188.35
 20
-70.5901949367
 11
188.5197234842
 21
-70.0197234842
  0
LINE
  5
32F
100
AcDbEntity
  8
0
100
AcDbLine
 62
7
  6
CONTINUOUS
 10
187.65
 20
68.4098050633
 11
187.4802765158
 21
68.9802765158
  0
LINE
  5
330
100
AcDbEntity
  8
0
100
AcDbLine
 62
7
  6
CONTINUOUS
 10
188.5197234842
 20
70.0197234842
 11
188.35
 21
70.5901949367
  0
LINE
  5
331
100
AcDbEntity
  8
RACCORDO
100
AcDbLine
 62
7
  6
CONTINUOUS
 10
-342.0445287145
 20
-89.5
 11
-345.7445287145
 21
-89.5
  0
LINE
  5
332
100
AcDbEntity
  8
ASSI
100
AcDbLine
 62
7
  6
CONTINUOUS
 10
-342.0445287145
 20
-89.5
 11
-345.7445287145
 21
-89.5
  0
LINE
  5
333
100
AcDbEntity
  8
DRAFT
100
AcDbLine
 62
7
  6
CONTINUOUS
 10
-339.1445287145
 20
-84.5
 11
-334.3445287145
 21
-84.5
  0
LINE
  5
334
100
AcDbEntity
  8
RACCORDO
100
AcDbLine
 62
7
  6
CONTINUOUS
 10
-341.0619811209
 20
-83.3076896529
 11
-330.0445287145
 21
-83.5
  0
LINE
  5
335
100
AcDbEntity
  8
DRAFT
100
AcDbLine
 62
7
  6
CONTINUOUS
 10
-339.6034335434
 20
77.0426094747
 11
-330.0445287145
 21
81.5
  0
LINE
  5
336
100
AcDbEntity
  8
DRAFT
100
AcDbLine
 62
7
  6
CONTINUOUS
 10
-327.0270763081
 20
-83.4473301723
 11
-330.0445287145
 21
-83.5
  0
LINE
  5
337
100
AcDbEntity
  8
RACCORDO
100
AcDbLine
 62
7
  6
CONTINUOUS
 10
-327.0270763081
 20
-83.4473301723
 11
-330.0445287145
 21
-83.5
  0
LINE
  5
338
100
AcDbEntity
  8
RACCORDO
100
AcDbLine
 62
253
  6
CONTINUOUS
 10
-341.0619811209
 20
-82.3078419577
 11
-342.0445287145
 21
-82.3078419577
  0
LINE
  5
339
100
AcDbEntity
  8
RACCORDO
100
AcDbLine
 62
253
  6
CONTINUOUS
 10
-342.0445287145
 20
-79.5
 11
-347.7445287145
 21
-79.5
  0
LINE
  5
33A
100
AcDbEntity
  8
RACCORDO
100
AcDbLine
 62
253
  6
CONTINUOUS
 10
-341.0619811209
 20
-82.3078419577
 11
-330.0445287145
 21
-82.5001523048
  0
LINE
  5
33B
100
AcDbEntity
  8
DRAFT
100
AcDbLine
 62
7
  6
CONTINUOUS
 10
-330.0445287145
 20
-77.2094607791
 11
-342.0445287145
 21
-77.0
  0
LINE
  5
33C
100
AcDbEntity
  8
DRAFT
100
AcDbLine
 62
7
  6
CONTINUOUS
 10
-330.0445287145
 20
-81.5
 11
-339.6034335434
 21
-77.0426094747
  0
LINE
  5
33D
100
AcDbEntity
  8
RACCORDO
100
AcDbLine
 62
7
  6
CONTINUOUS
 10
-274.9921714952
 20
-73.8295967511
 11
-275.5445287145
 21
-73.8392381823
  0
LINE
  5
33E
100
AcDbEntity
  8
DRAFT
100
AcDbLine
 62
7
  6
CONTINUOUS
 10
-275.5445287145
 20
-73.8392381823
 11
-326.0445287145
 21
-74.7207189611
  0
LINE
  5
33F
100
AcDbEntity
  8
RACCORDO
100
AcDbLine
 62
253
  6
CONTINUOUS
 10
-274.999588703
 20
-73.3296729036
 11
-275.5445287145
 21
-73.3391848669
  0
LINE
  5
340
100
AcDbEntity
  8
DRAFT
100
AcDbLine
 62
7
  6
CONTINUOUS
 10
-326.0445287145
 20
-71.1374632992
 11
-275.5445287145
 21
-70.4206763876
  0
LINE
  5
341
100
AcDbEntity
  8
DRAFT
100
AcDbLine
 62
7
  6
CONTINUOUS
 10
-275.5445287145
 20
-72.0925723789
 11
-326.0445287145
 21
-72.6223875397
  0
LINE
  5
342
100
AcDbEntity
  8
RACCORDO
100
AcDbLine
 62
7
  6
CONTINUOUS
 10
-286.4238677484
 20
-70.5750955524
 11
-272.5432197191
 21
-70.5600432244
  0
LINE
  5
343
100
AcDbEntity
  8
RACCORDO
100
AcDbLine
 62
253
  6
CONTINUOUS
 10
-272.0445287145
 20
-70.8300536657
 11
-272.5432197191
 21
-70.8300536657
  0
LINE
  5
344
100
AcDbEntity
  8
DRAFT
100
AcDbLine
 62
7
  6
CONTINUOUS
 10
-275.5445287145
 20
-71.3804952102
 11
-326.0445287145
 21
-71.1935234594
  0
LINE
  5
345
100
AcDbEntity
  8
RACCORDO
100
AcDbLine
 62
7
  6
CONTINUOUS
 10
-273.8445287145
 20
-63.8
 11
-326.0445287145
 21
-64.2555424987
  0
LINE
  5
346
100
AcDbEntity
  8
DRAFT
100
AcDbLine
 62
7
  6
CONTINUOUS
 10
-275.5445287145
 20
-68.6740105842
 11
-326.0445287145
 21
-69.0391318777
  0
LINE
  5
347
100
AcDbEntity
  8
DRAFT
100
AcDbLine
 62
7
  6
CONTINUOUS
 10
-275.5445287145
 20
-69.1268213246
 11
-272.5432197191
 21
-69.118963898
  0
LINE
  5
348
100
AcDbEntity
  8
RACCORDO
100
AcDbLine
 62
7
  6
CONTINUOUS
 10
-272.5432197191
 20
-65.7599335806
 11
-275.5445287145
 21
-65.7677910071
  0
LINE
  5
349
100
AcDbEntity
  8
RACCORDO
100
AcDbLine
 62
253
  6
CONTINUOUS
 10
-274.9916519126
 20
-65.2663647074
 11
-275.5445287145
 21
-65.2678121388
  0
LINE
  5
34A
100
AcDbEntity
  8
DRAFT
100
AcDbLine
 62
253
  6
CONTINUOUS
 10
-330.0445287145
 20
-68.0
 11
-342.0445287145
 21
-68.0
  0
LINE
  5
34B
100
AcDbEntity
  8
RACCORDO
100
AcDbLine
 62
253
  6
CONTINUOUS
 10
-279.8445287145
 20
-63.785243924
 11
-279.5497644341
 21
-63.7852439241
  0
LINE
  5
34C
100
AcDbEntity
  8
RACCORDO
100
AcDbLine
 62
253
  6
CONTINUOUS
 10
-326.0445287145
 20
-61.5
 11
-330.0445287145
 21
-61.5
  0
LINE
  5
34D
100
AcDbEntity
  8
RACCORDO
100
AcDbLine
 62
7
  6
CONTINUOUS
 10
-273.8445287145
 20
-62.2
 11
-322.9707073242
 21
-61.3424993627
  0
LINE
  5
34E
100
AcDbEntity
  8
RACCORDO
100
AcDbLine
 62
7
  6
CONTINUOUS
 10
-326.0445287145
 20
-57.8924633827
 11
-324.4445287145
 21
-57.6103402135
  0
LINE
  5
34F
100
AcDbEntity
  8
DRAFT
100
AcDbLine
 62
7
  6
CONTINUOUS
 10
-339.6034335434
 20
-55.7017614343
 11
-330.0445287145
 21
-55.5349101299
  0
LINE
  5
350
100
AcDbEntity
  8
DRAFT
100
AcDbLine
 62
7
  6
CONTINUOUS
 10
-339.6034335434
 20
-56.6982385657
 11
-330.0445287145
 21
-56.8650898701
  0
LINE
  5
351
100
AcDbEntity
  8
SMUSSO
100
AcDbLine
 62
7
  6
CONTINUOUS
 10
-324.4445287145
 20
-44.0
 11
-326.0445287145
 21
-43.5712812921
  0
LINE
  5
352
100
AcDbEntity
  8
RACCORDO
100
AcDbLine
 62
7
  6
CONTINUOUS
 10
-347.7445287145
 20
-87.5
 11
-347.7445287145
 21
87.5
  0
LINE
  5
353
100
AcDbEntity
  8
RACCORDO
100
AcDbLine
 62
253
  6
CONTINUOUS
 10
-345.7445287145
 20
-89.5
 11
-345.7445287145
 21
89.5
  0
LINE
  5
354
100
AcDbEntity
  8
CURVE
100
AcDbLine
 62
7
  6
CONTINUOUS
 10
-345.7445287145
 20
-89.5
 11
-345.7445287145
 21
89.5
  0
LINE
  5
355
100
AcDbEntity
  8
0
100
AcDbLine
 62
7
  6
CONTINUOUS
 10
-342.0445287145
 20
-89.5
 11
-342.0445287145
 21
89.5
  0
LINE
  5
356
100
AcDbEntity
  8
SMUSSO
100
AcDbLine
 62
7
  6
CONTINUOUS
 10
-326.0445287145
 20
-40.4287187079
 11
-324.4445287145
 21
-40.0
  0
LINE
  5
357
100
AcDbEntity
  8
RACCORDO
100
AcDbLine
 62
253
  6
CONTINUOUS
 10
-341.0619811209
 20
82.3078419577
 11
-341.0619811209
 21
77.017150432
  0
LINE
  5
358
100
AcDbEntity
  8
RACCORDO
100
AcDbLine
 62
253
  6
CONTINUOUS
 10
-341.0619811209
 20
-77.017150432
 11
-341.0619811209
 21
-82.3078419577
  0
LINE
  5
359
100
AcDbEntity
  8
DRAFT
100
AcDbLine
 62
7
  6
CONTINUOUS
 10
-339.6034335434
 20
-56.6982385657
 11
-339.6034335434
 21
-55.7017614343
  0
LINE
  5
35A
100
AcDbEntity
  8
DRAFT
100
AcDbLine
 62
7
  6
CONTINUOUS
 10
-339.6034335434
 20
-28.5982385657
 11
-339.6034335434
 21
-27.6017614343
  0
LINE
  5
35B
100
AcDbEntity
  8
DRAFT
100
AcDbLine
 62
7
  6
CONTINUOUS
 10
-339.6034335434
 20
-0.4982385657
 11
-339.6034335434
 21
0.4982385657
  0
LINE
  5
35C
100
AcDbEntity
  8
DRAFT
100
AcDbLine
 62
7
  6
CONTINUOUS
 10
-339.6034335434
 20
27.6017614343
 11
-339.6034335434
 21
28.5982385657
  0
LINE
  5
35D
100
AcDbEntity
  8
DRAFT
100
AcDbLine
 62
7
  6
CONTINUOUS
 10
-339.6034335434
 20
55.7017614343
 11
-339.6034335434
 21
56.6982385657
  0
LINE
  5
35E
100
AcDbEntity
  8
DRAFT
100
AcDbLine
 62
7
  6
CONTINUOUS
 10
-339.1445287145
 20
-83.3411589092
 11
-339.1445287145
 21
-84.5
  0
LINE
  5
35F
100
AcDbEntity
  8
DRAFT
100
AcDbLine
 62
7
  6
CONTINUOUS
 10
-339.1445287145
 20
83.3411589092
 11
-339.1445287145
 21
84.5
  0
LINE
  5
360
100
AcDbEntity
  8
DRAFT
100
AcDbLine
 62
7
  6
CONTINUOUS
 10
-339.6034335434
 20
-27.6017614343
 11
-330.0445287145
 21
-27.4349101299
  0
LINE
  5
361
100
AcDbEntity
  8
DRAFT
100
AcDbLine
 62
7
  6
CONTINUOUS
 10
-339.6034335434
 20
-28.5982385657
 11
-330.0445287145
 21
-28.7650898701
  0
LINE
  5
362
100
AcDbEntity
  8
DRAFT
100
AcDbLine
 62
7
  6
CONTINUOUS
 10
-334.3445287145
 20
-83.4249432208
 11
-334.3445287145
 21
-84.5
  0
LINE
  5
363
100
AcDbEntity
  8
DRAFT
100
AcDbLine
 62
7
  6
CONTINUOUS
 10
-334.3445287145
 20
83.4249432208
 11
-334.3445287145
 21
84.5
  0
LINE
  5
364
100
AcDbEntity
  8
DRAFT
100
AcDbLine
 62
7
  6
CONTINUOUS
 10
-330.0445287145
 20
-83.5
 11
-330.0445287145
 21
83.5
  0
LINE
  5
365
100
AcDbEntity
  8
RACCORDO
100
AcDbLine
 62
7
  6
CONTINUOUS
 10
-273.8445287145
 20
-21.8
 11
-322.9707073242
 21
-22.6575006373
  0
LINE
  5
366
100
AcDbEntity
  8
RACCORDO
100
AcDbLine
 62
7
  6
CONTINUOUS
 10
-273.8445287145
 20
-20.2
 11
-322.9707073242
 21
-19.3424993627
  0
LINE
  5
367
100
AcDbEntity
  8
RACCORDO
100
AcDbLine
 62
253
  6
CONTINUOUS
 10
-327.0270763081
 20
83.4473301723
 11
-327.0270763081
 21
-83.4473301723
  0
LINE
  5
368
100
AcDbEntity
  8
RACCORDO
100
AcDbLine
 62
7
  6
CONTINUOUS
 10
-326.0445287145
 20
82.4474824772
 11
-326.0445287145
 21
-82.4474824772
  0
LINE
  5
369
100
AcDbEntity
  8
SMUSSO
100
AcDbLine
 62
7
  6
CONTINUOUS
 10
-325.5446048669
 20
43.7052354833
 11
-325.5446048669
 21
40.2947645167
  0
LINE
  5
36A
100
AcDbEntity
  8
SMUSSO
100
AcDbLine
 62
7
  6
CONTINUOUS
 10
-325.5446048669
 20
1.7052354833
 11
-325.5446048669
 21
-1.7052354833
  0
LINE
  5
36B
100
AcDbEntity
  8
SMUSSO
100
AcDbLine
 62
7
  6
CONTINUOUS
 10
-325.5446048669
 20
-40.2947645167
 11
-325.5446048669
 21
-43.7052354833
  0
LINE
  5
36C
100
AcDbEntity
  8
RACCORDO
100
AcDbLine
 62
7
  6
CONTINUOUS
 10
-324.4445287145
 20
-59.84272782
 11
-324.4445287145
 21
-44.0
  0
LINE
  5
36D
100
AcDbEntity
  8
RACCORDO
100
AcDbLine
 62
7
  6
CONTINUOUS
 10
-324.4445287145
 20
-40.0
 11
-324.4445287145
 21
-24.15727218
  0
LINE
  5
36E
100
AcDbEntity
  8
RACCORDO
100
AcDbLine
 62
7
  6
CONTINUOUS
 10
-324.4445287145
 20
-17.84272782
 11
-324.4445287145
 21
-2.0
  0
LINE
  5
36F
100
AcDbEntity
  8
RACCORDO
100
AcDbLine
 62
7
  6
CONTINUOUS
 10
-324.4445287145
 20
2.0
 11
-324.4445287145
 21
17.84272782
  0
LINE
  5
370
100
AcDbEntity
  8
RACCORDO
100
AcDbLine
 62
7
  6
CONTINUOUS
 10
-324.4445287145
 20
24.15727218
 11
-324.4445287145
 21
40.0
  0
LINE
  5
371
100
AcDbEntity
  8
RACCORDO
100
AcDbLine
 62
7
  6
CONTINUOUS
 10
-324.4445287145
 20
44.0
 11
-324.4445287145
 21
59.84272782
  0
LINE
  5
372
100
AcDbEntity
  8
SMUSSO
100
AcDbLine
 62
7
  6
CONTINUOUS
 10
-324.4445287145
 20
-2.0
 11
-326.0445287145
 21
-1.5712812921
  0
LINE
  5
373
100
AcDbEntity
  8
DRAFT
100
AcDbLine
 62
7
  6
CONTINUOUS
 10
-339.6034335434
 20
-0.4982385657
 11
-330.0445287145
 21
-0.6650898701
  0
LINE
  5
374
100
AcDbEntity
  8
SMUSSO
100
AcDbLine
 62
7
  6
CONTINUOUS
 10
-326.0445287145
 20
1.5712812921
 11
-324.4445287145
 21
2.0
  0
LINE
  5
375
100
AcDbEntity
  8
DRAFT
100
AcDbLine
 62
7
  6
CONTINUOUS
 10
-339.6034335434
 20
0.4982385657
 11
-330.0445287145
 21
0.6650898701
  0
LINE
  5
376
100
AcDbEntity
  8
RACCORDO
100
AcDbLine
 62
7
  6
CONTINUOUS
 10
-294.0445287145
 20
22.1525923115
 11
-294.0445287145
 21
19.8474076884
  0
LINE
  5
377
100
AcDbEntity
  8
RACCORDO
100
AcDbLine
 62
7
  6
CONTINUOUS
 10
-294.0445287145
 20
-19.8474076885
 11
-294.0445287145
 21
-22.1525923116
  0
LINE
  5
378
100
AcDbEntity
  8
RACCORDO
100
AcDbLine
 62
7
  6
CONTINUOUS
 10
-273.8445287145
 20
20.2
 11
-322.9707073242
 21
19.3424993627
  0
LINE
  5
379
100
AcDbEntity
  8
RACCORDO
100
AcDbLine
 62
7
  6
CONTINUOUS
 10
-273.8445287145
 20
21.8
 11
-322.9707073242
 21
22.6575006373
  0
LINE
  5
37A
100
AcDbEntity
  8
RACCORDO
100
AcDbLine
 62
7
  6
CONTINUOUS
 10
-279.8445287145
 20
-63.8523612067
 11
-279.8445287145
 21
-62.0952696104
  0
LINE
  5
37B
100
AcDbEntity
  8
RACCORDO
100
AcDbLine
 62
7
  6
CONTINUOUS
 10
-279.8445287145
 20
-21.9047303896
 11
-279.8445287145
 21
-20.0952696104
  0
LINE
  5
37C
100
AcDbEntity
  8
RACCORDO
100
AcDbLine
 62
7
  6
CONTINUOUS
 10
-279.8445287145
 20
20.0952696104
 11
-279.8445287145
 21
21.9047303896
  0
LINE
  5
37D
100
AcDbEntity
  8
RACCORDO
100
AcDbLine
 62
7
  6
CONTINUOUS
 10
-279.8445287145
 20
62.0952696104
 11
-279.8445287145
 21
63.8523612067
  0
LINE
  5
37E
100
AcDbEntity
  8
RACCORDO
100
AcDbLine
 62
253
  6
CONTINUOUS
 10
-279.5497644341
 20
-63.7852901521
 11
-279.5497644342
 21
-62.1004147401
  0
LINE
  5
37F
100
AcDbEntity
  8
RACCORDO
100
AcDbLine
 62
253
  6
CONTINUOUS
 10
-279.5497644357
 20
-21.8995852599
 11
-279.5497644358
 21
-20.1004147401
  0
LINE
  5
380
100
AcDbEntity
  8
RACCORDO
100
AcDbLine
 62
253
  6
CONTINUOUS
 10
-279.5497644358
 20
20.1004147401
 11
-279.5497644357
 21
21.8995852599
  0
LINE
  5
381
100
AcDbEntity
  8
RACCORDO
100
AcDbLine
 62
253
  6
CONTINUOUS
 10
-279.5497644342
 20
62.1004147401
 11
-279.5497644341
 21
63.7852167431
  0
LINE
  5
382
100
AcDbEntity
  8
DRAFT
100
AcDbLine
 62
7
  6
CONTINUOUS
 10
-276.6445287145
 20
-63.8244352298
 11
-276.6445287145
 21
-62.1511258182
  0
LINE
  5
383
100
AcDbEntity
  8
DRAFT
100
AcDbLine
 62
7
  6
CONTINUOUS
 10
-276.6445287145
 20
-21.8488741818
 11
-276.6445287145
 21
-20.1511258182
  0
LINE
  5
384
100
AcDbEntity
  8
DRAFT
100
AcDbLine
 62
7
  6
CONTINUOUS
 10
-276.6445287145
 20
20.1511258182
 11
-276.6445287145
 21
21.8488741818
  0
LINE
  5
385
100
AcDbEntity
  8
DRAFT
100
AcDbLine
 62
7
  6
CONTINUOUS
 10
-276.6445287145
 20
62.1511258182
 11
-276.6445287145
 21
63.8244352298
  0
LINE
  5
386
100
AcDbEntity
  8
DRAFT
100
AcDbLine
 62
7
  6
CONTINUOUS
 10
-339.6034335434
 20
28.5982385657
 11
-330.0445287145
 21
28.7650898701
  0
LINE
  5
387
100
AcDbEntity
  8
DRAFT
100
AcDbLine
 62
7
  6
CONTINUOUS
 10
-339.6034335434
 20
27.6017614343
 11
-330.0445287145
 21
27.4349101299
  0
LINE
  5
388
100
AcDbEntity
  8
RACCORDO
100
AcDbLine
 62
253
  6
CONTINUOUS
 10
-274.9921714952
 20
-63.8100153268
 11
-274.9916519126
 21
-65.2663647074
  0
LINE
  5
389
100
AcDbEntity
  8
DRAFT
100
AcDbLine
 62
7
  6
CONTINUOUS
 10
-275.5445287145
 20
-73.8392381823
 11
-275.5445287145
 21
-71.3804952102
  0
LINE
  5
38A
100
AcDbEntity
  8
DRAFT
100
AcDbLine
 62
7
  6
CONTINUOUS
 10
-275.5445287145
 20
-70.4206763876
 11
-275.5445287145
 21
-68.6740105842
  0
LINE
  5
38B
100
AcDbEntity
  8
RACCORDO
100
AcDbLine
 62
7
  6
CONTINUOUS
 10
-275.5445287145
 20
-68.6740105842
 11
-275.5445287145
 21
-65.2678121388
  0
LINE
  5
38C
100
AcDbEntity
  8
RACCORDO
100
AcDbLine
 62
7
  6
CONTINUOUS
 10
-275.5445287145
 20
65.2678121388
 11
-275.5445287145
 21
68.6740105842
  0
LINE
  5
38D
100
AcDbEntity
  8
DRAFT
100
AcDbLine
 62
7
  6
CONTINUOUS
 10
-275.5445287145
 20
68.6740105842
 11
-275.5445287145
 21
70.4206763876
  0
LINE
  5
38E
100
AcDbEntity
  8
DRAFT
100
AcDbLine
 62
7
  6
CONTINUOUS
 10
-275.5445287145
 20
71.3804952102
 11
-275.5445287145
 21
73.8392381823
  0
LINE
  5
38F
100
AcDbEntity
  8
RACCORDO
100
AcDbLine
 62
253
  6
CONTINUOUS
 10
-274.9921714952
 20
65.2663660677
 11
-274.9921714952
 21
63.8100153268
  0
LINE
  5
390
100
AcDbEntity
  8
RACCORDO
100
AcDbLine
 62
253
  6
CONTINUOUS
 10
-274.9921714952
 20
62.1799678207
 11
-274.9921714952
 21
21.8200321793
  0
LINE
  5
391
100
AcDbEntity
  8
RACCORDO
100
AcDbLine
 62
253
  6
CONTINUOUS
 10
-274.9921714952
 20
20.1799678207
 11
-274.9921714952
 21
-20.1799678207
  0
LINE
  5
392
100
AcDbEntity
  8
RACCORDO
100
AcDbLine
 62
253
  6
CONTINUOUS
 10
-274.9921714952
 20
-21.8200321793
 11
-274.9921714952
 21
-62.1799678207
  0
LINE
  5
393
100
AcDbEntity
  8
RACCORDO
100
AcDbLine
 62
7
  6
CONTINUOUS
 10
-273.8445287145
 20
-63.8
 11
-273.8445287145
 21
-62.2
  0
LINE
  5
394
100
AcDbEntity
  8
RACCORDO
100
AcDbLine
 62
7
  6
CONTINUOUS
 10
-273.8445287145
 20
-21.8
 11
-273.8445287145
 21
-20.2
  0
LINE
  5
395
100
AcDbEntity
  8
RACCORDO
100
AcDbLine
 62
7
  6
CONTINUOUS
 10
-273.8445287145
 20
20.2
 11
-273.8445287145
 21
21.8
  0
LINE
  5
396
100
AcDbEntity
  8
RACCORDO
100
AcDbLine
 62
7
  6
CONTINUOUS
 10
-273.8445287145
 20
62.2
 11
-273.8445287145
 21
63.8
  0
LINE
  5
397
100
AcDbEntity
  8
RACCORDO
100
AcDbLine
 62
253
  6
CONTINUOUS
 10
-272.5432197191
 20
-65.7599335806
 11
-272.5432197191
 21
-70.8300536657
  0
LINE
  5
398
100
AcDbEntity
  8
RACCORDO
100
AcDbLine
 62
253
  6
CONTINUOUS
 10
-272.5432197191
 20
65.7599335806
 11
-272.5432197191
 21
70.8300536657
  0
LINE
  5
399
100
AcDbEntity
  8
RACCORDO
100
AcDbLine
 62
7
  6
CONTINUOUS
 10
-272.0445287145
 20
-70.8300536657
 11
-272.0445287145
 21
70.8300536657
  0
LINE
  5
39A
100
AcDbEntity
  8
SMUSSO
100
AcDbLine
 62
7
  6
CONTINUOUS
 10
-324.4445287145
 20
40.0
 11
-326.0445287145
 21
40.4287187079
  0
LINE
  5
39B
100
AcDbEntity
  8
SMUSSO
100
AcDbLine
 62
7
  6
CONTINUOUS
 10
-326.0445287145
 20
-75.2207189611
 11
-325.5446048669
 21
-74.7119927579
  0
LINE
  5
39C
100
AcDbEntity
  8
SMUSSO
100
AcDbLine
 62
7
  6
CONTINUOUS
 10
-325.5446048669
 20
74.7119927579
 11
-326.0445287145
 21
75.2207189611
  0
LINE
  5
39D
100
AcDbEntity
  8
SMUSSO
100
AcDbLine
 62
7
  6
CONTINUOUS
 10
-326.0445287145
 20
43.5712812921
 11
-324.4445287145
 21
44.0
  0
LINE
  5
39E
100
AcDbEntity
  8
DRAFT
100
AcDbLine
 62
7
  6
CONTINUOUS
 10
-339.6034335434
 20
56.6982385657
 11
-330.0445287145
 21
56.8650898701
  0
LINE
  5
39F
100
AcDbEntity
  8
DRAFT
100
AcDbLine
 62
7
  6
CONTINUOUS
 10
-339.6034335434
 20
55.7017614343
 11
-330.0445287145
 21
55.5349101299
  0
LINE
  5
3A0
100
AcDbEntity
  8
RACCORDO
100
AcDbLine
 62
7
  6
CONTINUOUS
 10
-326.0445287145
 20
57.8924633827
 11
-324.4445287145
 21
57.6103402135
  0
LINE
  5
3A1
100
AcDbEntity
  8
RACCORDO
100
AcDbLine
 62
7
  6
CONTINUOUS
 10
-273.8445287145
 20
62.2
 11
-322.9707073242
 21
61.3424993627
  0
LINE
  5
3A2
100
AcDbEntity
  8
RACCORDO
100
AcDbLine
 62
253
  6
CONTINUOUS
 10
-326.0445287145
 20
61.5
 11
-330.0445287145
 21
61.5
  0
LINE
  5
3A3
100
AcDbEntity
  8
RACCORDO
100
AcDbLine
 62
253
  6
CONTINUOUS
 10
-279.8445287145
 20
63.785243924
 11
-279.5497644317
 21
63.7852439257
  0
LINE
  5
3A4
100
AcDbEntity
  8
RACCORDO
100
AcDbLine
 62
253
  6
CONTINUOUS
 10
-274.9921714952
 20
65.2663660677
 11
-275.5445287145
 21
65.2678121388
  0
LINE
  5
3A5
100
AcDbEntity
  8
RACCORDO
100
AcDbLine
 62
7
  6
CONTINUOUS
 10
-273.8445287145
 20
63.8
 11
-326.0445287145
 21
64.2555424987
  0
LINE
  5
3A6
100
AcDbEntity
  8
DRAFT
100
AcDbLine
 62
7
  6
CONTINUOUS
 10
-275.5445287145
 20
71.3804952102
 11
-326.0445287145
 21
71.1935234594
  0
LINE
  5
3A7
100
AcDbEntity
  8
DRAFT
100
AcDbLine
 62
253
  6
CONTINUOUS
 10
-330.0445287145
 20
68.0
 11
-342.0445287145
 21
68.0
  0
LINE
  5
3A8
100
AcDbEntity
  8
RACCORDO
100
AcDbLine
 62
253
  6
CONTINUOUS
 10
-272.5432197191
 20
70.8300536657
 11
-272.0445287145
 21
70.830053673
  0
LINE
  5
3A9
100
AcDbEntity
  8
RACCORDO
100
AcDbLine
 62
7
  6
CONTINUOUS
 10
-286.4238677484
 20
70.5750955524
 11
-272.5432197191
 21
70.5600432244
  0
LINE
  5
3AA
100
AcDbEntity
  8
RACCORDO
100
AcDbLine
 62
7
  6
CONTINUOUS
 10
-272.5432197191
 20
65.7599335806
 11
-275.5445287145
 21
65.7677910071
  0
LINE
  5
3AB
100
AcDbEntity
  8
DRAFT
100
AcDbLine
 62
7
  6
CONTINUOUS
 10
-275.5445287145
 20
69.1268213246
 11
-272.5432197191
 21
69.118963898
  0
LINE
  5
3AC
100
AcDbEntity
  8
DRAFT
100
AcDbLine
 62
7
  6
CONTINUOUS
 10
-275.5445287145
 20
68.6740105842
 11
-326.0445287145
 21
69.0391318777
  0
LINE
  5
3AD
100
AcDbEntity
  8
DRAFT
100
AcDbLine
 62
7
  6
CONTINUOUS
 10
-275.5445287145
 20
70.4206763876
 11
-326.0445287145
 21
71.1374632992
  0
LINE
  5
3AE
100
AcDbEntity
  8
DRAFT
100
AcDbLine
 62
7
  6
CONTINUOUS
 10
-330.0445287145
 20
77.2094607791
 11
-342.0445287145
 21
77.0
  0
LINE
  5
3AF
100
AcDbEntity
  8
DRAFT
100
AcDbLine
 62
7
  6
CONTINUOUS
 10
-326.0445287145
 20
72.6223875397
 11
-275.5445287145
 21
72.0925723789
  0
LINE
  5
3B0
100
AcDbEntity
  8
RACCORDO
100
AcDbLine
 62
253
  6
CONTINUOUS
 10
-274.999588703
 20
73.3296729036
 11
-275.5445287145
 21
73.3391848669
  0
LINE
  5
3B1
100
AcDbEntity
  8
RACCORDO
100
AcDbLine
 62
7
  6
CONTINUOUS
 10
-274.9916519126
 20
73.8295876818
 11
-275.5445287145
 21
73.8392381823
  0
LINE
  5
3B2
100
AcDbEntity
  8
DRAFT
100
AcDbLine
 62
7
  6
CONTINUOUS
 10
-275.5445287145
 20
73.8392381823
 11
-326.0445287145
 21
74.7207189611
  0
LINE
  5
3B3
100
AcDbEntity
  8
RACCORDO
100
AcDbLine
 62
253
  6
CONTINUOUS
 10
-330.0445287145
 20
82.5001523048
 11
-341.0619811209
 21
82.3078419577
  0
LINE
  5
3B4
100
AcDbEntity
  8
RACCORDO
100
AcDbLine
 62
7
  6
CONTINUOUS
 10
-330.0445287145
 20
83.5
 11
-341.0619811209
 21
83.3076896529
  0
LINE
  5
3B5
100
AcDbEntity
  8
RACCORDO
100
AcDbLine
 62
253
  6
CONTINUOUS
 10
-347.7445287145
 20
79.5
 11
-342.0445287145
 21
79.5
  0
LINE
  5
3B6
100
AcDbEntity
  8
RACCORDO
100
AcDbLine
 62
253
  6
CONTINUOUS
 10
-341.0619811209
 20
82.3078419577
 11
-342.0445287145
 21
82.3078419577
  0
LINE
  5
3B7
100
AcDbEntity
  8
DRAFT
100
AcDbLine
 62
7
  6
CONTINUOUS
 10
-339.1445287145
 20
84.5
 11
-334.3445287145
 21
84.5
  0
LINE
  5
3B8
100
AcDbEntity
  8
RACCORDO
100
AcDbLine
 62
7
  6
CONTINUOUS
 10
-327.0270763081
 20
83.4473301723
 11
-330.0445287145
 21
83.5
  0
LINE
  5
3B9
100
AcDbEntity
  8
RACCORDO
100
AcDbLine
 62
7
  6
CONTINUOUS
 10
-342.0445287145
 20
89.5
 11
-345.7445287145
 21
89.5
  0
ARC
  5
3BA
100
AcDbEntity
  8
0
100
AcDbCircle
 62
7
  6
CONTINUOUS
 10
-12.6440162869
 20
-69.5
 40
14.5900727153
100
AcDbArc
 50
358.6254046104
 51
1.3745953896
  0
ARC
  5
3BB
100
AcDbEntity
  8
0
100
AcDbCircle
 62
7
  6
CONTINUOUS
 10
-200.6440162868
 20
-69.5
 40
14.5900727152
100
AcDbArc
 50
358.6254046104
 51
1.3745953896
  0
ARC
  5
3BC
100
AcDbEntity
  8
0
100
AcDbCircle
 62
7
  6
CONTINUOUS
 10
-175.3559837132
 20
-69.5
 40
14.5900727152
100
AcDbArc
 50
178.6254046104
 51
181.3745953896
  0
ARC
  5
3BD
100
AcDbEntity
  8
RACCORDO
100
AcDbCircle
 62
7
  6
CONTINUOUS
 10
-198.0
 20
-79.5
 40
10.0
100
AcDbArc
 50
179.9999998479
 51
270.0000001714
  0
ARC
  5
3BE
100
AcDbEntity
  8
CURVE
100
AcDbCircle
 62
7
  6
CONTINUOUS
 10
-198.0
 20
-79.5
 40
10.0
100
AcDbArc
 50
180.0
 51
270.0
  0
ARC
  5
3BF
100
AcDbEntity
  8
RACCORDO
100
AcDbCircle
 62
253
  6
CONTINUOUS
 10
-198.0
 20
-79.5
 40
7.9999939305
100
AcDbArc
 50
180.0
 51
270.0
  0
CIRCLE
  5
3C0
100
AcDbEntity
  8
0
100
AcDbCircle
 62
7
  6
CONTINUOUS
 10
-188.0
 20
-69.5
 40
3.0
  0
CIRCLE
  5
3C1
100
AcDbEntity
  8
0
100
AcDbCircle
 62
7
  6
CONTINUOUS
 10
-188.0
 20
-69.5
 40
2.75
  0
ARC
  5
3C2
100
AcDbEntity
  8
0
100
AcDbCircle
 62
7
  6
CONTINUOUS
 10
-12.6440162869
 20
69.5
 40
14.5900727153
100
AcDbArc
 50
358.6254046104
 51
1.3745953896
  0
ARC
  5
3C3
100
AcDbEntity
  8
0
100
AcDbCircle
 62
7
  6
CONTINUOUS
 10
-200.6440162868
 20
69.5
 40
14.5900727152
100
AcDbArc
 50
358.6254046104
 51
1.3745953896
  0
ARC
  5
3C4
100
AcDbEntity
  8
0
100
AcDbCircle
 62
7
  6
CONTINUOUS
 10
-175.3559837132
 20
69.5
 40
14.5900727152
100
AcDbArc
 50
178.6254046104
 51
181.3745953896
  0
ARC
  5
3C5
100
AcDbEntity
  8
RACCORDO
100
AcDbCircle
 62
7
  6
CONTINUOUS
 10
-198.0
 20
79.5
 40
10.0
100
AcDbArc
 50
89.9999998479
 51
180.0000001714
  0
ARC
  5
3C6
100
AcDbEntity
  8
CURVE
100
AcDbCircle
 62
7
  6
CONTINUOUS
 10
-198.0
 20
79.5
 40
10.0
100
AcDbArc
 50
90.0
 51
180.0
  0
ARC
  5
3C7
100
AcDbEntity
  8
RACCORDO
100
AcDbCircle
 62
253
  6
CONTINUOUS
 10
-198.0
 20
79.5
 40
7.9999939305
100
AcDbArc
 50
90.0
 51
180.0
  0
CIRCLE
  5
3C8
100
AcDbEntity
  8
0
100
AcDbCircle
 62
7
  6
CONTINUOUS
 10
-188.0
 20
69.5
 40
3.0
  0
CIRCLE
  5
3C9
100
AcDbEntity
  8
0
100
AcDbCircle
 62
7
  6
CONTINUOUS
 10
-188.0
 20
69.5
 40
2.75
  0
ARC
  5
3CA
100
AcDbEntity
  8
0
100
AcDbCircle
 62
7
  6
CONTINUOUS
 10
12.6440162869
 20
-69.5
 40
14.5900727153
100
AcDbArc
 50
178.6254046104
 51
181.3745953896
  0
ARC
  5
3CB
100
AcDbEntity
  8
0
100
AcDbCircle
 62
7
  6
CONTINUOUS
 10
175.3559837132
 20
-69.5
 40
14.5900727152
100
AcDbArc
 50
358.6254046104
 51
1.3745953896
  0
ARC
  5
3CC
100
AcDbEntity
  8
0
100
AcDbCircle
 62
7
  6
CONTINUOUS
 10
200.6440162868
 20
-69.5
 40
14.5900727152
100
AcDbArc
 50
178.6254046104
 51
181.3745953896
  0
ARC
  5
3CD
100
AcDbEntity
  8
RACCORDO
100
AcDbCircle
 62
7
  6
CONTINUOUS
 10
198.0
 20
-79.5
 40
10.0
100
AcDbArc
 50
269.9999998479
 51
0.0000001714
  0
ARC
  5
3CE
100
AcDbEntity
  8
CURVE
100
AcDbCircle
 62
7
  6
CONTINUOUS
 10
198.0
 20
-79.5
 40
10.0
100
AcDbArc
 50
270.0
 51
360.0
  0
ARC
  5
3CF
100
AcDbEntity
  8
RACCORDO
100
AcDbCircle
 62
253
  6
CONTINUOUS
 10
198.0
 20
-79.5
 40
7.9999939305
100
AcDbArc
 50
270.0
 51
360.0
  0
CIRCLE
  5
3D0
100
AcDbEntity
  8
0
100
AcDbCircle
 62
7
  6
CONTINUOUS
 10
188.0
 20
-69.5
 40
3.0
  0
CIRCLE
  5
3D1
100
AcDbEntity
  8
0
100
AcDbCircle
 62
7
  6
CONTINUOUS
 10
-0.0
 20
-69.5
 40
3.0
  0
CIRCLE
  5
3D2
100
AcDbEntity
  8
0
100
AcDbCircle
 62
7
  6
CONTINUOUS
 10
-0.0
 20
-69.5
 40
2.75
  0
CIRCLE
  5
3D3
100
AcDbEntity
  8
0
100
AcDbCircle
 62
7
  6
CONTINUOUS
 10
188.0
 20
-69.5
 40
2.75
  0
ARC
  5
3D4
100
AcDbEntity
  8
0
100
AcDbCircle
 62
7
  6
CONTINUOUS
 10
12.6440162869
 20
69.5
 40
14.5900727153
100
AcDbArc
 50
178.6254046104
 51
181.3745953896
  0
ARC
  5
3D5
100
AcDbEntity
  8
0
100
AcDbCircle
 62
7
  6
CONTINUOUS
 10
175.3559837132
 20
69.5
 40
14.5900727152
100
AcDbArc
 50
358.6254046104
 51
1.3745953896
  0
ARC
  5
3D6
100
AcDbEntity
  8
0
100
AcDbCircle
 62
7
  6
CONTINUOUS
 10
200.6440162868
 20
69.5
 40
14.5900727152
100
AcDbArc
 50
178.6254046104
 51
181.3745953896
  0
ARC
  5
3D7
100
AcDbEntity
  8
RACCORDO
100
AcDbCircle
 62
7
  6
CONTINUOUS
 10
198.0
 20
79.5
 40
10.0
100
AcDbArc
 50
359.9999998479
 51
90.0000001714
  0
ARC
  5
3D8
100
AcDbEntity
  8
CURVE
100
AcDbCircle
 62
7
  6
CONTINUOUS
 10
198.0
 20
79.5
 40
10.0
100
AcDbArc
 50
0.0
 51
90.0
  0
ARC
  5
3D9
100
AcDbEntity
  8
RACCORDO
100
AcDbCircle
 62
253
  6
CONTINUOUS
 10
198.0
 20
79.5
 40
7.9999939305
100
AcDbArc
 50
0.0
 51
90.0
  0
CIRCLE
  5
3DA
100
AcDbEntity
  8
0
100
AcDbCircle
 62
7
  6
CONTINUOUS
 10
188.0
 20
69.5
 40
3.0
  0
CIRCLE
  5
3DB
100
AcDbEntity
  8
0
100
AcDbCircle
 62
7
  6
CONTINUOUS
 10
0.0
 20
69.5
 40
3.0
  0
CIRCLE
  5
3DC
100
AcDbEntity
  8
0
100
AcDbCircle
 62
7
  6
CONTINUOUS
 10
0.0
 20
69.5
 40
2.75
  0
CIRCLE
  5
3DD
100
AcDbEntity
  8
0
100
AcDbCircle
 62
7
  6
CONTINUOUS
 10
188.0
 20
69.5
 40
2.75
  0
ARC
  5
3DE
100
AcDbEntity
  8
RACCORDO
100
AcDbCircle
 62
7
  6
CONTINUOUS
 10
-345.7445287145
 20
-87.5
 40
2.0
100
AcDbArc
 50
180.0
 51
270.0
  0
ARC
  5
3DF
100
AcDbEntity
  8
RACCORDO
100
AcDbCircle
 62
7
  6
CONTINUOUS
 10
-322.9445287145
 20
-17.84272782
 40
1.5
100
AcDbArc
 50
180.0
 51
269.0
  0
ARC
  5
3E0
100
AcDbEntity
  8
RACCORDO
100
AcDbCircle
 62
7
  6
CONTINUOUS
 10
-322.9445287145
 20
-59.84272782
 40
1.5
100
AcDbArc
 50
180.0
 51
269.0
  0
ARC
  5
3E1
100
AcDbEntity
  8
RACCORDO
100
AcDbCircle
 62
7
  6
CONTINUOUS
 10
-322.9445287145
 20
-24.15727218
 40
1.5
100
AcDbArc
 50
91.0
 51
180.0
  0
ARC
  5
3E2
100
AcDbEntity
  8
RACCORDO
100
AcDbCircle
 62
7
  6
CONTINUOUS
 10
-341.0445287145
 20
-82.3078419577
 40
1.0
100
AcDbArc
 50
180.0
 51
269.0
  0
ARC
  5
3E3
100
AcDbEntity
  8
RACCORDO
100
AcDbCircle
 62
7
  6
CONTINUOUS
 10
-327.0445287145
 20
-82.4474824772
 40
1.0
100
AcDbArc
 50
271.0
 51
360.0
  0
ARC
  5
3E4
100
AcDbEntity
  8
RACCORDO
100
AcDbCircle
 62
7
  6
CONTINUOUS
 10
-345.7445287145
 20
87.5
 40
2.0
100
AcDbArc
 50
90.0
 51
180.0
  0
ARC
  5
3E5
100
AcDbEntity
  8
RACCORDO
100
AcDbCircle
 62
7
  6
CONTINUOUS
 10
-322.9445287145
 20
17.84272782
 40
1.5
100
AcDbArc
 50
91.0
 51
180.0
  0
ARC
  5
3E6
100
AcDbEntity
  8
RACCORDO
100
AcDbCircle
 62
7
  6
CONTINUOUS
 10
-322.9445287145
 20
24.15727218
 40
1.5
100
AcDbArc
 50
180.0
 51
269.0
  0
ARC
  5
3E7
100
AcDbEntity
  8
RACCORDO
100
AcDbCircle
 62
7
  6
CONTINUOUS
 10
-322.9445287145
 20
59.84272782
 40
1.5
100
AcDbArc
 50
91.0
 51
180.0
  0
ARC
  5
3E8
100
AcDbEntity
  8
RACCORDO
100
AcDbCircle
 62
7
  6
CONTINUOUS
 10
-341.0445287145
 20
82.3078419577
 40
1.0
100
AcDbArc
 50
91.0
 51
180.0
  0
ARC
  5
3E9
100
AcDbEntity
  8
RACCORDO
100
AcDbCircle
 62
7
  6
CONTINUOUS
 10
-327.0445287145
 20
82.4474824772
 40
1.0
100
AcDbArc
 50
0.0
 51
89.0
  0
ARC
  5
3EA
100
AcDbEntity
  8
RACCORDO
100
AcDbCircle
 62
7
  6
CONTINUOUS
 10
-275.0445287145
 20
-70.8300536657
 40
3.0
100
AcDbArc
 50
271.0
 51
360.0
  0
ARC
  5
3EB
100
AcDbEntity
  8
RACCORDO
100
AcDbCircle
 62
253
  6
CONTINUOUS
 10
-275.0432879518
 20
-70.8299866135
 40
2.5000639158
100
AcDbArc
 50
271.0015366794
 51
359.9984633183
  0
ARC
  5
3EC
100
AcDbEntity
  8
RACCORDO
100
AcDbCircle
 62
7
  6
CONTINUOUS
 10
-272.5445287145
 20
-68.6189656115
 40
0.5
100
AcDbArc
 50
270.15
 51
360.0
  0
ARC
  5
3ED
100
AcDbEntity
  8
RACCORDO
100
AcDbCircle
 62
7
  6
CONTINUOUS
 10
-272.5446138997
 20
-65.2599355171
 40
0.5
100
AcDbArc
 50
270.1597615343
 51
0.0000255446
  0
ARC
  5
3EE
100
AcDbEntity
  8
RACCORDO
100
AcDbCircle
 62
7
  6
CONTINUOUS
 10
-275.0445287145
 20
70.8300536657
 40
3.0
100
AcDbArc
 50
0.0
 51
88.9900751897
  0
ARC
  5
3EF
100
AcDbEntity
  8
RACCORDO
100
AcDbCircle
 62
253
  6
CONTINUOUS
 10
-275.0433224076
 20
70.8299566562
 40
2.5001053587
100
AcDbArc
 50
0.0022232015
 51
88.9976858032
  0
ARC
  5
3F0
100
AcDbEntity
  8
RACCORDO
100
AcDbCircle
 62
7
  6
CONTINUOUS
 10
-272.5445287145
 20
68.6189656115
 40
0.5
100
AcDbArc
 50
0.0
 51
89.85
  0
ARC
  5
3F1
100
AcDbEntity
  8
RACCORDO
100
AcDbCircle
 62
7
  6
CONTINUOUS
 10
-272.5445998852
 20
65.2599354804
 40
0.5
100
AcDbArc
 50
359.9999786518
 51
89.8418444059
  0
SPLINE
  5
3F2
100
AcDbEntity
  8
RACCORDO
100
AcDbSpline
 62
253
  6
CONTINUOUS
 70
0
 71
3
 72
14
 73
10
 74
8
 42
0.0000001
 43
0.0000001
 44
0.0000000001
 12
-0.0174495419
 22
-0.9999881713
 32
0.0
 13
0.9999880786
 23
-0.0174548573
 33
0.0
 40
0.0
 40
0.0
 40
0.0
 40
0.0
 40
0.162816215
 40
0.3388927527
 40
0.521665555
 40
0.6997944688
 40
0.8544005235
 40
0.9612473963
 40
1.0
 40
1.0
 40
1.0
 40
1.0
 10
-341.0619811209
 20
-82.3078419577
 30
0.0
 10
-341.0629281437
 20
-82.3621133875
 30
0.0
 10
-341.0647900475
 20
-82.4751429097
 30
0.0
 10
-341.066801209
 20
-82.6487311012
 30
0.0
 10
-341.069407321
 20
-82.8289304836
 30
0.0
 10
-341.0668452764
 20
-82.9966272608
 30
0.0
 10
-341.0760799535
 20
-83.1553483339
 30
0.0
 10
-341.0542101105
 20
-83.2300000287
 30
0.0
 10
-341.0748985015
 20
-83.3074641792
 30
0.0
 10
-341.0619811209
 20
-83.3076896529
 30
0.0
 11
-341.0619811209
 21
-82.3078419577
 31
0.0
 11
-341.064589002
 21
-82.4706601489
 31
0.0
 11
-341.0668616176
 21
-82.6467467438
 31
0.0
 11
-341.0685205978
 21
-82.8295376801
 31
0.0
 11
-341.0692056369
 21
-83.0076902869
 31
0.0
 11
-341.0685024644
 21
-83.1623164502
 31
0.0
 11
-341.0661026745
 21
-83.2691513755
 31
0.0
 11
-341.0619811209
 21
-83.3076896529
 31
0.0
  0
LINE
  5
3F3
100
AcDbEntity
  8
RACCORDO
100
AcDbLine
 62
253
  6
CONTINUOUS
 10
-279.5498461084
 20
-63.8497894604
 11
-279.5497645858
 21
-63.7852901503
  0
LINE
  5
3F4
100
AcDbEntity
  8
RACCORDO
100
AcDbLine
 62
253
  6
CONTINUOUS
 10
-279.5497643407
 20
63.7852167442
 11
-279.5498459995
 21
63.849789459
  0
SPLINE
  5
3F5
100
AcDbEntity
  8
RACCORDO
100
AcDbSpline
 62
253
  6
CONTINUOUS
 70
0
 71
3
 72
10
 73
6
 74
4
 42
0.0000001
 43
0.0000001
 44
0.0000000001
 12
0.4999048902
 22
0.0087258723
 32
0.0
 13
-0.0087258131
 23
0.4999048912
 33
0.0
 40
0.0
 40
0.0
 40
0.0
 40
0.0
 40
0.133978458
 40
0.5000002332
 40
1.0
 40
1.0
 40
1.0
 40
1.0
 10
-274.9921714952
 20
-73.8295967511
 30
0.0
 10
-274.9698459997
 20
-73.8292070582
 30
0.0
 10
-275.0223429932
 20
-73.6951774967
 30
0.0
 10
-274.9798842336
 20
-73.5728895448
 30
0.0
 10
-274.9981344015
 20
-73.4129903466
 30
0.0
 10
-274.999588703
 20
-73.3296729036
 30
0.0
 11
-274.9921714952
 21
-73.8295967511
 31
0.0
 11
-274.9926862352
 21
-73.7626120401
 31
0.0
 11
-274.9954011079
 21
-73.5796282312
 31
0.0
 11
-274.999588703
 21
-73.3296729036
 31
0.0
  0
SPLINE
  5
3F6
100
AcDbEntity
  8
RACCORDO
100
AcDbSpline
 62
253
  6
CONTINUOUS
 70
0
 71
3
 72
11
 73
7
 74
5
 42
0.0000001
 43
0.0000001
 44
0.0000000001
 12
0.0
 22
-0.6698083739
 32
0.0
 13
-0.6698072262
 23
-0.0012399488
 33
0.0
 40
0.0
 40
0.0
 40
0.0
 40
0.0
 40
0.1928143746
 40
0.4267030024
 40
0.7033737455
 40
1.0
 40
1.0
 40
1.0
 40
1.0
 10
-272.0445287145
 20
-67.2064915756
 30
0.0
 10
-272.0445287145
 20
-67.2495411365
 30
0.0
 10
-272.0710224984
 20
-67.3458971869
 30
0.0
 10
-272.1822737545
 20
-67.4636398194
 30
0.0
 10
-272.3481969212
 20
-67.541831826
 30
0.0
 10
-272.4769922495
 20
-67.5599211541
 30
0.0
 10
-272.5432197191
 20
-67.5600437545
 30
0.0
 11
-272.0445287145
 21
-67.2064915756
 31
0.0
 11
-272.0768432592
 21
-67.3315321788
 31
0.0
 11
-272.1805845477
 21
-67.4489216015
 31
0.0
 11
-272.3466450975
 21
-67.5311776329
 31
0.0
 11
-272.5432197191
 21
-67.5600437545
 31
0.0
  0
LINE
  5
3F7
100
AcDbEntity
  8
RACCORDO
100
AcDbLine
 62
253
  6
CONTINUOUS
 10
-272.0445287145
 20
-65.2599352941
 11
-274.9916519133
 21
-65.2663649493
  0
LINE
  5
3F8
100
AcDbEntity
  8
RACCORDO
100
AcDbLine
 62
253
  6
CONTINUOUS
 10
-272.0445287145
 20
65.2599352941
 11
-274.9921714952
 21
65.2663660677
  0
SPLINE
  5
3F9
100
AcDbEntity
  8
RACCORDO
100
AcDbSpline
 62
253
  6
CONTINUOUS
 70
0
 71
3
 72
10
 73
6
 74
4
 42
0.0000001
 43
0.0000001
 44
0.0000000001
 12
0.0013089956
 22
0.5001479874
 32
0.0
 13
-0.5001479863
 23
0.0013093874
 33
0.0
 40
0.0
 40
0.0
 40
0.0
 40
0.0
 40
0.4998365119
 40
0.8657893229
 40
1.0
 40
1.0
 40
1.0
 40
1.0
 10
-274.9921714952
 20
65.2663660677
 30
0.0
 10
-274.9919534006
 20
65.3496968095
 30
0.0
 10
-274.9783846887
 20
65.5097728533
 30
0.0
 10
-275.0195447995
 20
65.6317032341
 30
0.0
 10
-274.9772136363
 20
65.7663057763
 30
0.0
 10
-274.999588703
 20
65.7663643542
 30
0.0
 11
-274.9921714952
 21
65.2663660677
 31
0.0
 11
-274.9926862352
 21
65.5163586194
 31
0.0
 11
-274.9954011079
 21
65.6993696724
 31
0.0
 11
-274.999588703
 21
65.7663643542
 31
0.0
  0
SPLINE
  5
3FA
100
AcDbEntity
  8
RACCORDO
100
AcDbSpline
 62
253
  6
CONTINUOUS
 70
0
 71
3
 72
11
 73
7
 74
5
 42
0.0000001
 43
0.0000001
 44
0.0000000001
 12
0.0
 22
0.6697006507
 32
0.0
 13
-0.6696995032
 23
0.0012397509
 33
0.0
 40
0.0
 40
0.0
 40
0.0
 40
0.0
 40
0.2095026927
 40
0.4446754984
 40
0.7120105469
 40
1.0
 40
1.0
 40
1.0
 40
1.0
 10
-272.0445287145
 20
67.2064915756
 30
0.0
 10
-272.0445287145
 20
67.2532596054
 30
0.0
 10
-272.0748370656
 20
67.3537020715
 30
0.0
 10
-272.1909789629
 20
67.4688472361
 30
0.0
 10
-272.3542155419
 20
67.542918458
 30
0.0
 10
-272.4789309212
 20
67.5599247428
 30
0.0
 10
-272.5432197191
 20
67.5600437545
 30
0.0
 11
-272.0445287145
 21
67.2064915756
 31
0.0
 11
-272.0824603792
 21
67.3415709093
 31
0.0
 11
-272.190507178
 21
67.4561601073
 31
0.0
 11
-272.3522775809
 21
67.5328652124
 31
0.0
 11
-272.5432197191
 21
67.5600437545
 31
0.0
  0
SPLINE
  5
3FB
100
AcDbEntity
  8
RACCORDO
100
AcDbSpline
 62
7
  6
CONTINUOUS
 70
0
 71
3
 72
13
 73
9
 74
7
 42
0.0000001
 43
0.0000001
 44
0.0000000001
 12
0.0
 22
-0.7101229841
 32
0.0
 13
-0.710038823
 23
-0.0109326261
 33
0.0
 40
0.0
 40
0.0
 40
0.0
 40
0.0
 40
0.1128229951
 40
0.2396735258
 40
0.3864269153
 40
0.5592772891
 40
0.7628104239
 40
1.0
 40
1.0
 40
1.0
 40
1.0
 10
-272.0445287145
 20
67.9664612868
 30
0.0
 10
-272.0445287145
 20
67.9397552195
 30
0.0
 10
-272.0515080582
 20
67.8828046855
 30
0.0
 10
-272.0852908523
 20
67.7967354503
 30
0.0
 10
-272.1488371512
 20
67.7108118813
 30
0.0
 10
-272.2468538931
 20
67.6325887074
 30
0.0
 10
-272.3825530167
 20
67.5764185391
 30
0.0
 10
-272.4870817832
 20
67.5609081242
 30
0.0
 10
-272.5432197191
 20
67.5600437559
 30
0.0
 11
-272.0445287145
 21
67.9664612868
 31
0.0
 11
-272.0541960532
 21
67.8869284707
 31
0.0
 11
-272.0867803322
 21
67.8029488481
 31
0.0
 11
-272.1481568407
 21
67.7187273297
 31
0.0
 11
-272.2437879955
 21
67.641779146
 31
0.0
 11
-272.376614694
 21
67.5847965411
 31
0.0
 11
-272.5432197191
 21
67.5600437559
 31
0.0
  0
SPLINE
  5
3FC
100
AcDbEntity
  8
RACCORDO
100
AcDbSpline
 62
253
  6
CONTINUOUS
 70
0
 71
3
 72
10
 73
6
 74
4
 42
0.0000001
 43
0.0000001
 44
0.0000000001
 12
0.0087258143
 22
0.4999048913
 32
0.0
 13
-0.4999048903
 23
0.0087258723
 33
0.0
 40
0.0
 40
0.0
 40
0.0
 40
0.0
 40
0.49999977
 40
0.8660215441
 40
1.0
 40
1.0
 40
1.0
 40
1.0
 10
-274.999588703
 20
73.3296729036
 30
0.0
 10
-274.9981344012
 20
73.4129903471
 30
0.0
 10
-274.9798842369
 20
73.5728895458
 30
0.0
 10
-275.0223429817
 20
73.6951774976
 30
0.0
 10
-274.9698460001
 20
73.8292070582
 30
0.0
 10
-274.9921714952
 20
73.8295967511
 30
0.0
 11
-274.999588703
 21
73.3296729036
 31
0.0
 11
-274.9954011064
 21
73.5796282328
 31
0.0
 11
-274.9926862304
 21
73.7626120411
 31
0.0
 11
-274.9921714952
 21
73.8295967511
 31
0.0
  0
SPLINE
  5
3FD
100
AcDbEntity
  8
RACCORDO
100
AcDbSpline
 62
7
  6
CONTINUOUS
 70
0
 71
3
 72
8
 73
4
 74
2
 42
0.0000001
 43
0.0000001
 44
0.0000000001
 12
0.2596873904
 22
-0.0002816079
 32
0.0
 13
0.2530437082
 23
-0.0581829498
 33
0.0
 40
0.0
 40
0.0
 40
0.0
 40
0.0
 40
1.0
 40
1.0
 40
1.0
 40
1.0
 10
-272.5432197191
 20
70.5600432244
 30
0.0
 10
-272.4566572556
 20
70.5599493551
 30
0.0
 10
-272.3696205222
 20
70.5494223138
 30
0.0
 10
-272.2852726195
 20
70.5300279972
 30
0.0
 11
-272.5432197191
 21
70.5600432244
 31
0.0
 11
-272.2852726195
 21
70.5300279972
 31
0.0
  0
SPLINE
  5
3FE
100
AcDbEntity
  8
RACCORDO
100
AcDbSpline
 62
7
  6
CONTINUOUS
 70
0
 71
3
 72
9
 73
5
 74
3
 42
0.0000001
 43
0.0000001
 44
0.0000000001
 12
0.2683269149
 22
-0.0616970544
 32
0.0
 13
0.1118368856
 23
-0.2525398242
 33
0.0
 40
0.0
 40
0.0
 40
0.0
 40
0.0
 40
0.7063936823
 40
1.0
 40
1.0
 40
1.0
 40
1.0
 10
-272.2852726195
 20
70.5300279972
 30
0.0
 10
-272.2220911403
 20
70.5155005274
 30
0.0
 10
-272.1347845717
 20
70.4878915718
 30
0.0
 10
-272.0633761355
 20
70.4130769757
 30
0.0
 10
-272.0524307968
 20
70.3883612131
 30
0.0
 11
-272.2852726195
 21
70.5300279972
 31
0.0
 11
-272.1066785648
 21
70.4529397052
 31
0.0
 11
-272.0524307968
 21
70.3883612131
 31
0.0
  0
SPLINE
  5
3FF
100
AcDbEntity
  8
RACCORDO
100
AcDbSpline
 62
7
  6
CONTINUOUS
 70
0
 71
3
 72
8
 73
4
 74
2
 42
0.0000001
 43
0.0000001
 44
0.0000000001
 12
0.0149824515
 22
-0.0338320015
 32
0.0
 13
0.0
 23
-0.0368907623
 33
0.0
 40
0.0
 40
0.0
 40
0.0
 40
0.0
 40
1.0
 40
1.0
 40
1.0
 40
1.0
 10
-272.0524307968
 20
70.3883612131
 30
0.0
 10
-272.0474366463
 20
70.3770838792
 30
0.0
 10
-272.0445287145
 20
70.3652340737
 30
0.0
 10
-272.0445287145
 20
70.3529371529
 30
0.0
 11
-272.0524307968
 21
70.3883612131
 31
0.0
 11
-272.0445287145
 21
70.3529371529
 31
0.0
  0
SPLINE
  5
400
100
AcDbEntity
  8
RACCORDO
100
AcDbSpline
 62
7
  6
CONTINUOUS
 70
0
 71
3
 72
8
 73
4
 74
2
 42
0.0000001
 43
0.0000001
 44
0.0000000001
 12
0.2596873904
 22
0.0002816079
 32
0.0
 13
0.2530437082
 23
0.0581829498
 33
0.0
 40
0.0
 40
0.0
 40
0.0
 40
0.0
 40
1.0
 40
1.0
 40
1.0
 40
1.0
 10
-272.5432197191
 20
-70.5600432244
 30
0.0
 10
-272.4566572556
 20
-70.5599493551
 30
0.0
 10
-272.3696205222
 20
-70.5494223138
 30
0.0
 10
-272.2852726195
 20
-70.5300279972
 30
0.0
 11
-272.5432197191
 21
-70.5600432244
 31
0.0
 11
-272.2852726195
 21
-70.5300279972
 31
0.0
  0
SPLINE
  5
401
100
AcDbEntity
  8
RACCORDO
100
AcDbSpline
 62
7
  6
CONTINUOUS
 70
0
 71
3
 72
9
 73
5
 74
3
 42
0.0000001
 43
0.0000001
 44
0.0000000001
 12
0.2708502555
 22
0.0622772521
 32
0.0
 13
0.1061765531
 23
0.2567174536
 33
0.0
 40
0.0
 40
0.0
 40
0.0
 40
0.0
 40
0.699812659
 40
1.0
 40
1.0
 40
1.0
 40
1.0
 10
-272.2852726195
 20
-70.5300279972
 30
0.0
 10
-272.2220911403
 20
-70.5155005274
 30
0.0
 10
-272.1339635426
 20
-70.4876319378
 30
0.0
 10
-272.0620344947
 20
-70.4116656913
 30
0.0
 10
-272.051410209
 20
-70.3859779147
 30
0.0
 11
-272.2852726195
 21
-70.5300279972
 31
0.0
 11
-272.1066785648
 21
-70.4529397052
 31
0.0
 11
-272.051410209
 21
-70.3859779147
 31
0.0
  0
SPLINE
  5
402
100
AcDbEntity
  8
RACCORDO
100
AcDbSpline
 62
7
  6
CONTINUOUS
 70
0
 71
3
 72
8
 73
4
 74
2
 42
0.0000001
 43
0.0000001
 44
0.0000000001
 12
0.0131024566
 22
0.0316795864
 32
0.0
 13
0.0
 23
0.0343011697
 33
0.0
 40
0.0
 40
0.0
 40
0.0
 40
0.0
 40
1.0
 40
1.0
 40
1.0
 40
1.0
 10
-272.051410209
 20
-70.3859779147
 30
0.0
 10
-272.0470427234
 20
-70.3754180526
 30
0.0
 10
-272.0445287145
 20
-70.3643708762
 30
0.0
 10
-272.0445287145
 20
-70.3529371529
 30
0.0
 11
-272.051410209
 21
-70.3859779147
 31
0.0
 11
-272.0445287145
 21
-70.3529371529
 31
0.0
  0
SPLINE
  5
403
100
AcDbEntity
  8
RACCORDO
100
AcDbSpline
 62
253
  6
CONTINUOUS
 70
0
 71
3
 72
11
 73
7
 74
5
 42
0.0000001
 43
0.0000001
 44
0.0000000001
 12
0.0
 22
0.7079321475
 32
0.0
 13
-0.7079305446
 23
0.0015064823
 33
0.0
 40
0.0
 40
0.0
 40
0.0
 40
0.0
 40
0.2257889577
 40
0.4664442977
 40
0.7266952754
 40
1.0
 40
1.0
 40
1.0
 40
1.0
 10
-272.0445287145
 20
-67.9664612868
 30
0.0
 10
-272.0445287145
 20
-67.9131801996
 30
0.0
 10
-272.0727622528
 20
-67.8016818793
 30
0.0
 10
-272.1872133132
 20
-67.6675236317
 30
0.0
 10
-272.3518703888
 20
-67.5803012865
 30
0.0
 10
-272.4787261315
 20
-67.5601809974
 30
0.0
 10
-272.5432197191
 20
-67.5600437545
 30
0.0
 11
-272.0445287145
 21
-67.9664612868
 31
0.0
 11
-272.0824604275
 21
-67.8111839432
 31
0.0
 11
-272.1905072576
 21
-67.6794606755
 31
0.0
 11
-272.35227762
 21
-67.5912861906
 31
0.0
 11
-272.5432197191
 21
-67.5600437545
 31
0.0
  0
SPLINE
  5
404
100
AcDbEntity
  8
RACCORDO
100
AcDbSpline
 62
253
  6
CONTINUOUS
 70
0
 71
3
 72
10
 73
6
 74
4
 42
0.0000001
 43
0.0000001
 44
0.0000000001
 12
0.5001479865
 22
0.0013093874
 32
0.0
 13
-0.0013090124
 23
0.5001479875
 33
0.0
 40
0.0
 40
0.0
 40
0.0
 40
0.0
 40
0.1342106791
 40
0.500163492
 40
1.0
 40
1.0
 40
1.0
 40
1.0
 10
-274.999588703
 20
-65.7663643542
 30
0.0
 10
-274.977213636
 20
-65.7663057763
 30
0.0
 10
-275.0195447966
 20
-65.6317032332
 30
0.0
 10
-274.9783846824
 20
-65.5097728522
 30
0.0
 10
-274.9919533978
 20
-65.3496968089
 30
0.0
 10
-274.9921714952
 20
-65.2663660677
 30
0.0
 11
-274.999588703
 21
-65.7663643542
 31
0.0
 11
-274.9954011064
 21
-65.6993696715
 31
0.0
 11
-274.9926862304
 21
-65.5163586175
 31
0.0
 11
-274.9921714952
 21
-65.2663660677
 31
0.0
  0
LINE
  5
405
100
AcDbEntity
  8
RACCORDO
100
AcDbLine
 62
253
  6
CONTINUOUS
 10
-279.5497644341
 20
63.7852167431
 11
-276.6445282732
 21
63.819961281
  0
SPLINE
  5
406
100
AcDbEntity
  8
RACCORDO
100
AcDbSpline
 62
253
  6
CONTINUOUS
 70
0
 71
3
 72
9
 73
5
 74
3
 42
0.0000001
 43
0.0000001
 44
0.0000000001
 12
2.905241415
 22
-0.0342451934
 32
0.0
 13
2.9052283822
 23
-0.0353345465
 33
0.0
 40
0.0
 40
0.0
 40
0.0
 40
0.0
 40
0.6197347569
 40
1.0
 40
1.0
 40
1.0
 40
1.0
 10
-279.5497644341
 20
-63.7852901521
 30
0.0
 10
-278.9496047401
 20
-63.7923644643
 30
0.0
 10
-277.9811919047
 20
-63.8038612824
 30
0.0
 10
-277.0127809194
 20
-63.8155150877
 30
0.0
 10
-276.6445284604
 20
-63.819993921
 30
0.0
 11
-279.5497644341
 21
-63.7852901521
 31
0.0
 11
-277.7492872644
 21
-63.8066747141
 31
0.0
 11
-276.6445284604
 21
-63.819993921
 31
0.0
  0
LINE
  5
407
100
AcDbEntity
  8
RACCORDO
100
AcDbLine
 62
7
  6
CONTINUOUS
 10
-275.5445286046
 20
67.5591630243
 11
-272.5432197191
 21
67.5600437545
  0
LINE
  5
408
100
AcDbEntity
  8
RACCORDO
100
AcDbLine
 62
7
  6
CONTINUOUS
 10
-275.5445286046
 20
-67.5591630243
 11
-272.5432197191
 21
-67.5600437545
  0
SPLINE
  5
409
100
AcDbEntity
  8
RACCORDO
100
AcDbSpline
 62
253
  6
CONTINUOUS
 70
0
 71
3
 72
14
 73
10
 74
8
 42
0.0000001
 43
0.0000001
 44
0.0000000001
 12
-1.0000660186
 22
-0.0174562167
 32
0.0
 13
0.017450902
 23
-1.0000661113
 33
0.0
 40
0.0
 40
0.0
 40
0.0
 40
0.0
 40
0.0133686061
 40
0.0584820974
 40
0.1449284634
 40
0.2822050606
 40
0.4762729575
 40
0.7218917704
 40
1.0
 40
1.0
 40
1.0
 40
1.0
 10
-341.0619811209
 20
83.3076896529
 30
0.0
 10
-341.0664376172
 20
83.3076118645
 30
0.0
 10
-341.0613246824
 20
83.2773052171
 30
0.0
 10
-341.0707156027
 20
83.2408096829
 30
0.0
 10
-341.0671156513
 20
83.1433190423
 30
0.0
 10
-341.0702467731
 20
83.0081010992
 30
0.0
 10
-341.0683078687
 20
82.8139421909
 30
0.0
 10
-341.0663441105
 20
82.5753282844
 30
0.0
 10
-341.0635988674
 20
82.4005508296
 30
0.0
 10
-341.0619811209
 20
82.3078419577
 30
0.0
 11
-341.0619811209
 21
83.3076896529
 31
0.0
 11
-341.0645652467
 21
83.2945702024
 31
0.0
 11
-341.0668277962
 21
83.2495036197
 31
0.0
 11
-341.0684939405
 21
83.163054432
 31
0.0
 11
-341.0692037855
 21
83.0257496944
 31
0.0
 11
-341.0685346184
 21
82.8316405749
 31
0.0
 11
-341.0661443361
 21
82.585979758
 31
0.0
 11
-341.0619811209
 21
82.3078419577
 31
0.0
  0
ENDSEC
  0
SECTION
  2
OBJECTS
  0
DICTIONARY
  5
C
100
AcDbDictionary
280
0
281
1
  3
ACAD_GROUP
350
D
  3
ACAD_MLINESTYLE
350
17
  3
ACAD_LAYOUT
350
1A
  3
ACAD_PLOTSETTINGS
350
19
  3
ACAD_PLOTSTYLENAME
350
E
  0
DICTIONARY
  5
D
102
{ACAD_REACTORS
330
C
102
}
100
AcDbDictionary
280
0
281
1
  0
ACDBDICTIONARYWDFLT
  5
E
102
{ACAD_REACTORS
330
C
102
}
100
AcDbDictionary
281
1
  3
Normal
350
F
100
AcDbDictionaryWithDefault
340
F
  0
DICTIONARY
  5
17
102
{ACAD_REACTORS
330
C
102
}
100
AcDbDictionary
280
0
281
1
  3
Standard
350
18
  0
DICTIONARY
  5
19
102
{ACAD_REACTORS
330
C
102
}
100
AcDbDictionary
281
1
  0
DICTIONARY
  5
1A
102
{ACAD_REACTORS
330
C
102
}
100
AcDbDictionary
281
1
  3
Model
350
40A
  3
Layout1
350
40B
  0
ACDBPLACEHOLDER
  5
F
102
{ACAD_REACTORS
330
E
102
}
  0
MLINESTYLE
  5
18
102
{ACAD_REACTORS
330
17
102
}
100
AcDbMlineStyle
  2
STANDARD
 70
0
  3

 62
256
 51
90.0
 52
90.0
 71
2
 49
0.5
 62
256
  6
BYLAYER
 49
-0.5
 62
256
  6
BYLAYER
  0
LAYOUT
  5
40A
102
{ACAD_REACTORS
330
1A
102
}
100
AcDbPlotSettings
  1

  2
none_device
  4
ISO_A4_(297.00_x_210.00_MM)
  6

 40
0.0
 41
0.0
 42
0.0
 43
0.0
 44
297.0
 45
210.0
 46
0.0
 47
0.0
 48
0.0
 49
0.0
140
0.0
141
0.0
142
1.0
143
1.0
 70
1024
 72
1
 73
0
 74
0
  7

 75
0
147
1.0
148
0.0
149
0.0
100
AcDbLayout
  1
Model
 70
0
 71
0
 10
0.0
 20
0.0
 11
297.0
 21
210.0
 12
0.0
 22
0.0
 32
0.0
 14
0.0
 24
0.0
 34
0.0
 15
0.0
 25
0.0
 35
0.0
146
0.0
 13
0.0
 23
0.0
 33
0.0
 16
1.0
 26
0.0
 36
0.0
 17
0.0
 27
1.0
 37
0.0
 76
0
330
211
345
0
346
0
  0
LAYOUT
  5
40B
102
{ACAD_REACTORS
330
1A
102
}
100
AcDbPlotSettings
  1

  2
none_device
  4
ISO_A4_(297.00_x_210.00_MM)
  6

 40
0.0
 41
0.0
 42
0.0
 43
0.0
 44
297.0
 45
210.0
 46
0.0
 47
0.0
 48
0.0
 49
0.0
140
0.0
141
0.0
142
1.0
143
1.0
 70
0
 72
1
 73
0
 74
0
  7

 75
0
147
1.0
148
0.0
149
0.0
100
AcDbLayout
  1
Layout1
 70
0
 71
1
 10
0.0
 20
0.0
 11
297.0
 21
210.0
 12
0.0
 22
0.0
 32
0.0
 14
0.0
 24
0.0
 34
0.0
 15
0.0
 25
0.0
 35
0.0
146
0.0
 13
0.0
 23
0.0
 33
0.0
 16
1.0
 26
0.0
 36
0.0
 17
0.0
 27
1.0
 37
0.0
 76
0
330
212
345
0
346
0
  0
ENDSEC
  0
EOF
