  0
SECTION
  2
HEADER
  9
$ACADVER
  1
AC1015
  9
$DWGCODEPAGE
  3
ANSI_1252
  9
$EXTMAX
 10
297.0
 20
210.0
 30
0.0
  9
$EXTMIN
 10
0.0
 20
0.0
 30
0.0
  9
$LIMMIN
 10
0.0
 20
0.0
  9
$LIMMAX
 10
297.0
 20
210.0
  9
$VIEWCTR
 10
148.5
 20
105.0
  9
$VIEWSIZE
 40
210.0
  9
$CLAYER
  8
0
  9
$LTSCALE
 40
16.335
  9
$CELTYPE
  6
BYLAYER
  9
$DIMSCALE
 40
1.0
  9
$DIMASZ
 40
3.0
  9
$DIMEXO
 40
1.85625
  9
$DIMDLI
 40
11.286
  9
$DIMEXE
 40
5.346
  9
$DIMCEN
 40
2.673
  9
$DIMLFAC
 40
1.0
  9
$DIMBLK
  1
_FILLED
  9
$DIMTXT
 40
3.0
  9
$DIMTOL
 70
1
  9
$DIMLIM
 70
0
  9
$DIMTFAC
 40
1.0
  9
$DIMTP
 40
0.01
  9
$DIMTM
 40
0.01
  9
$PDMODE
 70
3
  9
$PDSIZE
 40
3.0
  9
$HANDSEED
  5
478
  9
$TILEMODE
 70
1
  9
$MEASUREMENT
 70
1
  9
$INSUNITS
 70
4
  0
ENDSEC
  0
SECTION
  2
CLASSES
  0
CLASS
  1
ACDBDICTIONARYWDFLT
  2
AcDbDictionaryWithDefault
  3
AutoCAD 2000
 90
0
280
0
281
0
  0
CLASS
  1
ACDBPLACEHOLDER
  2
AcDbPlaceHolder
  3
AutoCAD 2000
 90
0
280
0
281
0
  0
CLASS
  1
LAYOUT
  2
AcDbLayout
  3
AutoCAD 2000
 90
0
280
0
281
0
  0
ENDSEC
  0
SECTION
  2
TABLES
  0
TABLE
  2
VPORT
  5
8
100
AcDbSymbolTable
 70
2
  0
VPORT
  5
1F4
100
AcDbSymbolTableRecord
100
AcDbViewportTableRecord
  2
*ACTIVE
 70
0
 10
0.0
 20
0.0
 11
1.0
 21
1.0
 12
148.5
 22
105.0
 13
0.0
 23
0.0
 14
1.0
 24
1.0
 15
0.0
 25
0.0
 16
0.0
 26
0.0
 36
1.0
 17
0.0
 27
0.0
 37
0.0
 40
210.0
 41
1.4142857143
 42
50.0
 43
0.0
 44
0.0
 50
0.0
 51
0.0
 71
0
 72
100
 73
1
 74
1
 75
0
 76
0
 77
0
 78
0
  0
ENDTAB
  0
TABLE
  2
LTYPE
  5
5
100
AcDbSymbolTable
 70
6
  0
LTYPE
  5
14
100
AcDbSymbolTableRecord
100
AcDbLinetypeTableRecord
  2
BYBLOCK
 70
0
  3

 72
65
 73
0
 40
0.0
  0
LTYPE
  5
15
100
AcDbSymbolTableRecord
100
AcDbLinetypeTableRecord
  2
BYLAYER
 70
0
  3

 72
65
 73
0
 40
0.0
  0
LTYPE
  5
16
100
AcDbSymbolTableRecord
100
AcDbLinetypeTableRecord
  2
CONTINUOUS
 70
64
  3
Solid line
 72
65
 73
0
 40
0.0
  0
LTYPE
  5
1F5
100
AcDbSymbolTableRecord
100
AcDbLinetypeTableRecord
  2
CENTER
 70
64
  3
____ _ ____ _ ____ _ ____ _ ____ _ ____ _ ____
 72
65
 73
4
 40
0.6
 49
0.375
 74
0
 49
-0.075
 74
0
 49
0.075
 74
0
 49
-0.075
 74
0
  0
LTYPE
  5
1F6
100
AcDbSymbolTableRecord
100
AcDbLinetypeTableRecord
  2
HIDDEN
 70
64
  3
- - - - - - - - - - - - - - - - - - - -
 72
65
 73
2
 40
0.2
 49
0.1
 74
0
 49
-0.1
 74
0
  0
LTYPE
  5
1F7
100
AcDbSymbolTableRecord
100
AcDbLinetypeTableRecord
  2
PHANTOM
 70
64
  3
_____ _ _ _____ _ _ _____ _ _ _____
 72
65
 73
6
 40
0.8
 49
0.45
 74
0
 49
-0.05
 74
0
 49
0.1
 74
0
 49
-0.05
 74
0
 49
0.1
 74
0
 49
-0.05
 74
0
  0
LTYPE
  5
1F8
100
AcDbSymbolTableRecord
100
AcDbLinetypeTableRecord
  2
DOT
 70
64
  3
. . . . . . . . . . . . . . . . . . . .
 72
65
 73
2
 40
0.2
 49
0.1
 74
0
 49
-0.1
 74
0
  0
LTYPE
  5
1F9
100
AcDbSymbolTableRecord
100
AcDbLinetypeTableRecord
  2
DASHED
 70
64
  3
- - - - - - - - - - - - - - - - - - - -
 72
65
 73
2
 40
0.2
 49
0.1
 74
0
 49
-0.1
 74
0
  0
ENDTAB
  0
TABLE
  2
LAYER
  5
2
100
AcDbSymbolTable
 70
36
  0
LAYER
  5
10
100
AcDbSymbolTableRecord
100
AcDbLayerTableRecord
  2
0
 70
0
 62
7
  6
CONTINUOUS
370
-3
390
F
  0
LAYER
  5
1FA
100
AcDbSymbolTableRecord
100
AcDbLayerTableRecord
  2
DEFAULT_1
 70
0
 62
7
  6
CENTER
370
-3
390
F
  0
LAYER
  5
1FB
100
AcDbSymbolTableRecord
100
AcDbLayerTableRecord
  2
DEFAULT_2
 70
0
 62
7
  6
HIDDEN
370
-3
390
F
  0
LAYER
  5
1FC
100
AcDbSymbolTableRecord
100
AcDbLayerTableRecord
  2
DEFAULT_3
 70
0
 62
7
  6
PHANTOM
370
-3
390
F
  0
LAYER
  5
1FD
100
AcDbSymbolTableRecord
100
AcDbLayerTableRecord
  2
ASSI
 70
0
 62
7
  6
CONTINUOUS
370
-3
390
F
  0
LAYER
  5
1FE
100
AcDbSymbolTableRecord
100
AcDbLayerTableRecord
  2
COORDINATE
 70
0
 62
7
  6
CONTINUOUS
370
-3
390
F
  0
LAYER
  5
1FF
100
AcDbSymbolTableRecord
100
AcDbLayerTableRecord
  2
COORD_ORIGINE
 70
0
 62
7
  6
CONTINUOUS
370
-3
390
F
  0
LAYER
  5
200
100
AcDbSymbolTableRecord
100
AcDbLayerTableRecord
  2
COPY_PUBLISH
 70
0
 62
7
  6
CONTINUOUS
370
-3
390
F
  0
LAYER
  5
201
100
AcDbSymbolTableRecord
100
AcDbLayerTableRecord
  2
COSMETIC
 70
0
 62
7
  6
CONTINUOUS
370
-3
390
F
  0
LAYER
  5
202
100
AcDbSymbolTableRecord
100
AcDbLayerTableRecord
  2
CURVE
 70
0
 62
7
  6
CONTINUOUS
370
-3
390
F
  0
LAYER
  5
203
100
AcDbSymbolTableRecord
100
AcDbLayerTableRecord
  2
DRAFT
 70
0
 62
7
  6
CONTINUOUS
370
-3
390
F
  0
LAYER
  5
204
100
AcDbSymbolTableRecord
100
AcDbLayerTableRecord
  2
IMPORT_IGES
 70
0
 62
7
  6
CONTINUOUS
370
-3
390
F
  0
LAYER
  5
205
100
AcDbSymbolTableRecord
100
AcDbLayerTableRecord
  2
NOTE
 70
0
 62
7
  6
CONTINUOUS
370
-3
390
F
  0
LAYER
  5
206
100
AcDbSymbolTableRecord
100
AcDbLayerTableRecord
  2
PIANI
 70
0
 62
7
  6
CONTINUOUS
370
-3
390
F
  0
LAYER
  5
207
100
AcDbSymbolTableRecord
100
AcDbLayerTableRecord
  2
PIANI_ORIGINE
 70
0
 62
7
  6
CONTINUOUS
370
-3
390
F
  0
LAYER
  5
208
100
AcDbSymbolTableRecord
100
AcDbLayerTableRecord
  2
PUNTI
 70
0
 62
7
  6
CONTINUOUS
370
-3
390
F
  0
LAYER
  5
209
100
AcDbSymbolTableRecord
100
AcDbLayerTableRecord
  2
RACCORDO
 70
0
 62
7
  6
CONTINUOUS
370
-3
390
F
  0
LAYER
  5
20A
100
AcDbSymbolTableRecord
100
AcDbLayerTableRecord
  2
SMUSSO
 70
0
 62
7
  6
CONTINUOUS
370
-3
390
F
  0
LAYER
  5
20B
100
AcDbSymbolTableRecord
100
AcDbLayerTableRecord
  2
SNAPLINE
 70
0
 62
7
  6
CONTINUOUS
370
-3
390
F
  0
LAYER
  5
20C
100
AcDbSymbolTableRecord
100
AcDbLayerTableRecord
  2
SUPERFICI
 70
0
 62
7
  6
CONTINUOUS
370
-3
390
F
  0
LAYER
  5
20D
100
AcDbSymbolTableRecord
100
AcDbLayerTableRecord
  2
TRASH
 70
0
 62
7
  6
CONTINUOUS
370
-3
390
F
  0
LAYER
  5
20E
100
AcDbSymbolTableRecord
100
AcDbLayerTableRecord
  2
XSEC_DATUMS
 70
0
 62
7
  6
CONTINUOUS
370
-3
390
F
  0
ENDTAB
  0
TABLE
  2
STYLE
  5
3
100
AcDbSymbolTable
 70
1
  0
STYLE
  5
11
100
AcDbSymbolTableRecord
100
AcDbTextStyleTableRecord
  2
STANDARD
 70
0
 40
0.0
 41
0.8
 50
0.0
 71
0
 42
0.2
  3
txt
  4

  0
STYLE
  5
20F
100
AcDbSymbolTableRecord
100
AcDbTextStyleTableRecord
  2
TEXTSTYLE_1
 70
0
 40
0.0
 41
0.8
 50
0.0
 71
0
 42
0.2
  3
gdt
  4

  0
ENDTAB
  0
TABLE
  2
VIEW
  5
6
100
AcDbSymbolTable
 70
0
  0
ENDTAB
  0
TABLE
  2
UCS
  5
7
100
AcDbSymbolTable
 70
0
  0
ENDTAB
  0
TABLE
  2
APPID
  5
9
100
AcDbSymbolTable
 70
1
  0
APPID
  5
210
100
AcDbSymbolTableRecord
100
AcDbRegAppTableRecord
  2
ACAD
 70
0
  0
ENDTAB
  0
TABLE
  2
BLOCK_RECORD
  5
1
100
AcDbSymbolTable
 70
0
  0
BLOCK_RECORD
  5
211
100
AcDbSymbolTableRecord
100
AcDbBlockTableRecord
  2
*Model_Space
  0
BLOCK_RECORD
  5
212
100
AcDbSymbolTableRecord
100
AcDbBlockTableRecord
  2
*Paper_Space
  0
BLOCK_RECORD
  5
213
100
AcDbSymbolTableRecord
100
AcDbBlockTableRecord
  2
_FILLED
  0
BLOCK_RECORD
  5
214
100
AcDbSymbolTableRecord
100
AcDbBlockTableRecord
  2
_NONE
  0
BLOCK_RECORD
  5
215
100
AcDbSymbolTableRecord
100
AcDbBlockTableRecord
  2
*D0
  0
BLOCK_RECORD
  5
216
100
AcDbSymbolTableRecord
100
AcDbBlockTableRecord
  2
*D1
  0
BLOCK_RECORD
  5
217
100
AcDbSymbolTableRecord
100
AcDbBlockTableRecord
  2
*D2
  0
BLOCK_RECORD
  5
218
100
AcDbSymbolTableRecord
100
AcDbBlockTableRecord
  2
*D3
  0
BLOCK_RECORD
  5
219
100
AcDbSymbolTableRecord
100
AcDbBlockTableRecord
  2
*D4
  0
BLOCK_RECORD
  5
21A
100
AcDbSymbolTableRecord
100
AcDbBlockTableRecord
  2
*D5
  0
BLOCK_RECORD
  5
21B
100
AcDbSymbolTableRecord
100
AcDbBlockTableRecord
  2
*D6
  0
BLOCK_RECORD
  5
21C
100
AcDbSymbolTableRecord
100
AcDbBlockTableRecord
  2
*D7
  0
BLOCK_RECORD
  5
21D
100
AcDbSymbolTableRecord
100
AcDbBlockTableRecord
  2
*D8
  0
BLOCK_RECORD
  5
21E
100
AcDbSymbolTableRecord
100
AcDbBlockTableRecord
  2
*D9
  0
ENDTAB
  0
TABLE
  2
DIMSTYLE
  5
A
100
AcDbSymbolTable
 70
1
100
AcDbDimStyleTable
 71
0
  0
DIMSTYLE
105
21F
100
AcDbSymbolTableRecord
100
AcDbDimStyleTableRecord
  2
STANDARD
 70
0
  3

  4

 40
1.0
 41
3.0
 42
0.0625
 43
0.38
 44
0.18
 45
0.0
 46
0.0
 47
0.01
 48
0.01
140
3.0
141
0.09
142
0.0
143
25.4
144
1.0
145
0.0
146
1.0
147
0.09
 71
1.0
 72
0.0
 73
0
 74
0
 75
0
 76
0
 77
1
 78
8
170
0
171
2
172
0
173
0
174
0
175
0
176
0
177
0
178
0
270
2
271
2
272
2
273
2
274
2
275
0
280
0
281
0
282
0
283
1
284
8
285
0
286
0
287
3
288
0
340
11
341
213
342
213
343
213
344
213
  0
DIMSTYLE
105
220
100
AcDbSymbolTableRecord
100
AcDbDimStyleTableRecord
  2
DIMSTYLE_1
 70
0
  3

  4

 40
1.0
 41
3.0
 42
0.0625
 43
0.38
 44
0.18
 45
0.0
 46
0.0
 47
0.0
 48
0.0
140
3.0
141
0.09
142
0.0
143
25.4
144
1.0
145
0.0
146
1.0
147
0.09
 71
0.0
 72
0.0
 73
0
 74
0
 75
0
 76
0
 77
1
 78
8
170
0
171
2
172
0
173
0
174
0
175
0
176
0
177
0
178
0
270
2
271
2
272
2
273
2
274
2
275
0
280
0
281
0
282
0
283
1
284
8
285
0
286
0
287
3
288
0
340
11
341
213
342
213
343
213
344
213
  0
ENDTAB
  0
ENDSEC
  0
SECTION
  2
BLOCKS
  0
BLOCK
  5
20
100
AcDbEntity
  8
0
100
AcDbBlockBegin
  2
*Model_Space
 70
0
 10
0.0
 20
0.0
 30
0.0
  3
*Model_Space
  1

  0
ENDBLK
  5
21
100
AcDbEntity
  8
0
100
AcDbBlockEnd
  0
BLOCK
  5
1C
100
AcDbEntity
  8
0
100
AcDbBlockBegin
  2
*Paper_Space
 70
0
 10
0.0
 20
0.0
 30
0.0
  3
*Paper_Space
  1

  0
ENDBLK
  5
1D
100
AcDbEntity
  8
0
100
AcDbBlockEnd
  0
BLOCK
  5
221
100
AcDbEntity
  8
0
100
AcDbBlockBegin
  2
_FILLED
 70
64
 10
0.0
 20
0.0
  3
_FILLED
  1

  0
SOLID
  5
222
100
AcDbEntity
  8
0
  6
BYBLOCK
 62
0
100
AcDbTrace
 10
0.0
 20
0.0
 11
-1.0
 21
0.3166666667
 12
-1.0
 22
-0.3166666667
 13
-1.0
 23
-0.3166666667
  0
ENDBLK
  5
223
100
AcDbEntity
  8
0
  6
BYBLOCK
 62
0
100
AcDbBlockEnd
  0
BLOCK
  5
224
100
AcDbEntity
  8
0
100
AcDbBlockBegin
  2
_NONE
 70
64
 10
0.0
 20
0.0
  3
_NONE
  1

  0
ENDBLK
  5
225
100
AcDbEntity
  8
0
  6
BYBLOCK
 62
0
100
AcDbBlockEnd
  0
BLOCK
  5
226
100
AcDbEntity
  8
0
100
AcDbBlockBegin
 62
7
  6
CONTINUOUS
  2
*D0
 70
65
 10
0.0
 20
0.0
  3
*D0
  1

  0
MTEXT
  5
227
100
AcDbEntity
  8
0
100
AcDbMText
 62
7
  6
CONTINUOUS
  7
STANDARD
 71
2
 72
1
 10
0.0
 20
131.75
 30
0.0
 11
1.0
 21
0.0
 31
0.0
 44
0.9
  1
494
 40
3.0
 41
7.0714285714
  0
LINE
  5
228
100
AcDbEntity
  8
0
100
AcDbLine
 62
7
  6
CONTINUOUS
 10
-247.0
 20
90.5
 11
-247.0
 21
129.5
  0
LINE
  5
229
100
AcDbEntity
  8
0
100
AcDbLine
 62
7
  6
CONTINUOUS
 10
247.0
 20
90.5
 11
247.0
 21
129.5
  0
LINE
  5
22A
100
AcDbEntity
  8
0
100
AcDbLine
 62
7
  6
CONTINUOUS
 10
-247.0
 20
128.0
 11
0.0
 21
128.0
  0
LINE
  5
22B
100
AcDbEntity
  8
0
100
AcDbLine
 62
7
  6
CONTINUOUS
 10
247.0
 20
128.0
 11
0.0
 21
128.0
  0
INSERT
  5
22C
100
AcDbEntity
  8
0
100
AcDbBlockReference
 62
7
  6
CONTINUOUS
  2
_FILLED
 10
-247.0
 20
128.0
 41
3.0
 42
3.0
 43
3.0
 50
180.0
  0
INSERT
  5
22D
100
AcDbEntity
  8
0
100
AcDbBlockReference
 62
7
  6
CONTINUOUS
  2
_FILLED
 10
247.0
 20
128.0
 41
3.0
 42
3.0
 43
3.0
  0
ENDBLK
  5
22E
100
AcDbEntity
  8
0
  6
BYBLOCK
 62
0
100
AcDbBlockEnd
  0
BLOCK
  5
22F
100
AcDbEntity
  8
0
100
AcDbBlockBegin
 62
7
  6
CONTINUOUS
  2
*D1
 70
65
 10
0.0
 20
0.0
  3
*D1
  1

  0
MTEXT
  5
230
100
AcDbEntity
  8
0
100
AcDbMText
 62
7
  6
CONTINUOUS
  7
STANDARD
 71
2
 72
1
 10
-166.0
 20
121.75
 30
0.0
 11
1.0
 21
0.0
 31
0.0
 44
0.9
  1
162
 40
3.0
 41
6.4285714286
  0
LINE
  5
231
100
AcDbEntity
  8
0
100
AcDbLine
 62
7
  6
CONTINUOUS
 10
-85.0
 20
90.5
 11
-85.0
 21
119.5
  0
LINE
  5
232
100
AcDbEntity
  8
0
100
AcDbLine
 62
7
  6
CONTINUOUS
 10
-247.0
 20
90.5
 11
-247.0
 21
119.5
  0
LINE
  5
233
100
AcDbEntity
  8
0
100
AcDbLine
 62
7
  6
CONTINUOUS
 10
-85.0
 20
118.0
 11
-166.0
 21
118.0
  0
LINE
  5
234
100
AcDbEntity
  8
0
100
AcDbLine
 62
7
  6
CONTINUOUS
 10
-247.0
 20
118.0
 11
-166.0
 21
118.0
  0
INSERT
  5
235
100
AcDbEntity
  8
0
100
AcDbBlockReference
 62
7
  6
CONTINUOUS
  2
_FILLED
 10
-85.0
 20
118.0
 41
3.0
 42
3.0
 43
3.0
  0
INSERT
  5
236
100
AcDbEntity
  8
0
100
AcDbBlockReference
 62
7
  6
CONTINUOUS
  2
_FILLED
 10
-247.0
 20
118.0
 41
3.0
 42
3.0
 43
3.0
 50
180.0
  0
ENDBLK
  5
237
100
AcDbEntity
  8
0
  6
BYBLOCK
 62
0
100
AcDbBlockEnd
  0
BLOCK
  5
238
100
AcDbEntity
  8
0
100
AcDbBlockBegin
 62
7
  6
CONTINUOUS
  2
*D2
 70
65
 10
0.0
 20
0.0
  3
*D2
  1

  0
MTEXT
  5
239
100
AcDbEntity
  8
0
100
AcDbMText
 62
7
  6
CONTINUOUS
  7
STANDARD
 71
2
 72
1
 10
-0.0
 20
121.75
 30
0.0
 11
1.0
 21
0.0
 31
0.0
 44
0.9
  1
170
 40
3.0
 41
6.4285714286
  0
LINE
  5
23A
100
AcDbEntity
  8
0
100
AcDbLine
 62
7
  6
CONTINUOUS
 10
-85.0
 20
90.5
 11
-85.0
 21
119.5
  0
LINE
  5
23B
100
AcDbEntity
  8
0
100
AcDbLine
 62
7
  6
CONTINUOUS
 10
85.0
 20
90.5
 11
85.0
 21
119.5
  0
LINE
  5
23C
100
AcDbEntity
  8
0
100
AcDbLine
 62
7
  6
CONTINUOUS
 10
-85.0
 20
118.0
 11
-0.0
 21
118.0
  0
LINE
  5
23D
100
AcDbEntity
  8
0
100
AcDbLine
 62
7
  6
CONTINUOUS
 10
85.0
 20
118.0
 11
-0.0
 21
118.0
  0
INSERT
  5
23E
100
AcDbEntity
  8
0
100
AcDbBlockReference
 62
7
  6
CONTINUOUS
  2
_FILLED
 10
-85.0
 20
118.0
 41
3.0
 42
3.0
 43
3.0
 50
180.0
  0
INSERT
  5
23F
100
AcDbEntity
  8
0
100
AcDbBlockReference
 62
7
  6
CONTINUOUS
  2
_FILLED
 10
85.0
 20
118.0
 41
3.0
 42
3.0
 43
3.0
  0
ENDBLK
  5
240
100
AcDbEntity
  8
0
  6
BYBLOCK
 62
0
100
AcDbBlockEnd
  0
BLOCK
  5
241
100
AcDbEntity
  8
0
100
AcDbBlockBegin
 62
7
  6
CONTINUOUS
  2
*D3
 70
65
 10
0.0
 20
0.0
  3
*D3
  1

  0
MTEXT
  5
242
100
AcDbEntity
  8
0
100
AcDbMText
 62
7
  6
CONTINUOUS
  7
STANDARD
 71
2
 72
1
 10
166.0
 20
121.75
 30
0.0
 11
1.0
 21
0.0
 31
0.0
 44
0.9
  1
162
 40
3.0
 41
6.4285714286
  0
LINE
  5
243
100
AcDbEntity
  8
0
100
AcDbLine
 62
7
  6
CONTINUOUS
 10
247.0
 20
90.5
 11
247.0
 21
119.5
  0
LINE
  5
244
100
AcDbEntity
  8
0
100
AcDbLine
 62
7
  6
CONTINUOUS
 10
85.0
 20
90.5
 11
85.0
 21
119.5
  0
LINE
  5
245
100
AcDbEntity
  8
0
100
AcDbLine
 62
7
  6
CONTINUOUS
 10
247.0
 20
118.0
 11
166.0
 21
118.0
  0
LINE
  5
246
100
AcDbEntity
  8
0
100
AcDbLine
 62
7
  6
CONTINUOUS
 10
85.0
 20
118.0
 11
166.0
 21
118.0
  0
INSERT
  5
247
100
AcDbEntity
  8
0
100
AcDbBlockReference
 62
7
  6
CONTINUOUS
  2
_FILLED
 10
247.0
 20
118.0
 41
3.0
 42
3.0
 43
3.0
  0
INSERT
  5
248
100
AcDbEntity
  8
0
100
AcDbBlockReference
 62
7
  6
CONTINUOUS
  2
_FILLED
 10
85.0
 20
118.0
 41
3.0
 42
3.0
 43
3.0
 50
180.0
  0
ENDBLK
  5
249
100
AcDbEntity
  8
0
  6
BYBLOCK
 62
0
100
AcDbBlockEnd
  0
BLOCK
  5
24A
100
AcDbEntity
  8
0
100
AcDbBlockBegin
 62
7
  6
CONTINUOUS
  2
*D4
 70
65
 10
0.0
 20
0.0
  3
*D4
  1

  0
MTEXT
  5
24B
100
AcDbEntity
  8
0
100
AcDbMText
 62
7
  6
CONTINUOUS
  7
STANDARD
 71
2
 72
1
 10
271.25
 20
0.0
 30
0.0
 11
0.0
 21
1.0
 31
0.0
 44
0.9
  1
180
 40
3.0
 41
6.4285714286
  0
LINE
  5
24C
100
AcDbEntity
  8
0
100
AcDbLine
 62
7
  6
CONTINUOUS
 10
247.5
 20
90.0
 11
276.5
 21
90.0
  0
LINE
  5
24D
100
AcDbEntity
  8
0
100
AcDbLine
 62
7
  6
CONTINUOUS
 10
247.5
 20
-90.0
 11
276.5
 21
-90.0
  0
LINE
  5
24E
100
AcDbEntity
  8
0
100
AcDbLine
 62
7
  6
CONTINUOUS
 10
275.0
 20
90.0
 11
275.0
 21
0.0
  0
LINE
  5
24F
100
AcDbEntity
  8
0
100
AcDbLine
 62
7
  6
CONTINUOUS
 10
275.0
 20
-90.0
 11
275.0
 21
0.0
  0
INSERT
  5
250
100
AcDbEntity
  8
0
100
AcDbBlockReference
 62
7
  6
CONTINUOUS
  2
_FILLED
 10
275.0
 20
90.0
 41
3.0
 42
3.0
 43
3.0
 50
90.0
  0
INSERT
  5
251
100
AcDbEntity
  8
0
100
AcDbBlockReference
 62
7
  6
CONTINUOUS
  2
_FILLED
 10
275.0
 20
-90.0
 41
3.0
 42
3.0
 43
3.0
 50
270.0
  0
ENDBLK
  5
252
100
AcDbEntity
  8
0
  6
BYBLOCK
 62
0
100
AcDbBlockEnd
  0
BLOCK
  5
253
100
AcDbEntity
  8
0
100
AcDbBlockBegin
 62
7
  6
CONTINUOUS
  2
*D5
 70
65
 10
0.0
 20
0.0
  3
*D5
  1

  0
MTEXT
  5
254
100
AcDbEntity
  8
0
100
AcDbMText
 62
7
  6
CONTINUOUS
  7
STANDARD
 71
2
 72
1
 10
-0.0
 20
141.75
 30
0.0
 11
1.0
 21
0.0
 31
0.0
 44
0.9
  1
534
 40
3.0
 41
6.6428571429
  0
LINE
  5
255
100
AcDbEntity
  8
0
100
AcDbLine
 62
7
  6
CONTINUOUS
 10
-267.0
 20
100.5
 11
-267.0
 21
139.5
  0
LINE
  5
256
100
AcDbEntity
  8
0
100
AcDbLine
 62
7
  6
CONTINUOUS
 10
267.0
 20
100.4999999644
 11
267.0
 21
139.5
  0
LINE
  5
257
100
AcDbEntity
  8
0
100
AcDbLine
 62
7
  6
CONTINUOUS
 10
-267.0
 20
138.0
 11
-0.0
 21
138.0
  0
LINE
  5
258
100
AcDbEntity
  8
0
100
AcDbLine
 62
7
  6
CONTINUOUS
 10
267.0
 20
138.0
 11
-0.0
 21
138.0
  0
INSERT
  5
259
100
AcDbEntity
  8
0
100
AcDbBlockReference
 62
7
  6
CONTINUOUS
  2
_FILLED
 10
-267.0
 20
138.0
 41
3.0
 42
3.0
 43
3.0
 50
180.0
  0
INSERT
  5
25A
100
AcDbEntity
  8
0
100
AcDbBlockReference
 62
7
  6
CONTINUOUS
  2
_FILLED
 10
267.0
 20
138.0
 41
3.0
 42
3.0
 43
3.0
 50
0.0
  0
ENDBLK
  5
25B
100
AcDbEntity
  8
0
  6
BYBLOCK
 62
0
100
AcDbBlockEnd
  0
BLOCK
  5
25C
100
AcDbEntity
  8
0
100
AcDbBlockBegin
 62
7
  6
CONTINUOUS
  2
*D6
 70
65
 10
0.0
 20
0.0
  3
*D6
  1

  0
MTEXT
  5
25D
100
AcDbEntity
  8
0
100
AcDbMText
 62
7
  6
CONTINUOUS
  7
STANDARD
 71
2
 72
1
 10
281.25
 20
0.0
 30
0.0
 11
0.0
 21
1.0
 31
0.0
 44
0.9
  1
220
 40
3.0
 41
7.0714285714
  0
LINE
  5
25E
100
AcDbEntity
  8
0
100
AcDbLine
 62
7
  6
CONTINUOUS
 10
257.5
 20
110.0
 11
286.5
 21
110.0
  0
LINE
  5
25F
100
AcDbEntity
  8
0
100
AcDbLine
 62
7
  6
CONTINUOUS
 10
257.4999999644
 20
-110.0
 11
286.5
 21
-110.0
  0
LINE
  5
260
100
AcDbEntity
  8
0
100
AcDbLine
 62
7
  6
CONTINUOUS
 10
285.0
 20
110.0
 11
285.0
 21
0.0
  0
LINE
  5
261
100
AcDbEntity
  8
0
100
AcDbLine
 62
7
  6
CONTINUOUS
 10
285.0
 20
-110.0
 11
285.0
 21
0.0
  0
INSERT
  5
262
100
AcDbEntity
  8
0
100
AcDbBlockReference
 62
7
  6
CONTINUOUS
  2
_FILLED
 10
285.0
 20
110.0
 41
3.0
 42
3.0
 43
3.0
 50
90.0
  0
INSERT
  5
263
100
AcDbEntity
  8
0
100
AcDbBlockReference
 62
7
  6
CONTINUOUS
  2
_FILLED
 10
285.0
 20
-110.0
 41
3.0
 42
3.0
 43
3.0
 50
270.0
  0
ENDBLK
  5
264
100
AcDbEntity
  8
0
  6
BYBLOCK
 62
0
100
AcDbBlockEnd
  0
BLOCK
  5
265
100
AcDbEntity
  8
0
100
AcDbBlockBegin
 62
7
  6
CONTINUOUS
  2
*D7
 70
65
 10
0.0
 20
0.0
  3
*D7
  1

  0
MTEXT
  5
266
100
AcDbEntity
  8
0
100
AcDbMText
 62
7
  6
CONTINUOUS
  7
STANDARD
 71
2
 72
1
 10
-375.773109173
 20
131.75
 30
0.0
 11
1.0
 21
0.0
 31
0.0
 44
0.9
  1
86,2
 40
3.0
 41
8.7857142857
  0
LINE
  5
267
100
AcDbEntity
  8
0
100
AcDbLine
 62
7
  6
CONTINUOUS
 10
-418.873109173
 20
100.5
 11
-418.873109173
 21
129.5
  0
LINE
  5
268
100
AcDbEntity
  8
0
100
AcDbLine
 62
7
  6
CONTINUOUS
 10
-332.673109173
 20
83.4795436546
 11
-332.673109173
 21
129.5
  0
LINE
  5
269
100
AcDbEntity
  8
0
100
AcDbLine
 62
7
  6
CONTINUOUS
 10
-418.873109173
 20
128.0
 11
-375.773109173
 21
128.0
  0
LINE
  5
26A
100
AcDbEntity
  8
0
100
AcDbLine
 62
7
  6
CONTINUOUS
 10
-332.673109173
 20
128.0
 11
-375.773109173
 21
128.0
  0
INSERT
  5
26B
100
AcDbEntity
  8
0
100
AcDbBlockReference
 62
7
  6
CONTINUOUS
  2
_FILLED
 10
-418.873109173
 20
128.0
 41
3.0
 42
3.0
 43
3.0
 50
180.0
  0
INSERT
  5
26C
100
AcDbEntity
  8
0
100
AcDbBlockReference
 62
7
  6
CONTINUOUS
  2
_FILLED
 10
-332.673109173
 20
128.0
 41
3.0
 42
3.0
 43
3.0
  0
ENDBLK
  5
26D
100
AcDbEntity
  8
0
  6
BYBLOCK
 62
0
100
AcDbBlockEnd
  0
BLOCK
  5
26E
100
AcDbEntity
  8
0
100
AcDbBlockBegin
 62
7
  6
CONTINUOUS
  2
*D8
 70
65
 10
0.0
 20
0.0
  3
*D8
  1

  0
MTEXT
  5
26F
100
AcDbEntity
  8
0
100
AcDbMText
 62
7
  6
CONTINUOUS
  7
STANDARD
 71
2
 72
1
 10
-372.673109173
 20
121.75
 30
0.0
 11
1.0
 21
0.0
 31
0.0
 44
0.9
  1
80
 40
3.0
 41
4.7142857143
  0
LINE
  5
270
100
AcDbEntity
  8
0
100
AcDbLine
 62
7
  6
CONTINUOUS
 10
-332.673109173
 20
83.4795436546
 11
-332.673109173
 21
119.5
  0
LINE
  5
271
100
AcDbEntity
  8
0
100
AcDbLine
 62
7
  6
CONTINUOUS
 10
-412.673109173
 20
110.5
 11
-412.673109173
 21
119.5
  0
LINE
  5
272
100
AcDbEntity
  8
0
100
AcDbLine
 62
7
  6
CONTINUOUS
 10
-332.673109173
 20
118.0
 11
-372.673109173
 21
118.0
  0
LINE
  5
273
100
AcDbEntity
  8
0
100
AcDbLine
 62
7
  6
CONTINUOUS
 10
-412.673109173
 20
118.0
 11
-372.673109173
 21
118.0
  0
INSERT
  5
274
100
AcDbEntity
  8
0
100
AcDbBlockReference
 62
7
  6
CONTINUOUS
  2
_FILLED
 10
-332.673109173
 20
118.0
 41
3.0
 42
3.0
 43
3.0
  0
INSERT
  5
275
100
AcDbEntity
  8
0
100
AcDbBlockReference
 62
7
  6
CONTINUOUS
  2
_FILLED
 10
-412.673109173
 20
118.0
 41
3.0
 42
3.0
 43
3.0
 50
180.0
  0
ENDBLK
  5
276
100
AcDbEntity
  8
0
  6
BYBLOCK
 62
0
100
AcDbBlockEnd
  0
BLOCK
  5
277
100
AcDbEntity
  8
0
100
AcDbBlockBegin
 62
7
  6
CONTINUOUS
  2
*D9
 70
65
 10
0.0
 20
0.0
  3
*D9
  1

  0
MTEXT
  5
278
100
AcDbEntity
  8
0
100
AcDbMText
 62
7
  6
CONTINUOUS
  7
STANDARD
 71
3
 72
1
 10
-424.3269552115
 20
121.75
 30
0.0
 11
1.0
 21
0.0
 31
0.0
 44
0.9
  1
6,2
 40
3.0
 41
6.4285714286
  0
LINE
  5
279
100
AcDbEntity
  8
0
100
AcDbLine
 62
7
  6
CONTINUOUS
 10
-412.673109173
 20
110.5
 11
-412.673109173
 21
119.5
  0
LINE
  5
27A
100
AcDbEntity
  8
0
100
AcDbLine
 62
7
  6
CONTINUOUS
 10
-418.873109173
 20
100.5
 11
-418.873109173
 21
119.5
  0
LINE
  5
27B
100
AcDbEntity
  8
0
100
AcDbLine
 62
7
  6
CONTINUOUS
 10
-412.673109173
 20
118.0
 11
-408.673109173
 21
118.0
  0
LINE
  5
27C
100
AcDbEntity
  8
0
100
AcDbLine
 62
7
  6
CONTINUOUS
 10
-408.673109173
 20
118.0
 11
-415.773109173
 21
118.0
  0
LINE
  5
27D
100
AcDbEntity
  8
0
100
AcDbLine
 62
7
  6
CONTINUOUS
 10
-418.873109173
 20
118.0
 11
-430.75552664
 21
118.0
  0
LINE
  5
27E
100
AcDbEntity
  8
0
100
AcDbLine
 62
7
  6
CONTINUOUS
 10
-430.75552664
 20
118.0
 11
-415.773109173
 21
118.0
  0
INSERT
  5
27F
100
AcDbEntity
  8
0
100
AcDbBlockReference
 62
7
  6
CONTINUOUS
  2
_NONE
 10
-412.673109173
 20
118.0
 41
3.0
 42
3.0
 43
3.0
 50
180.0
  0
INSERT
  5
280
100
AcDbEntity
  8
0
100
AcDbBlockReference
 62
7
  6
CONTINUOUS
  2
_FILLED
 10
-418.873109173
 20
118.0
 41
3.0
 42
3.0
 43
3.0
  0
ENDBLK
  5
281
100
AcDbEntity
  8
0
  6
BYBLOCK
 62
0
100
AcDbBlockEnd
  0
ENDSEC
  0
SECTION
  2
ENTITIES
  0
DIMENSION
  5
282
100
AcDbEntity
  8
0
100
AcDbDimension
 62
7
  6
CONTINUOUS
  2
*D0
 10
247.0
 20
128.0
 11
-3.5357142857
 21
130.25
 70
160
 71
2
 42
494.0
  3
DIMSTYLE_1
100
AcDbAlignedDimension
 13
-247.0
 23
90.5
 14
247.0
 24
90.5
100
AcDbRotatedDimension
  0
DIMENSION
  5
283
100
AcDbEntity
  8
0
100
AcDbDimension
 62
7
  6
CONTINUOUS
  2
*D1
 10
-247.0
 20
118.0
 11
-169.2142857143
 21
120.25
 70
160
 71
2
 42
162.0
  3
DIMSTYLE_1
100
AcDbAlignedDimension
 13
-85.0
 23
90.5
 14
-247.0
 24
90.5
 50
180.0
100
AcDbRotatedDimension
  0
DIMENSION
  5
284
100
AcDbEntity
  8
0
100
AcDbDimension
 62
7
  6
CONTINUOUS
  2
*D2
 10
85.0
 20
118.0
 11
-3.2142857143
 21
120.25
 70
160
 71
2
 42
170.0
  3
DIMSTYLE_1
100
AcDbAlignedDimension
 13
-85.0
 23
90.5
 14
85.0
 24
90.5
100
AcDbRotatedDimension
  0
DIMENSION
  5
285
100
AcDbEntity
  8
0
100
AcDbDimension
 62
7
  6
CONTINUOUS
  2
*D3
 10
85.0
 20
118.0
 11
162.7857142857
 21
120.25
 70
160
 71
2
 42
162.0
  3
DIMSTYLE_1
100
AcDbAlignedDimension
 13
247.0
 23
90.5
 14
85.0
 24
90.5
 50
180.0
100
AcDbRotatedDimension
  0
DIMENSION
  5
286
100
AcDbEntity
  8
0
100
AcDbDimension
 62
7
  6
CONTINUOUS
  2
*D4
 10
275.0
 20
-90.0
 11
274.1902366233
 21
-2.8735607044
 70
160
 71
2
 42
180.0
  3
DIMSTYLE_1
100
AcDbAlignedDimension
 13
247.5
 23
90.0
 14
247.5
 24
-90.0
 50
270.0
100
AcDbRotatedDimension
  0
DIMENSION
  5
287
100
AcDbEntity
  8
0
100
AcDbDimension
 62
7
  6
CONTINUOUS
  2
*D5
 10
267.0
 20
138.0
 11
-3.3214285714
 21
140.25
 70
160
 71
2
 42
534.0
  3
DIMSTYLE_1
100
AcDbAlignedDimension
 13
-267.0
 23
100.5
 14
267.0
 24
100.4999999644
100
AcDbRotatedDimension
  0
DIMENSION
  5
288
100
AcDbEntity
  8
0
100
AcDbDimension
 62
7
  6
CONTINUOUS
  2
*D6
 10
285.0
 20
-110.0
 11
284.3342602856
 21
-3.1609167749
 70
160
 71
2
 42
220.0
  3
DIMSTYLE_1
100
AcDbAlignedDimension
 13
257.5
 23
110.0
 14
257.4999999644
 24
-110.0
 50
270.0
100
AcDbRotatedDimension
  0
DIMENSION
  5
289
100
AcDbEntity
  8
0
100
AcDbDimension
 62
7
  6
CONTINUOUS
  2
*D7
 10
-332.673109173
 20
128.0
 11
-380.1659663158
 21
130.25
 70
160
 71
2
 42
86.2
  3
DIMSTYLE_1
100
AcDbAlignedDimension
 13
-418.873109173
 23
100.5
 14
-332.673109173
 24
83.4795436546
100
AcDbRotatedDimension
  0
DIMENSION
  5
28A
100
AcDbEntity
  8
0
100
AcDbDimension
 62
7
  6
CONTINUOUS
  2
*D8
 10
-412.673109173
 20
118.0
 11
-375.0302520301
 21
120.25
 70
160
 71
2
 42
80.0
  3
DIMSTYLE_1
100
AcDbAlignedDimension
 13
-332.673109173
 23
83.4795436546
 14
-412.673109173
 24
110.5
 50
180.0
100
AcDbRotatedDimension
  0
DIMENSION
  5
28B
100
AcDbEntity
  8
0
100
AcDbDimension
 62
7
  6
CONTINUOUS
  2
*D9
 10
-418.873109173
 20
118.0
 11
-433.9698123543
 21
120.25
 70
160
 71
3
 42
6.2
  3
DIMSTYLE_1
100
AcDbAlignedDimension
 13
-412.673109173
 23
110.5
 14
-418.873109173
 24
100.5
 50
180.0
100
AcDbRotatedDimension
1001
ACAD
1000
DSTYLE
1002
{
1070
173
1070
1
1070
6
1000
_NONE
1002
}
  0
LINE
  5
28C
100
AcDbEntity
  8
RACCORDO
100
AcDbLine
 62
7
  6
CONTINUOUS
 10
-267.0
 20
100.0
 11
-267.0
 21
-100.0
  0
LINE
  5
28D
100
AcDbEntity
  8
RACCORDO
100
AcDbLine
 62
253
  6
CONTINUOUS
 10
-265.0
 20
100.0
 11
-265.0
 21
-100.0
  0
LINE
  5
28E
100
AcDbEntity
  8
RACCORDO
100
AcDbLine
 62
253
  6
CONTINUOUS
 10
-257.0
 20
-108.0
 11
-257.0
 21
-110.0
  0
LINE
  5
28F
100
AcDbEntity
  8
RACCORDO
100
AcDbLine
 62
253
  6
CONTINUOUS
 10
-257.0
 20
108.0
 11
-256.9999999644
 21
110.0
  0
LINE
  5
290
100
AcDbEntity
  8
0
100
AcDbLine
 62
7
  6
CONTINUOUS
 10
-248.145
 20
-90.35
 11
-248.145
 21
-89.65
  0
LINE
  5
291
100
AcDbEntity
  8
0
100
AcDbLine
 62
7
  6
CONTINUOUS
 10
-248.145
 20
89.65
 11
-248.145
 21
90.35
  0
LINE
  5
292
100
AcDbEntity
  8
0
100
AcDbLine
 62
7
  6
CONTINUOUS
 10
-247.5197234842
 20
90.5197234842
 11
-247.35
 21
91.0901949367
  0
LINE
  5
293
100
AcDbEntity
  8
0
100
AcDbLine
 62
7
  6
CONTINUOUS
 10
-246.65
 20
88.9098050633
 11
-246.4802765158
 21
89.4802765158
  0
LINE
  5
294
100
AcDbEntity
  8
0
100
AcDbLine
 62
7
  6
CONTINUOUS
 10
-247.35
 20
-91.0901949367
 11
-247.5197234842
 21
-90.5197234842
  0
LINE
  5
295
100
AcDbEntity
  8
0
100
AcDbLine
 62
7
  6
CONTINUOUS
 10
-246.4802765158
 20
-89.4802765158
 11
-246.65
 21
-88.9098050633
  0
LINE
  5
296
100
AcDbEntity
  8
0
100
AcDbLine
 62
7
  6
CONTINUOUS
 10
-247.5
 20
-92.7041634566
 11
-247.5
 21
-90.5860176963
  0
LINE
  5
297
100
AcDbEntity
  8
0
100
AcDbLine
 62
7
  6
CONTINUOUS
 10
-247.5
 20
-89.4139823037
 11
-247.5
 21
-87.2958365434
  0
LINE
  5
298
100
AcDbEntity
  8
0
100
AcDbLine
 62
7
  6
CONTINUOUS
 10
-247.5
 20
87.2958365434
 11
-247.5
 21
89.4139823037
  0
LINE
  5
299
100
AcDbEntity
  8
0
100
AcDbLine
 62
7
  6
CONTINUOUS
 10
-247.5
 20
90.5860176963
 11
-247.5
 21
92.7041634566
  0
LINE
  5
29A
100
AcDbEntity
  8
0
100
AcDbLine
 62
7
  6
CONTINUOUS
 10
-247.35
 20
-91.5937234472
 11
-247.35
 21
-91.0901949367
  0
LINE
  5
29B
100
AcDbEntity
  8
0
100
AcDbLine
 62
7
  6
CONTINUOUS
 10
-247.35
 20
-88.9098050633
 11
-247.35
 21
-88.4062765528
  0
LINE
  5
29C
100
AcDbEntity
  8
0
100
AcDbLine
 62
7
  6
CONTINUOUS
 10
-247.35
 20
88.4062765528
 11
-247.35
 21
88.9098050633
  0
LINE
  5
29D
100
AcDbEntity
  8
0
100
AcDbLine
 62
7
  6
CONTINUOUS
 10
-247.35
 20
91.0901949367
 11
-247.35
 21
91.5937234472
  0
LINE
  5
29E
100
AcDbEntity
  8
0
100
AcDbLine
 62
7
  6
CONTINUOUS
 10
-246.65
 20
-91.5937234472
 11
-246.65
 21
-91.0901949367
  0
LINE
  5
29F
100
AcDbEntity
  8
0
100
AcDbLine
 62
7
  6
CONTINUOUS
 10
-246.65
 20
-88.9098050633
 11
-246.65
 21
-88.4062765528
  0
LINE
  5
2A0
100
AcDbEntity
  8
0
100
AcDbLine
 62
7
  6
CONTINUOUS
 10
-246.65
 20
88.4062765528
 11
-246.65
 21
88.9098050633
  0
LINE
  5
2A1
100
AcDbEntity
  8
0
100
AcDbLine
 62
7
  6
CONTINUOUS
 10
-246.65
 20
91.0901949367
 11
-246.65
 21
91.5937234472
  0
LINE
  5
2A2
100
AcDbEntity
  8
0
100
AcDbLine
 62
7
  6
CONTINUOUS
 10
-246.5
 20
92.7041634566
 11
-246.5
 21
90.5860176963
  0
LINE
  5
2A3
100
AcDbEntity
  8
0
100
AcDbLine
 62
7
  6
CONTINUOUS
 10
-246.5
 20
89.4139823037
 11
-246.5
 21
87.2958365434
  0
LINE
  5
2A4
100
AcDbEntity
  8
0
100
AcDbLine
 62
7
  6
CONTINUOUS
 10
-246.5
 20
-87.2958365434
 11
-246.5
 21
-89.4139823037
  0
LINE
  5
2A5
100
AcDbEntity
  8
0
100
AcDbLine
 62
7
  6
CONTINUOUS
 10
-246.5
 20
-90.5860176963
 11
-246.5
 21
-92.7041634566
  0
LINE
  5
2A6
100
AcDbEntity
  8
0
100
AcDbLine
 62
7
  6
CONTINUOUS
 10
-245.855
 20
90.35
 11
-245.855
 21
89.65
  0
LINE
  5
2A7
100
AcDbEntity
  8
0
100
AcDbLine
 62
7
  6
CONTINUOUS
 10
-245.855
 20
-89.65
 11
-245.855
 21
-90.35
  0
LINE
  5
2A8
100
AcDbEntity
  8
0
100
AcDbLine
 62
7
  6
CONTINUOUS
 10
-247.35
 20
-88.9098050633
 11
-247.5197234842
 21
-89.4802765158
  0
LINE
  5
2A9
100
AcDbEntity
  8
0
100
AcDbLine
 62
7
  6
CONTINUOUS
 10
-246.4802765158
 20
-90.5197234842
 11
-246.65
 21
-91.0901949367
  0
LINE
  5
2AA
100
AcDbEntity
  8
0
100
AcDbLine
 62
7
  6
CONTINUOUS
 10
-247.35
 20
88.9098050633
 11
-247.5197234842
 21
89.4802765158
  0
LINE
  5
2AB
100
AcDbEntity
  8
0
100
AcDbLine
 62
7
  6
CONTINUOUS
 10
-246.4802765158
 20
90.5197234842
 11
-246.65
 21
91.0901949367
  0
LINE
  5
2AC
100
AcDbEntity
  8
0
100
AcDbLine
 62
7
  6
CONTINUOUS
 10
-248.0901949367
 20
90.35
 11
-247.5197234842
 21
90.5197234842
  0
LINE
  5
2AD
100
AcDbEntity
  8
0
100
AcDbLine
 62
7
  6
CONTINUOUS
 10
-245.9098050633
 20
89.65
 11
-246.4802765158
 21
89.4802765158
  0
LINE
  5
2AE
100
AcDbEntity
  8
0
100
AcDbLine
 62
7
  6
CONTINUOUS
 10
-247.5197234842
 20
-90.5197234842
 11
-248.0901949367
 21
-90.35
  0
LINE
  5
2AF
100
AcDbEntity
  8
0
100
AcDbLine
 62
7
  6
CONTINUOUS
 10
-246.4802765158
 20
-89.4802765158
 11
-245.9098050633
 21
-89.65
  0
LINE
  5
2B0
100
AcDbEntity
  8
0
100
AcDbLine
 62
7
  6
CONTINUOUS
 10
-85.5197234842
 20
90.5197234842
 11
-85.35
 21
91.0901949367
  0
LINE
  5
2B1
100
AcDbEntity
  8
0
100
AcDbLine
 62
7
  6
CONTINUOUS
 10
-84.65
 20
88.9098050633
 11
-84.4802765158
 21
89.4802765158
  0
LINE
  5
2B2
100
AcDbEntity
  8
0
100
AcDbLine
 62
7
  6
CONTINUOUS
 10
-86.0901949367
 20
90.35
 11
-85.5197234842
 21
90.5197234842
  0
LINE
  5
2B3
100
AcDbEntity
  8
0
100
AcDbLine
 62
7
  6
CONTINUOUS
 10
-83.9098050633
 20
89.65
 11
-84.4802765158
 21
89.4802765158
  0
LINE
  5
2B4
100
AcDbEntity
  8
RACCORDO
100
AcDbLine
 62
7
  6
CONTINUOUS
 10
-257.0
 20
-110.0
 11
257.0
 21
-110.0
  0
LINE
  5
2B5
100
AcDbEntity
  8
RACCORDO
100
AcDbLine
 62
253
  6
CONTINUOUS
 10
-257.0
 20
-108.0
 11
257.0
 21
-108.0
  0
LINE
  5
2B6
100
AcDbEntity
  8
RACCORDO
100
AcDbLine
 62
253
  6
CONTINUOUS
 10
265.0
 20
-100.0
 11
267.0
 21
-100.0
  0
LINE
  5
2B7
100
AcDbEntity
  8
RACCORDO
100
AcDbLine
 62
253
  6
CONTINUOUS
 10
-265.0
 20
-100.0
 11
-267.0
 21
-99.9999999644
  0
LINE
  5
2B8
100
AcDbEntity
  8
0
100
AcDbLine
 62
7
  6
CONTINUOUS
 10
-85.5197234842
 20
-90.5197234842
 11
-86.0901949367
 21
-90.35
  0
LINE
  5
2B9
100
AcDbEntity
  8
0
100
AcDbLine
 62
7
  6
CONTINUOUS
 10
-84.4802765158
 20
-89.4802765158
 11
-83.9098050633
 21
-89.65
  0
LINE
  5
2BA
100
AcDbEntity
  8
0
100
AcDbLine
 62
7
  6
CONTINUOUS
 10
-85.5197234842
 20
-90.5197234842
 11
-85.35
 21
-91.0901949367
  0
LINE
  5
2BB
100
AcDbEntity
  8
0
100
AcDbLine
 62
7
  6
CONTINUOUS
 10
-84.65
 20
-88.9098050633
 11
-84.4802765158
 21
-89.4802765158
  0
LINE
  5
2BC
100
AcDbEntity
  8
0
100
AcDbLine
 62
7
  6
CONTINUOUS
 10
-86.145
 20
-90.35
 11
-86.145
 21
-89.65
  0
LINE
  5
2BD
100
AcDbEntity
  8
0
100
AcDbLine
 62
7
  6
CONTINUOUS
 10
-86.145
 20
89.65
 11
-86.145
 21
90.35
  0
LINE
  5
2BE
100
AcDbEntity
  8
0
100
AcDbLine
 62
7
  6
CONTINUOUS
 10
-85.5
 20
-92.7041634566
 11
-85.5
 21
-90.5860176963
  0
LINE
  5
2BF
100
AcDbEntity
  8
0
100
AcDbLine
 62
7
  6
CONTINUOUS
 10
-85.5
 20
-89.4139823037
 11
-85.5
 21
-87.2958365434
  0
LINE
  5
2C0
100
AcDbEntity
  8
0
100
AcDbLine
 62
7
  6
CONTINUOUS
 10
-85.5
 20
87.2958365434
 11
-85.5
 21
89.4139823037
  0
LINE
  5
2C1
100
AcDbEntity
  8
0
100
AcDbLine
 62
7
  6
CONTINUOUS
 10
-85.5
 20
90.5860176963
 11
-85.5
 21
92.7041634566
  0
LINE
  5
2C2
100
AcDbEntity
  8
0
100
AcDbLine
 62
7
  6
CONTINUOUS
 10
-85.35
 20
-91.5937234472
 11
-85.35
 21
-91.0901949367
  0
LINE
  5
2C3
100
AcDbEntity
  8
0
100
AcDbLine
 62
7
  6
CONTINUOUS
 10
-85.35
 20
-88.9098050633
 11
-85.35
 21
-88.4062765528
  0
LINE
  5
2C4
100
AcDbEntity
  8
0
100
AcDbLine
 62
7
  6
CONTINUOUS
 10
-85.35
 20
88.4062765528
 11
-85.35
 21
88.9098050633
  0
LINE
  5
2C5
100
AcDbEntity
  8
0
100
AcDbLine
 62
7
  6
CONTINUOUS
 10
-85.35
 20
91.0901949367
 11
-85.35
 21
91.5937234472
  0
LINE
  5
2C6
100
AcDbEntity
  8
0
100
AcDbLine
 62
7
  6
CONTINUOUS
 10
-84.65
 20
-91.5937234472
 11
-84.65
 21
-91.0901949367
  0
LINE
  5
2C7
100
AcDbEntity
  8
0
100
AcDbLine
 62
7
  6
CONTINUOUS
 10
-84.65
 20
-88.9098050633
 11
-84.65
 21
-88.4062765528
  0
LINE
  5
2C8
100
AcDbEntity
  8
0
100
AcDbLine
 62
7
  6
CONTINUOUS
 10
-84.65
 20
88.4062765528
 11
-84.65
 21
88.9098050633
  0
LINE
  5
2C9
100
AcDbEntity
  8
0
100
AcDbLine
 62
7
  6
CONTINUOUS
 10
-84.65
 20
91.0901949367
 11
-84.65
 21
91.5937234472
  0
LINE
  5
2CA
100
AcDbEntity
  8
0
100
AcDbLine
 62
7
  6
CONTINUOUS
 10
-84.5
 20
92.7041634566
 11
-84.5
 21
90.5860176963
  0
LINE
  5
2CB
100
AcDbEntity
  8
0
100
AcDbLine
 62
7
  6
CONTINUOUS
 10
-84.5
 20
89.4139823037
 11
-84.5
 21
87.2958365434
  0
LINE
  5
2CC
100
AcDbEntity
  8
0
100
AcDbLine
 62
7
  6
CONTINUOUS
 10
-84.5
 20
-87.2958365434
 11
-84.5
 21
-89.4139823037
  0
LINE
  5
2CD
100
AcDbEntity
  8
0
100
AcDbLine
 62
7
  6
CONTINUOUS
 10
-84.5
 20
-90.5860176963
 11
-84.5
 21
-92.7041634566
  0
LINE
  5
2CE
100
AcDbEntity
  8
0
100
AcDbLine
 62
7
  6
CONTINUOUS
 10
-83.855
 20
90.35
 11
-83.855
 21
89.65
  0
LINE
  5
2CF
100
AcDbEntity
  8
0
100
AcDbLine
 62
7
  6
CONTINUOUS
 10
-83.855
 20
-89.65
 11
-83.855
 21
-90.35
  0
LINE
  5
2D0
100
AcDbEntity
  8
0
100
AcDbLine
 62
7
  6
CONTINUOUS
 10
-247.35
 20
-91.5937234472
 11
-246.65
 21
-91.5937234472
  0
LINE
  5
2D1
100
AcDbEntity
  8
0
100
AcDbLine
 62
7
  6
CONTINUOUS
 10
-85.35
 20
-91.5937234472
 11
-84.65
 21
-91.5937234472
  0
LINE
  5
2D2
100
AcDbEntity
  8
0
100
AcDbLine
 62
7
  6
CONTINUOUS
 10
84.65
 20
-91.5937234472
 11
85.35
 21
-91.5937234472
  0
LINE
  5
2D3
100
AcDbEntity
  8
0
100
AcDbLine
 62
7
  6
CONTINUOUS
 10
246.65
 20
-91.5937234472
 11
247.35
 21
-91.5937234472
  0
LINE
  5
2D4
100
AcDbEntity
  8
0
100
AcDbLine
 62
7
  6
CONTINUOUS
 10
247.35
 20
-91.145
 11
246.65
 21
-91.145
  0
LINE
  5
2D5
100
AcDbEntity
  8
0
100
AcDbLine
 62
7
  6
CONTINUOUS
 10
85.35
 20
-91.145
 11
84.65
 21
-91.145
  0
LINE
  5
2D6
100
AcDbEntity
  8
0
100
AcDbLine
 62
7
  6
CONTINUOUS
 10
-84.65
 20
-91.145
 11
-85.35
 21
-91.145
  0
LINE
  5
2D7
100
AcDbEntity
  8
0
100
AcDbLine
 62
7
  6
CONTINUOUS
 10
-246.65
 20
-91.145
 11
-247.35
 21
-91.145
  0
LINE
  5
2D8
100
AcDbEntity
  8
0
100
AcDbLine
 62
7
  6
CONTINUOUS
 10
248.9418577643
 20
-90.35
 11
248.0901949367
 21
-90.35
  0
LINE
  5
2D9
100
AcDbEntity
  8
0
100
AcDbLine
 62
7
  6
CONTINUOUS
 10
245.9098050633
 20
-90.35
 11
245.0581422357
 21
-90.35
  0
LINE
  5
2DA
100
AcDbEntity
  8
0
100
AcDbLine
 62
7
  6
CONTINUOUS
 10
86.9418577643
 20
-90.35
 11
86.0901949367
 21
-90.35
  0
LINE
  5
2DB
100
AcDbEntity
  8
0
100
AcDbLine
 62
7
  6
CONTINUOUS
 10
83.9098050633
 20
-90.35
 11
83.0581422357
 21
-90.35
  0
LINE
  5
2DC
100
AcDbEntity
  8
0
100
AcDbLine
 62
7
  6
CONTINUOUS
 10
-83.0581422357
 20
-90.35
 11
-83.9098050633
 21
-90.35
  0
LINE
  5
2DD
100
AcDbEntity
  8
0
100
AcDbLine
 62
7
  6
CONTINUOUS
 10
-86.0901949367
 20
-90.35
 11
-86.9418577643
 21
-90.35
  0
LINE
  5
2DE
100
AcDbEntity
  8
0
100
AcDbLine
 62
7
  6
CONTINUOUS
 10
-245.0581422357
 20
-90.35
 11
-245.9098050633
 21
-90.35
  0
LINE
  5
2DF
100
AcDbEntity
  8
0
100
AcDbLine
 62
7
  6
CONTINUOUS
 10
-248.0901949367
 20
-90.35
 11
-248.9418577643
 21
-90.35
  0
LINE
  5
2E0
100
AcDbEntity
  8
0
100
AcDbLine
 62
7
  6
CONTINUOUS
 10
248.9418577643
 20
-89.65
 11
248.0901949367
 21
-89.65
  0
LINE
  5
2E1
100
AcDbEntity
  8
0
100
AcDbLine
 62
7
  6
CONTINUOUS
 10
245.9098050633
 20
-89.65
 11
245.0581422357
 21
-89.65
  0
LINE
  5
2E2
100
AcDbEntity
  8
0
100
AcDbLine
 62
7
  6
CONTINUOUS
 10
86.9418577643
 20
-89.65
 11
86.0901949367
 21
-89.65
  0
LINE
  5
2E3
100
AcDbEntity
  8
0
100
AcDbLine
 62
7
  6
CONTINUOUS
 10
83.9098050633
 20
-89.65
 11
83.0581422357
 21
-89.65
  0
LINE
  5
2E4
100
AcDbEntity
  8
0
100
AcDbLine
 62
7
  6
CONTINUOUS
 10
-83.0581422357
 20
-89.65
 11
-83.9098050633
 21
-89.65
  0
LINE
  5
2E5
100
AcDbEntity
  8
0
100
AcDbLine
 62
7
  6
CONTINUOUS
 10
-86.0901949367
 20
-89.65
 11
-86.9418577643
 21
-89.65
  0
LINE
  5
2E6
100
AcDbEntity
  8
0
100
AcDbLine
 62
7
  6
CONTINUOUS
 10
-245.0581422357
 20
-89.65
 11
-245.9098050633
 21
-89.65
  0
LINE
  5
2E7
100
AcDbEntity
  8
0
100
AcDbLine
 62
7
  6
CONTINUOUS
 10
-248.0901949367
 20
-89.65
 11
-248.9418577643
 21
-89.65
  0
LINE
  5
2E8
100
AcDbEntity
  8
0
100
AcDbLine
 62
7
  6
CONTINUOUS
 10
-247.35
 20
-88.855
 11
-246.65
 21
-88.855
  0
LINE
  5
2E9
100
AcDbEntity
  8
0
100
AcDbLine
 62
7
  6
CONTINUOUS
 10
-85.35
 20
-88.855
 11
-84.65
 21
-88.855
  0
LINE
  5
2EA
100
AcDbEntity
  8
0
100
AcDbLine
 62
7
  6
CONTINUOUS
 10
84.65
 20
-88.855
 11
85.35
 21
-88.855
  0
LINE
  5
2EB
100
AcDbEntity
  8
0
100
AcDbLine
 62
7
  6
CONTINUOUS
 10
246.65
 20
-88.855
 11
247.35
 21
-88.855
  0
LINE
  5
2EC
100
AcDbEntity
  8
0
100
AcDbLine
 62
7
  6
CONTINUOUS
 10
-247.35
 20
-88.4062765528
 11
-246.65
 21
-88.4062765528
  0
LINE
  5
2ED
100
AcDbEntity
  8
0
100
AcDbLine
 62
7
  6
CONTINUOUS
 10
-85.35
 20
-88.4062765528
 11
-84.65
 21
-88.4062765528
  0
LINE
  5
2EE
100
AcDbEntity
  8
0
100
AcDbLine
 62
7
  6
CONTINUOUS
 10
84.65
 20
-88.4062765528
 11
85.35
 21
-88.4062765528
  0
LINE
  5
2EF
100
AcDbEntity
  8
0
100
AcDbLine
 62
7
  6
CONTINUOUS
 10
246.65
 20
-88.4062765528
 11
247.35
 21
-88.4062765528
  0
LINE
  5
2F0
100
AcDbEntity
  8
0
100
AcDbLine
 62
7
  6
CONTINUOUS
 10
-85.35
 20
-88.9098050633
 11
-85.5197234842
 21
-89.4802765158
  0
LINE
  5
2F1
100
AcDbEntity
  8
0
100
AcDbLine
 62
7
  6
CONTINUOUS
 10
83.9098050633
 20
90.35
 11
84.4802765158
 21
90.5197234842
  0
LINE
  5
2F2
100
AcDbEntity
  8
0
100
AcDbLine
 62
7
  6
CONTINUOUS
 10
86.0901949367
 20
89.65
 11
85.5197234842
 21
89.4802765158
  0
LINE
  5
2F3
100
AcDbEntity
  8
0
100
AcDbLine
 62
7
  6
CONTINUOUS
 10
84.4802765158
 20
-90.5197234842
 11
83.9098050633
 21
-90.35
  0
LINE
  5
2F4
100
AcDbEntity
  8
0
100
AcDbLine
 62
7
  6
CONTINUOUS
 10
85.5197234842
 20
-89.4802765158
 11
86.0901949367
 21
-89.65
  0
LINE
  5
2F5
100
AcDbEntity
  8
0
100
AcDbLine
 62
7
  6
CONTINUOUS
 10
-85.35
 20
88.9098050633
 11
-85.5197234842
 21
89.4802765158
  0
LINE
  5
2F6
100
AcDbEntity
  8
0
100
AcDbLine
 62
7
  6
CONTINUOUS
 10
-84.4802765158
 20
-90.5197234842
 11
-84.65
 21
-91.0901949367
  0
LINE
  5
2F7
100
AcDbEntity
  8
0
100
AcDbLine
 62
7
  6
CONTINUOUS
 10
-84.4802765158
 20
90.5197234842
 11
-84.65
 21
91.0901949367
  0
LINE
  5
2F8
100
AcDbEntity
  8
0
100
AcDbLine
 62
7
  6
CONTINUOUS
 10
245.9098050633
 20
90.35
 11
246.4802765158
 21
90.5197234842
  0
LINE
  5
2F9
100
AcDbEntity
  8
0
100
AcDbLine
 62
7
  6
CONTINUOUS
 10
248.0901949367
 20
89.65
 11
247.5197234842
 21
89.4802765158
  0
LINE
  5
2FA
100
AcDbEntity
  8
0
100
AcDbLine
 62
7
  6
CONTINUOUS
 10
246.4802765158
 20
-90.5197234842
 11
245.9098050633
 21
-90.35
  0
LINE
  5
2FB
100
AcDbEntity
  8
0
100
AcDbLine
 62
7
  6
CONTINUOUS
 10
247.5197234842
 20
-89.4802765158
 11
248.0901949367
 21
-89.65
  0
LINE
  5
2FC
100
AcDbEntity
  8
0
100
AcDbLine
 62
7
  6
CONTINUOUS
 10
-248.0901949367
 20
-89.65
 11
-247.5197234842
 21
-89.4802765158
  0
LINE
  5
2FD
100
AcDbEntity
  8
0
100
AcDbLine
 62
7
  6
CONTINUOUS
 10
-245.9098050633
 20
-90.35
 11
-246.4802765158
 21
-90.5197234842
  0
LINE
  5
2FE
100
AcDbEntity
  8
0
100
AcDbLine
 62
7
  6
CONTINUOUS
 10
-247.5197234842
 20
89.4802765158
 11
-248.0901949367
 21
89.65
  0
LINE
  5
2FF
100
AcDbEntity
  8
0
100
AcDbLine
 62
7
  6
CONTINUOUS
 10
-246.4802765158
 20
90.5197234842
 11
-245.9098050633
 21
90.35
  0
LINE
  5
300
100
AcDbEntity
  8
0
100
AcDbLine
 62
7
  6
CONTINUOUS
 10
84.4802765158
 20
90.5197234842
 11
84.65
 21
91.0901949367
  0
LINE
  5
301
100
AcDbEntity
  8
0
100
AcDbLine
 62
7
  6
CONTINUOUS
 10
85.35
 20
88.9098050633
 11
85.5197234842
 21
89.4802765158
  0
LINE
  5
302
100
AcDbEntity
  8
0
100
AcDbLine
 62
7
  6
CONTINUOUS
 10
84.4802765158
 20
-90.5197234842
 11
84.65
 21
-91.0901949367
  0
LINE
  5
303
100
AcDbEntity
  8
0
100
AcDbLine
 62
7
  6
CONTINUOUS
 10
85.35
 20
-88.9098050633
 11
85.5197234842
 21
-89.4802765158
  0
LINE
  5
304
100
AcDbEntity
  8
0
100
AcDbLine
 62
7
  6
CONTINUOUS
 10
-86.0901949367
 20
-89.65
 11
-85.5197234842
 21
-89.4802765158
  0
LINE
  5
305
100
AcDbEntity
  8
0
100
AcDbLine
 62
7
  6
CONTINUOUS
 10
-83.9098050633
 20
-90.35
 11
-84.4802765158
 21
-90.5197234842
  0
LINE
  5
306
100
AcDbEntity
  8
0
100
AcDbLine
 62
7
  6
CONTINUOUS
 10
-85.5197234842
 20
89.4802765158
 11
-86.0901949367
 21
89.65
  0
LINE
  5
307
100
AcDbEntity
  8
0
100
AcDbLine
 62
7
  6
CONTINUOUS
 10
-84.4802765158
 20
90.5197234842
 11
-83.9098050633
 21
90.35
  0
LINE
  5
308
100
AcDbEntity
  8
0
100
AcDbLine
 62
7
  6
CONTINUOUS
 10
83.855
 20
-90.35
 11
83.855
 21
-89.65
  0
LINE
  5
309
100
AcDbEntity
  8
0
100
AcDbLine
 62
7
  6
CONTINUOUS
 10
83.855
 20
89.65
 11
83.855
 21
90.35
  0
LINE
  5
30A
100
AcDbEntity
  8
0
100
AcDbLine
 62
7
  6
CONTINUOUS
 10
84.5
 20
-92.7041634566
 11
84.5
 21
-90.5860176963
  0
LINE
  5
30B
100
AcDbEntity
  8
0
100
AcDbLine
 62
7
  6
CONTINUOUS
 10
84.5
 20
-89.4139823037
 11
84.5
 21
-87.2958365434
  0
LINE
  5
30C
100
AcDbEntity
  8
0
100
AcDbLine
 62
7
  6
CONTINUOUS
 10
84.5
 20
87.2958365434
 11
84.5
 21
89.4139823037
  0
LINE
  5
30D
100
AcDbEntity
  8
0
100
AcDbLine
 62
7
  6
CONTINUOUS
 10
84.5
 20
90.5860176963
 11
84.5
 21
92.7041634566
  0
LINE
  5
30E
100
AcDbEntity
  8
0
100
AcDbLine
 62
7
  6
CONTINUOUS
 10
84.65
 20
-91.5937234472
 11
84.65
 21
-91.0901949367
  0
LINE
  5
30F
100
AcDbEntity
  8
0
100
AcDbLine
 62
7
  6
CONTINUOUS
 10
84.65
 20
-88.9098050633
 11
84.65
 21
-88.4062765528
  0
LINE
  5
310
100
AcDbEntity
  8
0
100
AcDbLine
 62
7
  6
CONTINUOUS
 10
84.65
 20
88.4062765528
 11
84.65
 21
88.9098050633
  0
LINE
  5
311
100
AcDbEntity
  8
0
100
AcDbLine
 62
7
  6
CONTINUOUS
 10
84.65
 20
91.0901949367
 11
84.65
 21
91.5937234472
  0
LINE
  5
312
100
AcDbEntity
  8
0
100
AcDbLine
 62
7
  6
CONTINUOUS
 10
85.35
 20
-91.5937234472
 11
85.35
 21
-91.0901949367
  0
LINE
  5
313
100
AcDbEntity
  8
0
100
AcDbLine
 62
7
  6
CONTINUOUS
 10
85.35
 20
-88.9098050633
 11
85.35
 21
-88.4062765528
  0
LINE
  5
314
100
AcDbEntity
  8
0
100
AcDbLine
 62
7
  6
CONTINUOUS
 10
85.35
 20
88.4062765528
 11
85.35
 21
88.9098050633
  0
LINE
  5
315
100
AcDbEntity
  8
0
100
AcDbLine
 62
7
  6
CONTINUOUS
 10
85.35
 20
91.0901949367
 11
85.35
 21
91.5937234472
  0
LINE
  5
316
100
AcDbEntity
  8
0
100
AcDbLine
 62
7
  6
CONTINUOUS
 10
85.5
 20
92.7041634566
 11
85.5
 21
90.5860176963
  0
LINE
  5
317
100
AcDbEntity
  8
0
100
AcDbLine
 62
7
  6
CONTINUOUS
 10
85.5
 20
89.4139823037
 11
85.5
 21
87.2958365434
  0
LINE
  5
318
100
AcDbEntity
  8
0
100
AcDbLine
 62
7
  6
CONTINUOUS
 10
85.5
 20
-87.2958365434
 11
85.5
 21
-89.4139823037
  0
LINE
  5
319
100
AcDbEntity
  8
0
100
AcDbLine
 62
7
  6
CONTINUOUS
 10
85.5
 20
-90.5860176963
 11
85.5
 21
-92.7041634566
  0
LINE
  5
31A
100
AcDbEntity
  8
0
100
AcDbLine
 62
7
  6
CONTINUOUS
 10
86.145
 20
90.35
 11
86.145
 21
89.65
  0
LINE
  5
31B
100
AcDbEntity
  8
0
100
AcDbLine
 62
7
  6
CONTINUOUS
 10
86.145
 20
-89.65
 11
86.145
 21
-90.35
  0
LINE
  5
31C
100
AcDbEntity
  8
0
100
AcDbLine
 62
7
  6
CONTINUOUS
 10
-247.35
 20
88.4062765528
 11
-246.65
 21
88.4062765528
  0
LINE
  5
31D
100
AcDbEntity
  8
0
100
AcDbLine
 62
7
  6
CONTINUOUS
 10
-85.35
 20
88.4062765528
 11
-84.65
 21
88.4062765528
  0
LINE
  5
31E
100
AcDbEntity
  8
0
100
AcDbLine
 62
7
  6
CONTINUOUS
 10
84.65
 20
88.4062765528
 11
85.35
 21
88.4062765528
  0
LINE
  5
31F
100
AcDbEntity
  8
0
100
AcDbLine
 62
7
  6
CONTINUOUS
 10
246.65
 20
88.4062765528
 11
247.35
 21
88.4062765528
  0
LINE
  5
320
100
AcDbEntity
  8
0
100
AcDbLine
 62
7
  6
CONTINUOUS
 10
247.35
 20
88.855
 11
246.65
 21
88.855
  0
LINE
  5
321
100
AcDbEntity
  8
0
100
AcDbLine
 62
7
  6
CONTINUOUS
 10
85.35
 20
88.855
 11
84.65
 21
88.855
  0
LINE
  5
322
100
AcDbEntity
  8
0
100
AcDbLine
 62
7
  6
CONTINUOUS
 10
-84.65
 20
88.855
 11
-85.35
 21
88.855
  0
LINE
  5
323
100
AcDbEntity
  8
0
100
AcDbLine
 62
7
  6
CONTINUOUS
 10
-246.65
 20
88.855
 11
-247.35
 21
88.855
  0
LINE
  5
324
100
AcDbEntity
  8
0
100
AcDbLine
 62
7
  6
CONTINUOUS
 10
248.9418577643
 20
89.65
 11
248.0901949367
 21
89.65
  0
LINE
  5
325
100
AcDbEntity
  8
0
100
AcDbLine
 62
7
  6
CONTINUOUS
 10
245.9098050633
 20
89.65
 11
245.0581422357
 21
89.65
  0
LINE
  5
326
100
AcDbEntity
  8
0
100
AcDbLine
 62
7
  6
CONTINUOUS
 10
86.9418577643
 20
89.65
 11
86.0901949367
 21
89.65
  0
LINE
  5
327
100
AcDbEntity
  8
0
100
AcDbLine
 62
7
  6
CONTINUOUS
 10
83.9098050633
 20
89.65
 11
83.0581422357
 21
89.65
  0
LINE
  5
328
100
AcDbEntity
  8
0
100
AcDbLine
 62
7
  6
CONTINUOUS
 10
-83.0581422357
 20
89.65
 11
-83.9098050633
 21
89.65
  0
LINE
  5
329
100
AcDbEntity
  8
0
100
AcDbLine
 62
7
  6
CONTINUOUS
 10
-86.0901949367
 20
89.65
 11
-86.9418577643
 21
89.65
  0
LINE
  5
32A
100
AcDbEntity
  8
0
100
AcDbLine
 62
7
  6
CONTINUOUS
 10
-245.0581422357
 20
89.65
 11
-245.9098050633
 21
89.65
  0
LINE
  5
32B
100
AcDbEntity
  8
0
100
AcDbLine
 62
7
  6
CONTINUOUS
 10
-248.0901949367
 20
89.65
 11
-248.9418577643
 21
89.65
  0
LINE
  5
32C
100
AcDbEntity
  8
0
100
AcDbLine
 62
7
  6
CONTINUOUS
 10
248.9418577643
 20
90.35
 11
248.0901949367
 21
90.35
  0
LINE
  5
32D
100
AcDbEntity
  8
0
100
AcDbLine
 62
7
  6
CONTINUOUS
 10
245.9098050633
 20
90.35
 11
245.0581422357
 21
90.35
  0
LINE
  5
32E
100
AcDbEntity
  8
0
100
AcDbLine
 62
7
  6
CONTINUOUS
 10
86.9418577643
 20
90.35
 11
86.0901949367
 21
90.35
  0
LINE
  5
32F
100
AcDbEntity
  8
0
100
AcDbLine
 62
7
  6
CONTINUOUS
 10
83.9098050633
 20
90.35
 11
83.0581422357
 21
90.35
  0
LINE
  5
330
100
AcDbEntity
  8
0
100
AcDbLine
 62
7
  6
CONTINUOUS
 10
-83.0581422357
 20
90.35
 11
-83.9098050633
 21
90.35
  0
LINE
  5
331
100
AcDbEntity
  8
0
100
AcDbLine
 62
7
  6
CONTINUOUS
 10
-86.0901949367
 20
90.35
 11
-86.9418577643
 21
90.35
  0
LINE
  5
332
100
AcDbEntity
  8
0
100
AcDbLine
 62
7
  6
CONTINUOUS
 10
-245.0581422357
 20
90.35
 11
-245.9098050633
 21
90.35
  0
LINE
  5
333
100
AcDbEntity
  8
0
100
AcDbLine
 62
7
  6
CONTINUOUS
 10
-248.0901949367
 20
90.35
 11
-248.9418577643
 21
90.35
  0
LINE
  5
334
100
AcDbEntity
  8
0
100
AcDbLine
 62
7
  6
CONTINUOUS
 10
-247.35
 20
91.145
 11
-246.65
 21
91.145
  0
LINE
  5
335
100
AcDbEntity
  8
0
100
AcDbLine
 62
7
  6
CONTINUOUS
 10
-85.35
 20
91.145
 11
-84.65
 21
91.145
  0
LINE
  5
336
100
AcDbEntity
  8
0
100
AcDbLine
 62
7
  6
CONTINUOUS
 10
84.65
 20
91.145
 11
85.35
 21
91.145
  0
LINE
  5
337
100
AcDbEntity
  8
0
100
AcDbLine
 62
7
  6
CONTINUOUS
 10
246.65
 20
91.145
 11
247.35
 21
91.145
  0
LINE
  5
338
100
AcDbEntity
  8
0
100
AcDbLine
 62
7
  6
CONTINUOUS
 10
-247.35
 20
91.5937234472
 11
-246.65
 21
91.5937234472
  0
LINE
  5
339
100
AcDbEntity
  8
0
100
AcDbLine
 62
7
  6
CONTINUOUS
 10
-85.35
 20
91.5937234472
 11
-84.65
 21
91.5937234472
  0
LINE
  5
33A
100
AcDbEntity
  8
0
100
AcDbLine
 62
7
  6
CONTINUOUS
 10
84.65
 20
91.5937234472
 11
85.35
 21
91.5937234472
  0
LINE
  5
33B
100
AcDbEntity
  8
0
100
AcDbLine
 62
7
  6
CONTINUOUS
 10
246.65
 20
91.5937234472
 11
247.35
 21
91.5937234472
  0
LINE
  5
33C
100
AcDbEntity
  8
0
100
AcDbLine
 62
7
  6
CONTINUOUS
 10
84.65
 20
-88.9098050633
 11
84.4802765158
 21
-89.4802765158
  0
LINE
  5
33D
100
AcDbEntity
  8
0
100
AcDbLine
 62
7
  6
CONTINUOUS
 10
85.5197234842
 20
-90.5197234842
 11
85.35
 21
-91.0901949367
  0
LINE
  5
33E
100
AcDbEntity
  8
0
100
AcDbLine
 62
7
  6
CONTINUOUS
 10
83.9098050633
 20
-89.65
 11
84.4802765158
 21
-89.4802765158
  0
LINE
  5
33F
100
AcDbEntity
  8
0
100
AcDbLine
 62
7
  6
CONTINUOUS
 10
86.0901949367
 20
-90.35
 11
85.5197234842
 21
-90.5197234842
  0
LINE
  5
340
100
AcDbEntity
  8
RACCORDO
100
AcDbLine
 62
253
  6
CONTINUOUS
 10
265.0
 20
100.0
 11
267.0
 21
99.9999999644
  0
LINE
  5
341
100
AcDbEntity
  8
RACCORDO
100
AcDbLine
 62
253
  6
CONTINUOUS
 10
-265.0
 20
100.0
 11
-267.0
 21
100.0
  0
LINE
  5
342
100
AcDbEntity
  8
RACCORDO
100
AcDbLine
 62
253
  6
CONTINUOUS
 10
257.0
 20
108.0
 11
-257.0
 21
108.0
  0
LINE
  5
343
100
AcDbEntity
  8
RACCORDO
100
AcDbLine
 62
7
  6
CONTINUOUS
 10
257.0
 20
110.0
 11
-257.0
 21
110.0
  0
LINE
  5
344
100
AcDbEntity
  8
0
100
AcDbLine
 62
7
  6
CONTINUOUS
 10
84.4802765158
 20
89.4802765158
 11
83.9098050633
 21
89.65
  0
LINE
  5
345
100
AcDbEntity
  8
0
100
AcDbLine
 62
7
  6
CONTINUOUS
 10
85.5197234842
 20
90.5197234842
 11
86.0901949367
 21
90.35
  0
LINE
  5
346
100
AcDbEntity
  8
0
100
AcDbLine
 62
7
  6
CONTINUOUS
 10
84.65
 20
88.9098050633
 11
84.4802765158
 21
89.4802765158
  0
LINE
  5
347
100
AcDbEntity
  8
0
100
AcDbLine
 62
7
  6
CONTINUOUS
 10
85.5197234842
 20
90.5197234842
 11
85.35
 21
91.0901949367
  0
LINE
  5
348
100
AcDbEntity
  8
0
100
AcDbLine
 62
7
  6
CONTINUOUS
 10
245.9098050633
 20
-89.65
 11
246.4802765158
 21
-89.4802765158
  0
LINE
  5
349
100
AcDbEntity
  8
0
100
AcDbLine
 62
7
  6
CONTINUOUS
 10
246.4802765158
 20
89.4802765158
 11
245.9098050633
 21
89.65
  0
LINE
  5
34A
100
AcDbEntity
  8
0
100
AcDbLine
 62
7
  6
CONTINUOUS
 10
248.0901949367
 20
-90.35
 11
247.5197234842
 21
-90.5197234842
  0
LINE
  5
34B
100
AcDbEntity
  8
0
100
AcDbLine
 62
7
  6
CONTINUOUS
 10
247.5197234842
 20
90.5197234842
 11
248.0901949367
 21
90.35
  0
LINE
  5
34C
100
AcDbEntity
  8
0
100
AcDbLine
 62
7
  6
CONTINUOUS
 10
246.4802765158
 20
90.5197234842
 11
246.65
 21
91.0901949367
  0
LINE
  5
34D
100
AcDbEntity
  8
0
100
AcDbLine
 62
7
  6
CONTINUOUS
 10
247.35
 20
88.9098050633
 11
247.5197234842
 21
89.4802765158
  0
LINE
  5
34E
100
AcDbEntity
  8
0
100
AcDbLine
 62
7
  6
CONTINUOUS
 10
246.4802765158
 20
-90.5197234842
 11
246.65
 21
-91.0901949367
  0
LINE
  5
34F
100
AcDbEntity
  8
0
100
AcDbLine
 62
7
  6
CONTINUOUS
 10
247.35
 20
-88.9098050633
 11
247.5197234842
 21
-89.4802765158
  0
LINE
  5
350
100
AcDbEntity
  8
0
100
AcDbLine
 62
7
  6
CONTINUOUS
 10
245.855
 20
-90.35
 11
245.855
 21
-89.65
  0
LINE
  5
351
100
AcDbEntity
  8
0
100
AcDbLine
 62
7
  6
CONTINUOUS
 10
245.855
 20
89.65
 11
245.855
 21
90.35
  0
LINE
  5
352
100
AcDbEntity
  8
0
100
AcDbLine
 62
7
  6
CONTINUOUS
 10
246.5
 20
-92.7041634566
 11
246.5
 21
-90.5860176963
  0
LINE
  5
353
100
AcDbEntity
  8
0
100
AcDbLine
 62
7
  6
CONTINUOUS
 10
246.5
 20
-89.4139823037
 11
246.5
 21
-87.2958365434
  0
LINE
  5
354
100
AcDbEntity
  8
0
100
AcDbLine
 62
7
  6
CONTINUOUS
 10
246.5
 20
87.2958365434
 11
246.5
 21
89.4139823037
  0
LINE
  5
355
100
AcDbEntity
  8
0
100
AcDbLine
 62
7
  6
CONTINUOUS
 10
246.5
 20
90.5860176963
 11
246.5
 21
92.7041634566
  0
LINE
  5
356
100
AcDbEntity
  8
0
100
AcDbLine
 62
7
  6
CONTINUOUS
 10
246.65
 20
-91.5937234472
 11
246.65
 21
-91.0901949367
  0
LINE
  5
357
100
AcDbEntity
  8
0
100
AcDbLine
 62
7
  6
CONTINUOUS
 10
246.65
 20
-88.9098050633
 11
246.65
 21
-88.4062765528
  0
LINE
  5
358
100
AcDbEntity
  8
0
100
AcDbLine
 62
7
  6
CONTINUOUS
 10
246.65
 20
88.4062765528
 11
246.65
 21
88.9098050633
  0
LINE
  5
359
100
AcDbEntity
  8
0
100
AcDbLine
 62
7
  6
CONTINUOUS
 10
246.65
 20
91.0901949367
 11
246.65
 21
91.5937234472
  0
LINE
  5
35A
100
AcDbEntity
  8
0
100
AcDbLine
 62
7
  6
CONTINUOUS
 10
247.35
 20
-91.5937234472
 11
247.35
 21
-91.0901949367
  0
LINE
  5
35B
100
AcDbEntity
  8
0
100
AcDbLine
 62
7
  6
CONTINUOUS
 10
247.35
 20
-88.9098050633
 11
247.35
 21
-88.4062765528
  0
LINE
  5
35C
100
AcDbEntity
  8
0
100
AcDbLine
 62
7
  6
CONTINUOUS
 10
247.35
 20
88.4062765528
 11
247.35
 21
88.9098050633
  0
LINE
  5
35D
100
AcDbEntity
  8
0
100
AcDbLine
 62
7
  6
CONTINUOUS
 10
247.35
 20
91.0901949367
 11
247.35
 21
91.5937234472
  0
LINE
  5
35E
100
AcDbEntity
  8
0
100
AcDbLine
 62
7
  6
CONTINUOUS
 10
247.5
 20
92.7041634566
 11
247.5
 21
90.5860176963
  0
LINE
  5
35F
100
AcDbEntity
  8
0
100
AcDbLine
 62
7
  6
CONTINUOUS
 10
247.5
 20
89.4139823037
 11
247.5
 21
87.2958365434
  0
LINE
  5
360
100
AcDbEntity
  8
0
100
AcDbLine
 62
7
  6
CONTINUOUS
 10
247.5
 20
-87.2958365434
 11
247.5
 21
-89.4139823037
  0
LINE
  5
361
100
AcDbEntity
  8
0
100
AcDbLine
 62
7
  6
CONTINUOUS
 10
247.5
 20
-90.5860176963
 11
247.5
 21
-92.7041634566
  0
LINE
  5
362
100
AcDbEntity
  8
0
100
AcDbLine
 62
7
  6
CONTINUOUS
 10
248.145
 20
90.35
 11
248.145
 21
89.65
  0
LINE
  5
363
100
AcDbEntity
  8
0
100
AcDbLine
 62
7
  6
CONTINUOUS
 10
248.145
 20
-89.65
 11
248.145
 21
-90.35
  0
LINE
  5
364
100
AcDbEntity
  8
RACCORDO
100
AcDbLine
 62
253
  6
CONTINUOUS
 10
257.0
 20
-108.0
 11
256.9999999644
 21
-110.0
  0
LINE
  5
365
100
AcDbEntity
  8
RACCORDO
100
AcDbLine
 62
253
  6
CONTINUOUS
 10
257.0
 20
108.0
 11
257.0
 21
110.0
  0
LINE
  5
366
100
AcDbEntity
  8
RACCORDO
100
AcDbLine
 62
253
  6
CONTINUOUS
 10
265.0
 20
-100.0
 11
265.0
 21
100.0
  0
LINE
  5
367
100
AcDbEntity
  8
RACCORDO
100
AcDbLine
 62
7
  6
CONTINUOUS
 10
267.0
 20
-100.0
 11
267.0
 21
100.0
  0
LINE
  5
368
100
AcDbEntity
  8
0
100
AcDbLine
 62
7
  6
CONTINUOUS
 10
246.4802765158
 20
-89.4802765158
 11
246.65
 21
-88.9098050633
  0
LINE
  5
369
100
AcDbEntity
  8
0
100
AcDbLine
 62
7
  6
CONTINUOUS
 10
247.35
 20
-91.0901949367
 11
247.5197234842
 21
-90.5197234842
  0
LINE
  5
36A
100
AcDbEntity
  8
0
100
AcDbLine
 62
7
  6
CONTINUOUS
 10
246.65
 20
88.9098050633
 11
246.4802765158
 21
89.4802765158
  0
LINE
  5
36B
100
AcDbEntity
  8
0
100
AcDbLine
 62
7
  6
CONTINUOUS
 10
247.5197234842
 20
90.5197234842
 11
247.35
 21
91.0901949367
  0
LINE
  5
36C
100
AcDbEntity
  8
RACCORDO
100
AcDbLine
 62
7
  6
CONTINUOUS
 10
-409.0803183582
 20
107.727852226
 11
-412.173109173
 21
105.9422286165
  0
LINE
  5
36D
100
AcDbEntity
  8
RACCORDO
100
AcDbLine
 62
7
  6
CONTINUOUS
 10
-412.673109173
 20
-110.0
 11
-416.873109173
 21
-110.0
  0
LINE
  5
36E
100
AcDbEntity
  8
RACCORDO
100
AcDbLine
 62
7
  6
CONTINUOUS
 10
-412.173109173
 20
-105.9422286165
 11
-409.0803183582
 21
-107.727852226
  0
LINE
  5
36F
100
AcDbEntity
  8
RACCORDO
100
AcDbLine
 62
253
  6
CONTINUOUS
 10
-408.5977707646
 20
106.8618268222
 11
-411.6905615794
 21
105.0762032128
  0
LINE
  5
370
100
AcDbEntity
  8
DRAFT
100
AcDbLine
 62
7
  6
CONTINUOUS
 10
-400.673109173
 20
106.0
 11
-410.4794786133
 21
100.3382899638
  0
LINE
  5
371
100
AcDbEntity
  8
DRAFT
100
AcDbLine
 62
7
  6
CONTINUOUS
 10
-409.0205104957
 20
97.1122544187
 11
-400.673109173
 21
100.6230953305
  0
LINE
  5
372
100
AcDbEntity
  8
DRAFT
100
AcDbLine
 62
7
  6
CONTINUOUS
 10
-409.0205104957
 20
96.3563921891
 11
-400.673109173
 21
99.6611759169
  0
LINE
  5
373
100
AcDbEntity
  8
RACCORDO
100
AcDbLine
 62
7
  6
CONTINUOUS
 10
-395.6556567665
 20
-107.9124200425
 11
-400.673109173
 21
-108.0
  0
LINE
  5
374
100
AcDbEntity
  8
DRAFT
100
AcDbLine
 62
7
  6
CONTINUOUS
 10
-409.873109173
 20
-107.5
 11
-409.4749699902
 21
-107.5
  0
LINE
  5
375
100
AcDbEntity
  8
RACCORDO
100
AcDbLine
 62
253
  6
CONTINUOUS
 10
-411.6905615794
 20
-105.0762032128
 11
-412.673109173
 21
-105.0762032128
  0
LINE
  5
376
100
AcDbEntity
  8
RACCORDO
100
AcDbLine
 62
7
  6
CONTINUOUS
 10
-408.5977707646
 20
-107.8616745174
 11
-400.673109173
 21
-108.0
  0
LINE
  5
377
100
AcDbEntity
  8
RACCORDO
100
AcDbLine
 62
253
  6
CONTINUOUS
 10
-408.5977707646
 20
-106.8618268222
 11
-400.673109173
 21
-107.0001523048
  0
LINE
  5
378
100
AcDbEntity
  8
DRAFT
100
AcDbLine
 62
7
  6
CONTINUOUS
 10
-409.0205104957
 20
-96.3563921891
 11
-400.673109173
 21
-99.6611759169
  0
LINE
  5
379
100
AcDbEntity
  8
DRAFT
100
AcDbLine
 62
7
  6
CONTINUOUS
 10
-409.0205104957
 20
-97.1122544187
 11
-400.673109173
 21
-100.6230953305
  0
LINE
  5
37A
100
AcDbEntity
  8
RACCORDO
100
AcDbLine
 62
253
  6
CONTINUOUS
 10
-411.6905615794
 20
-105.0762032128
 11
-408.5977707646
 21
-106.8618268222
  0
LINE
  5
37B
100
AcDbEntity
  8
DRAFT
100
AcDbLine
 62
7
  6
CONTINUOUS
 10
-410.4794786133
 20
-100.3382899638
 11
-400.673109173
 21
-106.0
  0
LINE
  5
37C
100
AcDbEntity
  8
DRAFT
100
AcDbLine
 62
7
  6
CONTINUOUS
 10
-394.673109173
 20
-97.6858088313
 11
-344.173109173
 21
-96.8043280524
  0
LINE
  5
37D
100
AcDbEntity
  8
RACCORDO
100
AcDbLine
 62
7
  6
CONTINUOUS
 10
-344.173109173
 20
-96.8043280524
 11
-336.1120257504
 21
-96.6636213179
  0
LINE
  5
37E
100
AcDbEntity
  8
RACCORDO
100
AcDbLine
 62
253
  6
CONTINUOUS
 10
-344.173109173
 20
-96.00420619
 11
-336.1259876756
 21
-95.8637431618
  0
LINE
  5
37F
100
AcDbEntity
  8
DRAFT
100
AcDbLine
 62
7
  6
CONTINUOUS
 10
-344.173109173
 20
-93.8324643029
 11
-394.673109173
 21
-94.6427383714
  0
LINE
  5
380
100
AcDbEntity
  8
RACCORDO
100
AcDbLine
 62
7
  6
CONTINUOUS
 10
-334.0153584699
 20
-94.7871491179
 11
-344.1678634435
 21
-94.9231988812
  0
LINE
  5
381
100
AcDbEntity
  8
DRAFT
100
AcDbLine
 62
7
  6
CONTINUOUS
 10
-344.173109173
 20
-95.1963598612
 11
-394.673109173
 21
-95.6326878651
  0
LINE
  5
382
100
AcDbEntity
  8
RACCORDO
100
AcDbLine
 62
253
  6
CONTINUOUS
 10
-412.673109173
 20
-100.0
 11
-418.873109173
 21
-100.0
  0
LINE
  5
383
100
AcDbEntity
  8
DRAFT
100
AcDbLine
 62
7
  6
CONTINUOUS
 10
-373.9932768409
 20
-94.3109298193
 11
-344.173109173
 21
-94.5317443608
  0
LINE
  5
384
100
AcDbEntity
  8
DRAFT
100
AcDbLine
 62
7
  6
CONTINUOUS
 10
-412.673109173
 20
-100.3
 11
-400.9549857655
 21
-100.5045406049
  0
LINE
  5
385
100
AcDbEntity
  8
DRAFT
100
AcDbLine
 62
7
  6
CONTINUOUS
 10
-394.673109173
 20
-92.5896174052
 11
-344.173109173
 21
-92.2244961116
  0
LINE
  5
386
100
AcDbEntity
  8
DRAFT
100
AcDbLine
 62
253
  6
CONTINUOUS
 10
-412.673109173
 20
-88.0
 11
-400.673109173
 21
-88.0
  0
LINE
  5
387
100
AcDbEntity
  8
RACCORDO
100
AcDbLine
 62
253
  6
CONTINUOUS
 10
-394.673109173
 20
-86.0
 11
-400.673109173
 21
-86.0
  0
LINE
  5
388
100
AcDbEntity
  8
DRAFT
100
AcDbLine
 62
7
  6
CONTINUOUS
 10
-400.673109173
 20
-81.5698202597
 11
-410.4794786133
 21
-81.740991075
  0
LINE
  5
389
100
AcDbEntity
  8
RACCORDO
100
AcDbLine
 62
7
  6
CONTINUOUS
 10
-334.673109173
 20
-82.0
 11
-394.673109173
 21
-82.5236120674
  0
LINE
  5
38A
100
AcDbEntity
  8
RACCORDO
100
AcDbLine
 62
7
  6
CONTINUOUS
 10
-333.4689204019
 20
-83.7795326884
 11
-344.173109173
 21
-83.8355802019
  0
LINE
  5
38B
100
AcDbEntity
  8
RACCORDO
100
AcDbLine
 62
253
  6
CONTINUOUS
 10
-336.1120257504
 20
-82.9934342209
 11
-344.173109173
 21
-83.0356423407
  0
LINE
  5
38C
100
AcDbEntity
  8
DRAFT
100
AcDbLine
 62
7
  6
CONTINUOUS
 10
-400.673109173
 20
-82.8301797403
 11
-410.4794786133
 21
-82.659008925
  0
LINE
  5
38D
100
AcDbEntity
  8
RACCORDO
100
AcDbLine
 62
7
  6
CONTINUOUS
 10
-391.5992877826
 20
-79.4063498563
 11
-334.673109173
 21
-80.4
  0
LINE
  5
38E
100
AcDbEntity
  8
DRAFT
100
AcDbLine
 62
7
  6
CONTINUOUS
 10
-394.673109173
 20
-62.4712812921
 11
-393.073109173
 21
-62.9
  0
LINE
  5
38F
100
AcDbEntity
  8
DRAFT
100
AcDbLine
 62
7
  6
CONTINUOUS
 10
-400.673109173
 20
-55.4301797403
 11
-410.4794786133
 21
-55.259008925
  0
LINE
  5
390
100
AcDbEntity
  8
DRAFT
100
AcDbLine
 62
7
  6
CONTINUOUS
 10
-394.673109173
 20
-59.3287187079
 11
-393.073109173
 21
-58.9
  0
LINE
  5
391
100
AcDbEntity
  8
RACCORDO
100
AcDbLine
 62
253
  6
CONTINUOUS
 10
-393.073109173
 20
-57.562175749
 11
-394.673109173
 21
-57.8442989181
  0
LINE
  5
392
100
AcDbEntity
  8
RACCORDO
100
AcDbLine
 62
7
  6
CONTINUOUS
 10
-393.073109173
 20
-57.2576862521
 11
-394.673109173
 21
-57.5398094213
  0
LINE
  5
393
100
AcDbEntity
  8
DRAFT
100
AcDbLine
 62
7
  6
CONTINUOUS
 10
-400.673109173
 20
-54.1698202597
 11
-410.4794786133
 21
-54.340991075
  0
LINE
  5
394
100
AcDbEntity
  8
RACCORDO
100
AcDbLine
 62
7
  6
CONTINUOUS
 10
-418.873109173
 20
-108.0
 11
-418.873109173
 21
108.0
  0
LINE
  5
395
100
AcDbEntity
  8
RACCORDO
100
AcDbLine
 62
253
  6
CONTINUOUS
 10
-416.873109173
 20
-110.0
 11
-416.873109173
 21
110.0
  0
LINE
  5
396
100
AcDbEntity
  8
CURVE
100
AcDbLine
 62
7
  6
CONTINUOUS
 10
-416.373109173
 20
-110.0
 11
-416.373109173
 21
110.0
  0
LINE
  5
397
100
AcDbEntity
  8
RACCORDO
100
AcDbLine
 62
7
  6
CONTINUOUS
 10
-334.673109173
 20
-41.4
 11
-391.5992877826
 21
-42.3936501437
  0
LINE
  5
398
100
AcDbEntity
  8
RACCORDO
100
AcDbLine
 62
7
  6
CONTINUOUS
 10
-391.5992877826
 20
-38.8063498563
 11
-334.673109173
 21
-39.8
  0
LINE
  5
399
100
AcDbEntity
  8
0
100
AcDbLine
 62
7
  6
CONTINUOUS
 10
-412.673109173
 20
-110.0
 11
-412.673109173
 21
110.0
  0
LINE
  5
39A
100
AcDbEntity
  8
RACCORDO
100
AcDbLine
 62
253
  6
CONTINUOUS
 10
-411.6905615794
 20
105.0762032128
 11
-411.6905615794
 21
100.317150432
  0
LINE
  5
39B
100
AcDbEntity
  8
RACCORDO
100
AcDbLine
 62
253
  6
CONTINUOUS
 10
-411.6905615794
 20
-100.317150432
 11
-411.6905615794
 21
-105.0762032128
  0
LINE
  5
39C
100
AcDbEntity
  8
DRAFT
100
AcDbLine
 62
7
  6
CONTINUOUS
 10
-410.4794786133
 20
82.659008925
 11
-410.4794786133
 21
81.740991075
  0
LINE
  5
39D
100
AcDbEntity
  8
DRAFT
100
AcDbLine
 62
7
  6
CONTINUOUS
 10
-410.4794786133
 20
55.259008925
 11
-410.4794786133
 21
54.340991075
  0
LINE
  5
39E
100
AcDbEntity
  8
DRAFT
100
AcDbLine
 62
7
  6
CONTINUOUS
 10
-410.4794786133
 20
27.859008925
 11
-410.4794786133
 21
26.940991075
  0
LINE
  5
39F
100
AcDbEntity
  8
DRAFT
100
AcDbLine
 62
7
  6
CONTINUOUS
 10
-410.4794786133
 20
0.459008925
 11
-410.4794786133
 21
-0.459008925
  0
LINE
  5
3A0
100
AcDbEntity
  8
DRAFT
100
AcDbLine
 62
7
  6
CONTINUOUS
 10
-410.4794786133
 20
-26.940991075
 11
-410.4794786133
 21
-27.859008925
  0
LINE
  5
3A1
100
AcDbEntity
  8
DRAFT
100
AcDbLine
 62
7
  6
CONTINUOUS
 10
-410.4794786133
 20
-54.340991075
 11
-410.4794786133
 21
-55.259008925
  0
LINE
  5
3A2
100
AcDbEntity
  8
DRAFT
100
AcDbLine
 62
7
  6
CONTINUOUS
 10
-410.4794786133
 20
-81.740991075
 11
-410.4794786133
 21
-82.659008925
  0
LINE
  5
3A3
100
AcDbEntity
  8
RACCORDO
100
AcDbLine
 62
7
  6
CONTINUOUS
 10
-409.873109173
 20
-99.5
 11
-409.873109173
 21
-94.5
  0
LINE
  5
3A4
100
AcDbEntity
  8
DRAFT
100
AcDbLine
 62
7
  6
CONTINUOUS
 10
-409.873109173
 20
-107.2701342357
 11
-409.873109173
 21
-107.5
  0
LINE
  5
3A5
100
AcDbEntity
  8
DRAFT
100
AcDbLine
 62
7
  6
CONTINUOUS
 10
-409.873109173
 20
107.2701342357
 11
-409.873109173
 21
107.5
  0
LINE
  5
3A6
100
AcDbEntity
  8
RACCORDO
100
AcDbLine
 62
7
  6
CONTINUOUS
 10
-405.073109173
 20
99.5
 11
-405.073109173
 21
98.7724954355
  0
LINE
  5
3A7
100
AcDbEntity
  8
RACCORDO
100
AcDbLine
 62
7
  6
CONTINUOUS
 10
-405.073109173
 20
-98.7724954355
 11
-405.073109173
 21
-99.5
  0
LINE
  5
3A8
100
AcDbEntity
  8
DRAFT
100
AcDbLine
 62
7
  6
CONTINUOUS
 10
-400.673109173
 20
-108.0
 11
-400.673109173
 21
108.0
  0
LINE
  5
3A9
100
AcDbEntity
  8
DRAFT
100
AcDbLine
 62
7
  6
CONTINUOUS
 10
-400.673109173
 20
-26.7698202597
 11
-410.4794786133
 21
-26.940991075
  0
LINE
  5
3AA
100
AcDbEntity
  8
DRAFT
100
AcDbLine
 62
7
  6
CONTINUOUS
 10
-400.673109173
 20
-28.0301797403
 11
-410.4794786133
 21
-27.859008925
  0
LINE
  5
3AB
100
AcDbEntity
  8
DRAFT
100
AcDbLine
 62
7
  6
CONTINUOUS
 10
-394.673109173
 20
-21.8712812921
 11
-393.073109173
 21
-22.3
  0
LINE
  5
3AC
100
AcDbEntity
  8
RACCORDO
100
AcDbLine
 62
253
  6
CONTINUOUS
 10
-395.6556567665
 20
107.9124200425
 11
-395.6556567665
 21
-107.9124200425
  0
LINE
  5
3AD
100
AcDbEntity
  8
RACCORDO
100
AcDbLine
 62
7
  6
CONTINUOUS
 10
-394.673109173
 20
106.9125723473
 11
-394.673109173
 21
-106.9125723473
  0
LINE
  5
3AE
100
AcDbEntity
  8
RACCORDO
100
AcDbLine
 62
7
  6
CONTINUOUS
 10
-393.073109173
 20
77.9065783135
 11
-393.073109173
 21
62.9
  0
LINE
  5
3AF
100
AcDbEntity
  8
RACCORDO
100
AcDbLine
 62
7
  6
CONTINUOUS
 10
-393.073109173
 20
58.9
 11
-393.073109173
 21
43.8934216865
  0
LINE
  5
3B0
100
AcDbEntity
  8
RACCORDO
100
AcDbLine
 62
7
  6
CONTINUOUS
 10
-393.073109173
 20
37.3065783135
 11
-393.073109173
 21
22.3
  0
LINE
  5
3B1
100
AcDbEntity
  8
RACCORDO
100
AcDbLine
 62
7
  6
CONTINUOUS
 10
-393.073109173
 20
18.3
 11
-393.073109173
 21
3.2934216865
  0
LINE
  5
3B2
100
AcDbEntity
  8
RACCORDO
100
AcDbLine
 62
7
  6
CONTINUOUS
 10
-393.073109173
 20
-3.2934216865
 11
-393.073109173
 21
-18.3
  0
LINE
  5
3B3
100
AcDbEntity
  8
RACCORDO
100
AcDbLine
 62
7
  6
CONTINUOUS
 10
-393.073109173
 20
-22.3
 11
-393.073109173
 21
-37.3065783135
  0
LINE
  5
3B4
100
AcDbEntity
  8
RACCORDO
100
AcDbLine
 62
7
  6
CONTINUOUS
 10
-393.073109173
 20
-43.8934216865
 11
-393.073109173
 21
-58.9
  0
LINE
  5
3B5
100
AcDbEntity
  8
RACCORDO
100
AcDbLine
 62
7
  6
CONTINUOUS
 10
-393.073109173
 20
-62.9
 11
-393.073109173
 21
-77.9065783135
  0
LINE
  5
3B6
100
AcDbEntity
  8
DRAFT
100
AcDbLine
 62
7
  6
CONTINUOUS
 10
-394.673109173
 20
-18.7287187079
 11
-393.073109173
 21
-18.3
  0
LINE
  5
3B7
100
AcDbEntity
  8
RACCORDO
100
AcDbLine
 62
7
  6
CONTINUOUS
 10
-334.673109173
 20
-0.8
 11
-391.5992877826
 21
-1.7936501437
  0
LINE
  5
3B8
100
AcDbEntity
  8
RACCORDO
100
AcDbLine
 62
7
  6
CONTINUOUS
 10
-337.473109173
 20
0.7011258182
 11
-340.6575359884
 21
0.6455414414
  0
LINE
  5
3B9
100
AcDbEntity
  8
DRAFT
100
AcDbLine
 62
7
  6
CONTINUOUS
 10
-400.673109173
 20
-0.6301797403
 11
-410.4794786133
 21
-0.459008925
  0
LINE
  5
3BA
100
AcDbEntity
  8
RACCORDO
100
AcDbLine
 62
7
  6
CONTINUOUS
 10
-337.473109173
 20
-0.7011258182
 11
-340.6575359884
 21
-0.6455414414
  0
LINE
  5
3BB
100
AcDbEntity
  8
DRAFT
100
AcDbLine
 62
7
  6
CONTINUOUS
 10
-400.673109173
 20
0.6301797403
 11
-410.4794786133
 21
0.459008925
  0
LINE
  5
3BC
100
AcDbEntity
  8
RACCORDO
100
AcDbLine
 62
7
  6
CONTINUOUS
 10
-391.5992877826
 20
1.7936501437
 11
-334.673109173
 21
0.8
  0
LINE
  5
3BD
100
AcDbEntity
  8
RACCORDO
100
AcDbLine
 62
7
  6
CONTINUOUS
 10
-364.673109173
 20
41.9236519478
 11
-364.673109173
 21
39.2763480522
  0
LINE
  5
3BE
100
AcDbEntity
  8
RACCORDO
100
AcDbLine
 62
7
  6
CONTINUOUS
 10
-364.673109173
 20
1.3236519478
 11
-364.673109173
 21
-1.3236519478
  0
LINE
  5
3BF
100
AcDbEntity
  8
RACCORDO
100
AcDbLine
 62
7
  6
CONTINUOUS
 10
-364.673109173
 20
-39.2763480522
 11
-364.673109173
 21
-41.9236519478
  0
LINE
  5
3C0
100
AcDbEntity
  8
RACCORDO
100
AcDbLine
 62
253
  6
CONTINUOUS
 10
-364.3738945702
 20
41.9184291375
 11
-364.3738945702
 21
39.2815708625
  0
LINE
  5
3C1
100
AcDbEntity
  8
RACCORDO
100
AcDbLine
 62
253
  6
CONTINUOUS
 10
-364.3738945702
 20
1.3184291375
 11
-364.3738945702
 21
-1.3184291375
  0
LINE
  5
3C2
100
AcDbEntity
  8
RACCORDO
100
AcDbLine
 62
253
  6
CONTINUOUS
 10
-364.3738945702
 20
-39.2815708625
 11
-364.3738945702
 21
-41.9184291375
  0
LINE
  5
3C3
100
AcDbEntity
  8
DRAFT
100
AcDbLine
 62
7
  6
CONTINUOUS
 10
-394.673109173
 20
18.7287187079
 11
-393.073109173
 21
18.3
  0
LINE
  5
3C4
100
AcDbEntity
  8
DRAFT
100
AcDbLine
 62
7
  6
CONTINUOUS
 10
-344.173109173
 20
94.5119258552
 11
-344.173109173
 21
94.0233504297
  0
LINE
  5
3C5
100
AcDbEntity
  8
RACCORDO
100
AcDbLine
 62
7
  6
CONTINUOUS
 10
-344.173109173
 20
94.0233504297
 11
-344.173109173
 21
93.8324643029
  0
LINE
  5
3C6
100
AcDbEntity
  8
DRAFT
100
AcDbLine
 62
7
  6
CONTINUOUS
 10
-344.173109173
 20
-93.8324643029
 11
-344.173109173
 21
-92.2244961116
  0
LINE
  5
3C7
100
AcDbEntity
  8
RACCORDO
100
AcDbLine
 62
7
  6
CONTINUOUS
 10
-344.173109173
 20
-92.2244961116
 11
-344.173109173
 21
-83.0356423407
  0
LINE
  5
3C8
100
AcDbEntity
  8
RACCORDO
100
AcDbLine
 62
7
  6
CONTINUOUS
 10
-344.173109173
 20
-93.8324643029
 11
-344.173109173
 21
-94.0233504297
  0
LINE
  5
3C9
100
AcDbEntity
  8
DRAFT
100
AcDbLine
 62
7
  6
CONTINUOUS
 10
-344.173109173
 20
-94.5317443608
 11
-344.173109173
 21
-96.8043280524
  0
LINE
  5
3CA
100
AcDbEntity
  8
DRAFT
100
AcDbLine
 62
7
  6
CONTINUOUS
 10
-344.173109173
 20
-94.0233504297
 11
-344.173109173
 21
-94.5119258552
  0
LINE
  5
3CB
100
AcDbEntity
  8
RACCORDO
100
AcDbLine
 62
7
  6
CONTINUOUS
 10
-344.173109173
 20
83.0356423407
 11
-344.173109173
 21
92.2244961116
  0
LINE
  5
3CC
100
AcDbEntity
  8
DRAFT
100
AcDbLine
 62
7
  6
CONTINUOUS
 10
-344.173109173
 20
92.2244961116
 11
-344.173109173
 21
93.8324643029
  0
LINE
  5
3CD
100
AcDbEntity
  8
DRAFT
100
AcDbLine
 62
7
  6
CONTINUOUS
 10
-344.173109173
 20
94.5317443608
 11
-344.173109173
 21
96.8043280524
  0
LINE
  5
3CE
100
AcDbEntity
  8
DRAFT
100
AcDbLine
 62
7
  6
CONTINUOUS
 10
-394.673109173
 20
21.8712812921
 11
-393.073109173
 21
22.3
  0
LINE
  5
3CF
100
AcDbEntity
  8
DRAFT
100
AcDbLine
 62
7
  6
CONTINUOUS
 10
-400.673109173
 20
28.0301797403
 11
-410.4794786133
 21
27.859008925
  0
LINE
  5
3D0
100
AcDbEntity
  8
DRAFT
100
AcDbLine
 62
7
  6
CONTINUOUS
 10
-400.673109173
 20
26.7698202597
 11
-410.4794786133
 21
26.940991075
  0
LINE
  5
3D1
100
AcDbEntity
  8
RACCORDO
100
AcDbLine
 62
253
  6
CONTINUOUS
 10
-336.1259876756
 20
-95.8637431618
 11
-336.1120257345
 21
-96.6636213176
  0
LINE
  5
3D2
100
AcDbEntity
  8
RACCORDO
100
AcDbLine
 62
7
  6
CONTINUOUS
 10
-340.673109173
 20
-82.0523612067
 11
-340.673109173
 21
-80.2952696104
  0
LINE
  5
3D3
100
AcDbEntity
  8
RACCORDO
100
AcDbLine
 62
7
  6
CONTINUOUS
 10
-340.673109173
 20
-41.5047303896
 11
-340.673109173
 21
-39.6952696104
  0
LINE
  5
3D4
100
AcDbEntity
  8
RACCORDO
100
AcDbLine
 62
7
  6
CONTINUOUS
 10
-340.673109173
 20
-0.9047303896
 11
-340.673109173
 21
0.9047303896
  0
LINE
  5
3D5
100
AcDbEntity
  8
RACCORDO
100
AcDbLine
 62
7
  6
CONTINUOUS
 10
-340.673109173
 20
39.6952696104
 11
-340.673109173
 21
41.5047303896
  0
LINE
  5
3D6
100
AcDbEntity
  8
RACCORDO
100
AcDbLine
 62
7
  6
CONTINUOUS
 10
-340.673109173
 20
80.2952696104
 11
-340.673109173
 21
82.0523612067
  0
LINE
  5
3D7
100
AcDbEntity
  8
RACCORDO
100
AcDbLine
 62
253
  6
CONTINUOUS
 10
-340.3783448949
 20
-82.0497888379
 11
-340.3783448949
 21
-80.30041474
  0
LINE
  5
3D8
100
AcDbEntity
  8
RACCORDO
100
AcDbLine
 62
253
  6
CONTINUOUS
 10
-340.3783448949
 20
-41.49958526
 11
-340.3783448949
 21
-39.70041474
  0
LINE
  5
3D9
100
AcDbEntity
  8
RACCORDO
100
AcDbLine
 62
253
  6
CONTINUOUS
 10
-340.3783448949
 20
-0.89958526
 11
-340.3783448949
 21
-0.65041474
  0
LINE
  5
3DA
100
AcDbEntity
  8
RACCORDO
100
AcDbLine
 62
253
  6
CONTINUOUS
 10
-340.3783448949
 20
0.65041474
 11
-340.3783448949
 21
0.89958526
  0
LINE
  5
3DB
100
AcDbEntity
  8
RACCORDO
100
AcDbLine
 62
253
  6
CONTINUOUS
 10
-340.3783448949
 20
39.70041474
 11
-340.3783448949
 21
41.49958526
  0
LINE
  5
3DC
100
AcDbEntity
  8
RACCORDO
100
AcDbLine
 62
253
  6
CONTINUOUS
 10
-340.3783448949
 20
80.30041474
 11
-340.3783448949
 21
82.0497888379
  0
LINE
  5
3DD
100
AcDbEntity
  8
RACCORDO
100
AcDbLine
 62
7
  6
CONTINUOUS
 10
-337.473109173
 20
82.024340947
 11
-337.473109173
 21
80.3511258182
  0
LINE
  5
3DE
100
AcDbEntity
  8
RACCORDO
100
AcDbLine
 62
7
  6
CONTINUOUS
 10
-337.473109173
 20
41.4488741818
 11
-337.473109173
 21
39.7511258182
  0
LINE
  5
3DF
100
AcDbEntity
  8
RACCORDO
100
AcDbLine
 62
7
  6
CONTINUOUS
 10
-337.473109173
 20
0.8488741818
 11
-337.473109173
 21
-0.8488741818
  0
LINE
  5
3E0
100
AcDbEntity
  8
RACCORDO
100
AcDbLine
 62
7
  6
CONTINUOUS
 10
-337.473109173
 20
-39.7511258182
 11
-337.473109173
 21
-41.4488741818
  0
LINE
  5
3E1
100
AcDbEntity
  8
RACCORDO
100
AcDbLine
 62
7
  6
CONTINUOUS
 10
-337.473109173
 20
-80.3511258182
 11
-337.473109173
 21
-82.0243387809
  0
LINE
  5
3E2
100
AcDbEntity
  8
RACCORDO
100
AcDbLine
 62
253
  6
CONTINUOUS
 10
-337.0309627558
 20
-82.0205766765
 11
-337.0309627558
 21
-80.3588435126
  0
LINE
  5
3E3
100
AcDbEntity
  8
RACCORDO
100
AcDbLine
 62
253
  6
CONTINUOUS
 10
-337.0309627558
 20
-41.4411564874
 11
-337.0309627558
 21
-39.7588435126
  0
LINE
  5
3E4
100
AcDbEntity
  8
RACCORDO
100
AcDbLine
 62
253
  6
CONTINUOUS
 10
-337.0309627558
 20
-0.8411564874
 11
-337.0309627558
 21
0.8411564874
  0
LINE
  5
3E5
100
AcDbEntity
  8
RACCORDO
100
AcDbLine
 62
253
  6
CONTINUOUS
 10
-337.0309627558
 20
39.7588435126
 11
-337.0309627558
 21
41.4411564874
  0
LINE
  5
3E6
100
AcDbEntity
  8
RACCORDO
100
AcDbLine
 62
253
  6
CONTINUOUS
 10
-337.0309627558
 20
80.3588435126
 11
-337.0309627558
 21
82.0205766765
  0
LINE
  5
3E7
100
AcDbEntity
  8
RACCORDO
100
AcDbLine
 62
253
  6
CONTINUOUS
 10
-336.1120257504
 20
82.9934342209
 11
-336.1120257504
 21
82.0125572347
  0
LINE
  5
3E8
100
AcDbEntity
  8
RACCORDO
100
AcDbLine
 62
253
  6
CONTINUOUS
 10
-336.1120257504
 20
80.3748836177
 11
-336.1120257504
 21
41.4251163823
  0
LINE
  5
3E9
100
AcDbEntity
  8
RACCORDO
100
AcDbLine
 62
253
  6
CONTINUOUS
 10
-336.1120257504
 20
39.7748836177
 11
-336.1120257504
 21
0.8251163823
  0
LINE
  5
3EA
100
AcDbEntity
  8
RACCORDO
100
AcDbLine
 62
253
  6
CONTINUOUS
 10
-336.1120257504
 20
-0.8251163823
 11
-336.1120257504
 21
-39.7748836177
  0
LINE
  5
3EB
100
AcDbEntity
  8
RACCORDO
100
AcDbLine
 62
253
  6
CONTINUOUS
 10
-336.1120257504
 20
-41.4251163823
 11
-336.1120257504
 21
-80.3748836177
  0
LINE
  5
3EC
100
AcDbEntity
  8
RACCORDO
100
AcDbLine
 62
253
  6
CONTINUOUS
 10
-336.1120257504
 20
-82.0125572347
 11
-336.1120257504
 21
-82.9934342209
  0
LINE
  5
3ED
100
AcDbEntity
  8
RACCORDO
100
AcDbLine
 62
253
  6
CONTINUOUS
 10
-336.1259876756
 20
95.8637431618
 11
-336.1120257504
 21
96.6636213179
  0
LINE
  5
3EE
100
AcDbEntity
  8
RACCORDO
100
AcDbLine
 62
7
  6
CONTINUOUS
 10
-334.673109173
 20
39.8
 11
-391.5992877826
 21
38.8063498563
  0
LINE
  5
3EF
100
AcDbEntity
  8
RACCORDO
100
AcDbLine
 62
7
  6
CONTINUOUS
 10
-334.673109173
 20
-82.0
 11
-334.673109173
 21
-80.4
  0
LINE
  5
3F0
100
AcDbEntity
  8
RACCORDO
100
AcDbLine
 62
7
  6
CONTINUOUS
 10
-334.673109173
 20
-41.4
 11
-334.673109173
 21
-39.8
  0
LINE
  5
3F1
100
AcDbEntity
  8
RACCORDO
100
AcDbLine
 62
7
  6
CONTINUOUS
 10
-334.673109173
 20
-0.8
 11
-334.673109173
 21
0.8
  0
LINE
  5
3F2
100
AcDbEntity
  8
RACCORDO
100
AcDbLine
 62
7
  6
CONTINUOUS
 10
-334.673109173
 20
39.8
 11
-334.673109173
 21
41.4
  0
LINE
  5
3F3
100
AcDbEntity
  8
RACCORDO
100
AcDbLine
 62
7
  6
CONTINUOUS
 10
-334.673109173
 20
80.4
 11
-334.673109173
 21
82.0
  0
LINE
  5
3F4
100
AcDbEntity
  8
RACCORDO
100
AcDbLine
 62
253
  6
CONTINUOUS
 10
-333.4689204019
 20
-93.4767350028
 11
-333.4689204019
 21
-83.7795326884
  0
LINE
  5
3F5
100
AcDbEntity
  8
RACCORDO
100
AcDbLine
 62
253
  6
CONTINUOUS
 10
-333.4689204019
 20
83.7795326884
 11
-333.4689204019
 21
93.4767350028
  0
LINE
  5
3F6
100
AcDbEntity
  8
RACCORDO
100
AcDbLine
 62
7
  6
CONTINUOUS
 10
-332.673109173
 20
-93.1641543848
 11
-332.673109173
 21
93.1641543848
  0
LINE
  5
3F7
100
AcDbEntity
  8
RACCORDO
100
AcDbLine
 62
7
  6
CONTINUOUS
 10
-391.5992877826
 20
42.3936501437
 11
-334.673109173
 21
41.4
  0
LINE
  5
3F8
100
AcDbEntity
  8
DRAFT
100
AcDbLine
 62
7
  6
CONTINUOUS
 10
-400.673109173
 20
55.4301797403
 11
-410.4794786133
 21
55.259008925
  0
LINE
  5
3F9
100
AcDbEntity
  8
DRAFT
100
AcDbLine
 62
7
  6
CONTINUOUS
 10
-400.673109173
 20
54.1698202597
 11
-410.4794786133
 21
54.340991075
  0
LINE
  5
3FA
100
AcDbEntity
  8
RACCORDO
100
AcDbLine
 62
7
  6
CONTINUOUS
 10
-394.673109173
 20
57.5398094213
 11
-393.073109173
 21
57.2576862521
  0
LINE
  5
3FB
100
AcDbEntity
  8
RACCORDO
100
AcDbLine
 62
253
  6
CONTINUOUS
 10
-394.673109173
 20
57.8442989181
 11
-393.073109173
 21
57.562175749
  0
LINE
  5
3FC
100
AcDbEntity
  8
DRAFT
100
AcDbLine
 62
7
  6
CONTINUOUS
 10
-394.673109173
 20
59.3287187079
 11
-393.073109173
 21
58.9
  0
LINE
  5
3FD
100
AcDbEntity
  8
DRAFT
100
AcDbLine
 62
7
  6
CONTINUOUS
 10
-394.673109173
 20
62.4712812921
 11
-393.073109173
 21
62.9
  0
LINE
  5
3FE
100
AcDbEntity
  8
RACCORDO
100
AcDbLine
 62
7
  6
CONTINUOUS
 10
-334.673109173
 20
80.4
 11
-391.5992877826
 21
79.4063498563
  0
LINE
  5
3FF
100
AcDbEntity
  8
DRAFT
100
AcDbLine
 62
7
  6
CONTINUOUS
 10
-400.673109173
 20
82.8301797403
 11
-410.4794786133
 21
82.659008925
  0
LINE
  5
400
100
AcDbEntity
  8
RACCORDO
100
AcDbLine
 62
253
  6
CONTINUOUS
 10
-394.673109173
 20
86.0
 11
-400.673109173
 21
86.0
  0
LINE
  5
401
100
AcDbEntity
  8
RACCORDO
100
AcDbLine
 62
253
  6
CONTINUOUS
 10
-344.173109173
 20
83.0356423407
 11
-336.1120257504
 21
82.9934342209
  0
LINE
  5
402
100
AcDbEntity
  8
RACCORDO
100
AcDbLine
 62
7
  6
CONTINUOUS
 10
-344.173109173
 20
83.8355802019
 11
-333.4689204019
 21
83.7795326884
  0
LINE
  5
403
100
AcDbEntity
  8
RACCORDO
100
AcDbLine
 62
7
  6
CONTINUOUS
 10
-394.673109173
 20
82.5236120674
 11
-334.673109173
 21
82.0
  0
LINE
  5
404
100
AcDbEntity
  8
DRAFT
100
AcDbLine
 62
7
  6
CONTINUOUS
 10
-400.673109173
 20
81.5698202597
 11
-410.4794786133
 21
81.740991075
  0
LINE
  5
405
100
AcDbEntity
  8
DRAFT
100
AcDbLine
 62
7
  6
CONTINUOUS
 10
-373.9932768409
 20
94.3109298193
 11
-344.173109173
 21
94.5317443608
  0
LINE
  5
406
100
AcDbEntity
  8
DRAFT
100
AcDbLine
 62
253
  6
CONTINUOUS
 10
-412.673109173
 20
88.0
 11
-400.673109173
 21
88.0
  0
LINE
  5
407
100
AcDbEntity
  8
DRAFT
100
AcDbLine
 62
7
  6
CONTINUOUS
 10
-394.673109173
 20
92.5896174052
 11
-344.173109173
 21
92.2244961116
  0
LINE
  5
408
100
AcDbEntity
  8
DRAFT
100
AcDbLine
 62
7
  6
CONTINUOUS
 10
-344.173109173
 20
95.1963598612
 11
-394.673109173
 21
95.6326878651
  0
LINE
  5
409
100
AcDbEntity
  8
RACCORDO
100
AcDbLine
 62
7
  6
CONTINUOUS
 10
-334.0153584699
 20
94.7871491179
 11
-344.1767680977
 21
94.923318209
  0
LINE
  5
40A
100
AcDbEntity
  8
DRAFT
100
AcDbLine
 62
7
  6
CONTINUOUS
 10
-344.173109173
 20
93.8324643029
 11
-394.673109173
 21
94.6427383714
  0
LINE
  5
40B
100
AcDbEntity
  8
DRAFT
100
AcDbLine
 62
7
  6
CONTINUOUS
 10
-412.673109173
 20
100.3
 11
-400.9549857655
 21
100.5045406049
  0
LINE
  5
40C
100
AcDbEntity
  8
RACCORDO
100
AcDbLine
 62
253
  6
CONTINUOUS
 10
-412.673109173
 20
100.0
 11
-418.873109173
 21
100.0
  0
LINE
  5
40D
100
AcDbEntity
  8
RACCORDO
100
AcDbLine
 62
253
  6
CONTINUOUS
 10
-336.1259876756
 20
95.8637431618
 11
-344.173109173
 21
96.00420619
  0
LINE
  5
40E
100
AcDbEntity
  8
DRAFT
100
AcDbLine
 62
7
  6
CONTINUOUS
 10
-394.673109173
 20
97.6858088313
 11
-344.173109173
 21
96.8043280524
  0
LINE
  5
40F
100
AcDbEntity
  8
RACCORDO
100
AcDbLine
 62
7
  6
CONTINUOUS
 10
-336.1120257504
 20
96.6636213179
 11
-344.173109173
 21
96.8043280524
  0
LINE
  5
410
100
AcDbEntity
  8
RACCORDO
100
AcDbLine
 62
253
  6
CONTINUOUS
 10
-400.673109173
 20
107.0001523048
 11
-408.5977707646
 21
106.8618268222
  0
LINE
  5
411
100
AcDbEntity
  8
RACCORDO
100
AcDbLine
 62
7
  6
CONTINUOUS
 10
-400.673109173
 20
108.0
 11
-408.5977707646
 21
107.8616745174
  0
LINE
  5
412
100
AcDbEntity
  8
RACCORDO
100
AcDbLine
 62
253
  6
CONTINUOUS
 10
-412.673109173
 20
105.0762032128
 11
-411.6905615794
 21
105.0762032128
  0
LINE
  5
413
100
AcDbEntity
  8
DRAFT
100
AcDbLine
 62
7
  6
CONTINUOUS
 10
-409.873109173
 20
107.5
 11
-409.4749699902
 21
107.5
  0
LINE
  5
414
100
AcDbEntity
  8
RACCORDO
100
AcDbLine
 62
7
  6
CONTINUOUS
 10
-412.673109173
 20
110.0
 11
-416.873109173
 21
110.0
  0
LINE
  5
415
100
AcDbEntity
  8
DRAFT
100
AcDbLine
 62
7
  6
CONTINUOUS
 10
-400.673109173
 20
108.0
 11
-395.6556567665
 21
107.9124200425
  0
LINE
  5
416
100
AcDbEntity
  8
RACCORDO
100
AcDbLine
 62
7
  6
CONTINUOUS
 10
-395.6556567665
 20
107.9124200425
 11
-400.673109173
 21
108.0
  0
ARC
  5
417
100
AcDbEntity
  8
0
100
AcDbCircle
 62
7
  6
CONTINUOUS
 10
-72.3559837132
 20
-90.0
 40
14.5900727153
100
AcDbArc
 50
178.6254046104
 51
181.3745953896
  0
ARC
  5
418
100
AcDbEntity
  8
0
100
AcDbCircle
 62
7
  6
CONTINUOUS
 10
-97.6440162868
 20
-90.0
 40
14.5900727153
100
AcDbArc
 50
358.6254046104
 51
1.3745953896
  0
ARC
  5
419
100
AcDbEntity
  8
0
100
AcDbCircle
 62
7
  6
CONTINUOUS
 10
-234.3559837132
 20
-90.0
 40
14.5900727152
100
AcDbArc
 50
178.6254046104
 51
181.3745953896
  0
ARC
  5
41A
100
AcDbEntity
  8
0
100
AcDbCircle
 62
7
  6
CONTINUOUS
 10
-259.6440162868
 20
-90.0
 40
14.5900727152
100
AcDbArc
 50
358.6254046104
 51
1.3745953896
  0
ARC
  5
41B
100
AcDbEntity
  8
RACCORDO
100
AcDbCircle
 62
7
  6
CONTINUOUS
 10
-257.0
 20
-100.0
 40
10.0
100
AcDbArc
 50
179.9999997959
 51
270.000000136
  0
ARC
  5
41C
100
AcDbEntity
  8
CURVE
100
AcDbCircle
 62
7
  6
CONTINUOUS
 10
-257.0
 20
-100.0
 40
10.0
100
AcDbArc
 50
265.8415197273
 51
270.0
  0
ARC
  5
41D
100
AcDbEntity
  8
RACCORDO
100
AcDbCircle
 62
253
  6
CONTINUOUS
 10
-257.0
 20
-100.0
 40
7.9999879921
100
AcDbArc
 50
180.0
 51
270.0
  0
CIRCLE
  5
41E
100
AcDbEntity
  8
0
100
AcDbCircle
 62
7
  6
CONTINUOUS
 10
-247.0
 20
-90.0
 40
3.0
  0
CIRCLE
  5
41F
100
AcDbEntity
  8
0
100
AcDbCircle
 62
7
  6
CONTINUOUS
 10
-85.0
 20
-90.0
 40
3.0
  0
CIRCLE
  5
420
100
AcDbEntity
  8
0
100
AcDbCircle
 62
7
  6
CONTINUOUS
 10
-85.0
 20
-90.0
 40
2.75
  0
CIRCLE
  5
421
100
AcDbEntity
  8
0
100
AcDbCircle
 62
7
  6
CONTINUOUS
 10
-247.0
 20
-90.0
 40
2.75
  0
ARC
  5
422
100
AcDbEntity
  8
0
100
AcDbCircle
 62
7
  6
CONTINUOUS
 10
-72.3559837132
 20
90.0
 40
14.5900727153
100
AcDbArc
 50
178.6254046104
 51
181.3745953896
  0
ARC
  5
423
100
AcDbEntity
  8
0
100
AcDbCircle
 62
7
  6
CONTINUOUS
 10
-97.6440162868
 20
90.0
 40
14.5900727153
100
AcDbArc
 50
358.6254046104
 51
1.3745953896
  0
ARC
  5
424
100
AcDbEntity
  8
0
100
AcDbCircle
 62
7
  6
CONTINUOUS
 10
-234.3559837132
 20
90.0
 40
14.5900727152
100
AcDbArc
 50
178.6254046104
 51
181.3745953896
  0
ARC
  5
425
100
AcDbEntity
  8
0
100
AcDbCircle
 62
7
  6
CONTINUOUS
 10
-259.6440162868
 20
90.0
 40
14.5900727152
100
AcDbArc
 50
358.6254046104
 51
1.3745953896
  0
ARC
  5
426
100
AcDbEntity
  8
RACCORDO
100
AcDbCircle
 62
7
  6
CONTINUOUS
 10
-257.0
 20
100.0
 40
10.0
100
AcDbArc
 50
89.9999997959
 51
180.000000136
  0
ARC
  5
427
100
AcDbEntity
  8
CURVE
100
AcDbCircle
 62
7
  6
CONTINUOUS
 10
-257.0
 20
100.0
 40
10.0
100
AcDbArc
 50
94.1562217075
 51
94.8096064663
  0
ARC
  5
428
100
AcDbEntity
  8
CURVE
100
AcDbCircle
 62
7
  6
CONTINUOUS
 10
-257.0
 20
100.0
 40
10.0
100
AcDbArc
 50
175.190393465
 51
180.0
  0
ARC
  5
429
100
AcDbEntity
  8
RACCORDO
100
AcDbCircle
 62
253
  6
CONTINUOUS
 10
-257.0
 20
100.0
 40
7.9999879921
100
AcDbArc
 50
90.0
 51
180.0
  0
CIRCLE
  5
42A
100
AcDbEntity
  8
0
100
AcDbCircle
 62
7
  6
CONTINUOUS
 10
-247.0
 20
90.0
 40
3.0
  0
CIRCLE
  5
42B
100
AcDbEntity
  8
0
100
AcDbCircle
 62
7
  6
CONTINUOUS
 10
-85.0
 20
90.0
 40
3.0
  0
CIRCLE
  5
42C
100
AcDbEntity
  8
0
100
AcDbCircle
 62
7
  6
CONTINUOUS
 10
-85.0
 20
90.0
 40
2.75
  0
CIRCLE
  5
42D
100
AcDbEntity
  8
0
100
AcDbCircle
 62
7
  6
CONTINUOUS
 10
-247.0
 20
90.0
 40
2.75
  0
ARC
  5
42E
100
AcDbEntity
  8
0
100
AcDbCircle
 62
7
  6
CONTINUOUS
 10
97.6440162868
 20
-90.0
 40
14.5900727153
100
AcDbArc
 50
178.6254046104
 51
181.3745953896
  0
ARC
  5
42F
100
AcDbEntity
  8
0
100
AcDbCircle
 62
7
  6
CONTINUOUS
 10
72.3559837132
 20
-90.0
 40
14.5900727153
100
AcDbArc
 50
358.6254046104
 51
1.3745953896
  0
ARC
  5
430
100
AcDbEntity
  8
0
100
AcDbCircle
 62
7
  6
CONTINUOUS
 10
259.6440162868
 20
-90.0
 40
14.5900727152
100
AcDbArc
 50
178.6254046104
 51
181.3745953896
  0
ARC
  5
431
100
AcDbEntity
  8
0
100
AcDbCircle
 62
7
  6
CONTINUOUS
 10
234.3559837132
 20
-90.0
 40
14.5900727152
100
AcDbArc
 50
358.6254046104
 51
1.3745953896
  0
ARC
  5
432
100
AcDbEntity
  8
RACCORDO
100
AcDbCircle
 62
7
  6
CONTINUOUS
 10
257.0
 20
-100.0
 40
10.0
100
AcDbArc
 50
269.9999997959
 51
0.000000136
  0
ARC
  5
433
100
AcDbEntity
  8
CURVE
100
AcDbCircle
 62
7
  6
CONTINUOUS
 10
257.0
 20
-100.0
 40
10.0
100
AcDbArc
 50
355.8415197273
 51
360.0
  0
ARC
  5
434
100
AcDbEntity
  8
RACCORDO
100
AcDbCircle
 62
253
  6
CONTINUOUS
 10
257.0
 20
-100.0
 40
7.9999879921
100
AcDbArc
 50
270.0
 51
360.0
  0
CIRCLE
  5
435
100
AcDbEntity
  8
0
100
AcDbCircle
 62
7
  6
CONTINUOUS
 10
247.0
 20
-90.0
 40
3.0
  0
CIRCLE
  5
436
100
AcDbEntity
  8
0
100
AcDbCircle
 62
7
  6
CONTINUOUS
 10
85.0
 20
-90.0
 40
3.0
  0
CIRCLE
  5
437
100
AcDbEntity
  8
0
100
AcDbCircle
 62
7
  6
CONTINUOUS
 10
85.0
 20
-90.0
 40
2.75
  0
CIRCLE
  5
438
100
AcDbEntity
  8
0
100
AcDbCircle
 62
7
  6
CONTINUOUS
 10
247.0
 20
-90.0
 40
2.75
  0
ARC
  5
439
100
AcDbEntity
  8
0
100
AcDbCircle
 62
7
  6
CONTINUOUS
 10
97.6440162868
 20
90.0
 40
14.5900727153
100
AcDbArc
 50
178.6254046104
 51
181.3745953896
  0
ARC
  5
43A
100
AcDbEntity
  8
0
100
AcDbCircle
 62
7
  6
CONTINUOUS
 10
72.3559837132
 20
90.0
 40
14.5900727153
100
AcDbArc
 50
358.6254046104
 51
1.3745953896
  0
ARC
  5
43B
100
AcDbEntity
  8
0
100
AcDbCircle
 62
7
  6
CONTINUOUS
 10
259.6440162868
 20
90.0
 40
14.5900727152
100
AcDbArc
 50
178.6254046104
 51
181.3745953896
  0
ARC
  5
43C
100
AcDbEntity
  8
0
100
AcDbCircle
 62
7
  6
CONTINUOUS
 10
234.3559837132
 20
90.0
 40
14.5900727152
100
AcDbArc
 50
358.6254046104
 51
1.3745953896
  0
ARC
  5
43D
100
AcDbEntity
  8
RACCORDO
100
AcDbCircle
 62
7
  6
CONTINUOUS
 10
257.0
 20
100.0
 40
10.0
100
AcDbArc
 50
359.9999997959
 51
90.000000136
  0
ARC
  5
43E
100
AcDbEntity
  8
RACCORDO
100
AcDbCircle
 62
253
  6
CONTINUOUS
 10
257.0
 20
100.0
 40
7.9999879921
100
AcDbArc
 50
0.0
 51
90.0
  0
CIRCLE
  5
43F
100
AcDbEntity
  8
0
100
AcDbCircle
 62
7
  6
CONTINUOUS
 10
247.0
 20
90.0
 40
3.0
  0
CIRCLE
  5
440
100
AcDbEntity
  8
0
100
AcDbCircle
 62
7
  6
CONTINUOUS
 10
85.0
 20
90.0
 40
3.0
  0
CIRCLE
  5
441
100
AcDbEntity
  8
0
100
AcDbCircle
 62
7
  6
CONTINUOUS
 10
85.0
 20
90.0
 40
2.75
  0
CIRCLE
  5
442
100
AcDbEntity
  8
0
100
AcDbCircle
 62
7
  6
CONTINUOUS
 10
247.0
 20
90.0
 40
2.75
  0
ARC
  5
443
100
AcDbEntity
  8
RACCORDO
100
AcDbCircle
 62
7
  6
CONTINUOUS
 10
-416.873109173
 20
-108.0
 40
2.0
100
AcDbArc
 50
180.0
 51
270.0
  0
ARC
  5
444
100
AcDbEntity
  8
RACCORDO
100
AcDbCircle
 62
7
  6
CONTINUOUS
 10
-391.573109173
 20
-3.2934216865
 40
1.5
100
AcDbArc
 50
91.0
 51
180.0
  0
ARC
  5
445
100
AcDbEntity
  8
RACCORDO
100
AcDbCircle
 62
7
  6
CONTINUOUS
 10
-391.573109173
 20
-37.3065783135
 40
1.5
100
AcDbArc
 50
180.0
 51
269.0
  0
ARC
  5
446
100
AcDbEntity
  8
RACCORDO
100
AcDbCircle
 62
7
  6
CONTINUOUS
 10
-391.573109173
 20
-43.8934216865
 40
1.5
100
AcDbArc
 50
91.0
 51
180.0
  0
ARC
  5
447
100
AcDbEntity
  8
RACCORDO
100
AcDbCircle
 62
7
  6
CONTINUOUS
 10
-391.573109173
 20
-77.9065783135
 40
1.5
100
AcDbArc
 50
180.0
 51
269.0
  0
ARC
  5
448
100
AcDbEntity
  8
RACCORDO
100
AcDbCircle
 62
7
  6
CONTINUOUS
 10
-411.673109173
 20
-105.0762032128
 40
1.0
100
AcDbArc
 50
180.0
 51
240.0
  0
ARC
  5
449
100
AcDbEntity
  8
RACCORDO
100
AcDbCircle
 62
7
  6
CONTINUOUS
 10
-408.5803183582
 20
-106.8618268222
 40
1.0
100
AcDbArc
 50
240.0
 51
269.0
  0
ARC
  5
44A
100
AcDbEntity
  8
RACCORDO
100
AcDbCircle
 62
7
  6
CONTINUOUS
 10
-395.673109173
 20
-106.9125723473
 40
1.0
100
AcDbArc
 50
271.0
 51
360.0
  0
ARC
  5
44B
100
AcDbEntity
  8
RACCORDO
100
AcDbCircle
 62
7
  6
CONTINUOUS
 10
-416.873109173
 20
108.0
 40
2.0
100
AcDbArc
 50
90.0
 51
180.0
  0
ARC
  5
44C
100
AcDbEntity
  8
RACCORDO
100
AcDbCircle
 62
7
  6
CONTINUOUS
 10
-391.573109173
 20
77.9065783135
 40
1.5
100
AcDbArc
 50
91.0
 51
180.0
  0
ARC
  5
44D
100
AcDbEntity
  8
RACCORDO
100
AcDbCircle
 62
7
  6
CONTINUOUS
 10
-391.573109173
 20
43.8934216865
 40
1.5
100
AcDbArc
 50
180.0
 51
269.0
  0
ARC
  5
44E
100
AcDbEntity
  8
RACCORDO
100
AcDbCircle
 62
7
  6
CONTINUOUS
 10
-391.573109173
 20
37.3065783135
 40
1.5
100
AcDbArc
 50
91.0
 51
180.0
  0
ARC
  5
44F
100
AcDbEntity
  8
RACCORDO
100
AcDbCircle
 62
7
  6
CONTINUOUS
 10
-391.573109173
 20
3.2934216865
 40
1.5
100
AcDbArc
 50
180.0
 51
269.0
  0
ARC
  5
450
100
AcDbEntity
  8
RACCORDO
100
AcDbCircle
 62
7
  6
CONTINUOUS
 10
-408.5803183582
 20
106.8618268222
 40
1.0
100
AcDbArc
 50
91.0
 51
120.0
  0
ARC
  5
451
100
AcDbEntity
  8
RACCORDO
100
AcDbCircle
 62
7
  6
CONTINUOUS
 10
-411.673109173
 20
105.0762032128
 40
1.0
100
AcDbArc
 50
120.0
 51
173.4277168682
  0
ARC
  5
452
100
AcDbEntity
  8
RACCORDO
100
AcDbCircle
 62
7
  6
CONTINUOUS
 10
-395.673109173
 20
106.9125723473
 40
1.0
100
AcDbArc
 50
0.0
 51
89.0
  0
ARC
  5
453
100
AcDbEntity
  8
RACCORDO
100
AcDbCircle
 62
7
  6
CONTINUOUS
 10
-336.173109173
 20
-93.1641543848
 40
3.5
100
AcDbArc
 50
271.0
 51
360.0
  0
ARC
  5
454
100
AcDbEntity
  8
RACCORDO
100
AcDbCircle
 62
253
  6
CONTINUOUS
 10
-336.173109173
 20
-93.1641543848
 40
2.7
100
AcDbArc
 50
271.0
 51
323.0506232218
  0
ARC
  5
455
100
AcDbEntity
  8
RACCORDO
100
AcDbCircle
 62
253
  6
CONTINUOUS
 10
-336.167728293
 20
-93.4769862964
 40
2.6988027905
100
AcDbArc
 50
329.9323492247
 51
0.0053349717
  0
ARC
  5
456
100
AcDbEntity
  8
RACCORDO
100
AcDbCircle
 62
7
  6
CONTINUOUS
 10
-333.4731925962
 20
-82.9795440914
 40
0.8
100
AcDbArc
 50
270.3059748343
 51
0.0000312749
  0
ARC
  5
457
100
AcDbEntity
  8
RACCORDO
100
AcDbCircle
 62
7
  6
CONTINUOUS
 10
-336.173109173
 20
93.1641543848
 40
3.5
100
AcDbArc
 50
0.0
 51
89.0
  0
ARC
  5
458
100
AcDbEntity
  8
RACCORDO
100
AcDbCircle
 62
253
  6
CONTINUOUS
 10
-336.173109173
 20
93.1641543848
 40
2.7
100
AcDbArc
 50
36.9493767782
 51
89.0
  0
ARC
  5
459
100
AcDbEntity
  8
RACCORDO
100
AcDbCircle
 62
253
  6
CONTINUOUS
 10
-336.1681913682
 20
93.4768626799
 40
2.6992721866
100
AcDbArc
 50
359.9972898758
 51
30.0649968853
  0
ARC
  5
45A
100
AcDbEntity
  8
RACCORDO
100
AcDbCircle
 62
7
  6
CONTINUOUS
 10
-333.473109173
 20
82.9795436546
 40
0.8
100
AcDbArc
 50
0.0
 51
89.7
  0
LINE
  5
45B
100
AcDbEntity
  8
DRAFT
100
AcDbLine
 62
7
  6
CONTINUOUS
 10
-400.6731091722
 20
-96.351479495
 11
-405.0731091721
 21
-96.3542056655
  0
LINE
  5
45C
100
AcDbEntity
  8
DRAFT
100
AcDbLine
 62
7
  6
CONTINUOUS
 10
-405.0731091721
 20
-96.3542056655
 11
-409.0205104957
 21
-96.3563921891
  0
SPLINE
  5
45D
100
AcDbEntity
  8
RACCORDO
100
AcDbSpline
 62
253
  6
CONTINUOUS
 70
0
 71
3
 72
11
 73
7
 74
5
 42
0.0000001
 43
0.0000001
 44
0.0000000001
 12
-0.9999337346
 22
-0.0174539083
 32
0.0
 13
0.0174485937
 23
-0.9999338273
 33
0.0
 40
0.0
 40
0.0
 40
0.0
 40
0.0
 40
0.0763771051
 40
0.2931265808
 40
0.6174407223
 40
1.0
 40
1.0
 40
1.0
 40
1.0
 10
-408.5977707646
 20
107.8616745174
 30
0.0
 10
-408.6232281126
 20
107.8612301577
 30
0.0
 10
-408.5755567077
 20
107.7049679399
 30
0.0
 10
-408.6219779283
 20
107.5520296014
 30
0.0
 10
-408.5968028978
 20
107.2173596241
 30
0.0
 10
-408.5999958051
 20
106.9893381431
 30
0.0
 10
-408.5977707646
 20
106.8618268222
 30
0.0
 11
-408.5977707646
 21
107.8616745174
 31
0.0
 11
-408.6031182732
 21
107.7854782553
 31
0.0
 11
-408.6049960301
 21
107.568718261
 31
0.0
 11
-408.6031182732
 21
107.2443816471
 31
0.0
 11
-408.5977707646
 21
106.8618268222
 31
0.0
  0
SPLINE
  5
45E
100
AcDbEntity
  8
RACCORDO
100
AcDbSpline
 62
253
  6
CONTINUOUS
 70
0
 71
3
 72
9
 73
5
 74
3
 42
0.0000001
 43
0.0000001
 44
0.0000000001
 12
-0.2512252598
 22
-0.1450449714
 32
0.0
 13
0.0976620997
 23
-0.2378876557
 33
0.0
 40
0.0
 40
0.0
 40
0.0
 40
0.0
 40
0.2602894438
 40
1.0
 40
1.0
 40
1.0
 40
1.0
 10
-409.0803183582
 20
107.727852226
 30
0.0
 10
-409.1021154525
 20
107.7152676677
 30
0.0
 10
-408.984166165
 20
107.6037185911
 30
0.0
 10
-408.9687069653
 20
107.5302007782
 30
0.0
 10
-408.9446264032
 20
107.4715447749
 30
0.0
 11
-409.0803183582
 21
107.727852226
 31
0.0
 11
-409.047657308
 21
107.6597742142
 31
0.0
 11
-408.9446264032
 21
107.4715447749
 31
0.0
  0
SPLINE
  5
45F
100
AcDbEntity
  8
RACCORDO
100
AcDbSpline
 62
253
  6
CONTINUOUS
 70
0
 71
3
 72
9
 73
5
 74
3
 42
0.0000001
 43
0.0000001
 44
0.0000000001
 12
0.2361604961
 22
-0.5752453304
 32
0.0
 13
0.3506587169
 23
-0.6075437634
 33
0.0
 40
0.0
 40
0.0
 40
0.0
 40
0.0
 40
0.4582901266
 40
1.0
 40
1.0
 40
1.0
 40
1.0
 10
-408.9446264032
 20
107.4715447749
 30
0.0
 10
-408.9085497287
 20
107.3836683564
 30
0.0
 10
-408.7678988688
 20
107.1709872709
 30
0.0
 10
-408.6610891943
 20
106.971530974
 30
0.0
 10
-408.5977707646
 20
106.8618268222
 30
0.0
 11
-408.9446264032
 21
107.4715447749
 31
0.0
 11
-408.7867395867
 21
107.1915066734
 31
0.0
 11
-408.5977707646
 21
106.8618268222
 31
0.0
  0
SPLINE
  5
460
100
AcDbEntity
  8
RACCORDO
100
AcDbSpline
 62
253
  6
CONTINUOUS
 70
0
 71
3
 72
11
 73
7
 74
5
 42
0.0000001
 43
0.0000001
 44
0.0000000001
 12
-0.8587227661
 22
-0.4957838202
 32
0.0
 13
0.4956705504
 23
-0.8587881525
 33
0.0
 40
0.0
 40
0.0
 40
0.0
 40
0.0
 40
0.0761494696
 40
0.2925568877
 40
0.6167710812
 40
1.0
 40
1.0
 40
1.0
 40
1.0
 10
-412.173109173
 20
105.9422286165
 30
0.0
 10
-412.1949062673
 20
105.9296440582
 30
0.0
 10
-412.0769569798
 20
105.8180949817
 30
0.0
 10
-412.0443657548
 20
105.6631040624
 30
0.0
 10
-411.8606896836
 20
105.3853636614
 30
0.0
 10
-411.7538800091
 20
105.1859073645
 30
0.0
 10
-411.6905615794
 20
105.0762032128
 30
0.0
 11
-412.173109173
 21
105.9422286165
 31
0.0
 11
-412.1404481228
 21
105.8741506048
 31
0.0
 11
-412.037417218
 21
105.6859211654
 31
0.0
 11
-411.8795304015
 21
105.405883064
 31
0.0
 11
-411.6905615794
 21
105.0762032128
 31
0.0
  0
SPLINE
  5
461
100
AcDbEntity
  8
RACCORDO
100
AcDbSpline
 62
253
  6
CONTINUOUS
 70
0
 71
3
 72
9
 73
5
 74
3
 42
0.0000001
 43
0.0000001
 44
0.0000000001
 12
-0.2512252598
 22
0.1450449714
 32
0.0
 13
0.0976620997
 23
0.2378876557
 33
0.0
 40
0.0
 40
0.0
 40
0.0
 40
0.0
 40
0.2602894438
 40
1.0
 40
1.0
 40
1.0
 40
1.0
 10
-409.0803183582
 20
-107.727852226
 30
0.0
 10
-409.1021154525
 20
-107.7152676677
 30
0.0
 10
-408.984166165
 20
-107.6037185911
 30
0.0
 10
-408.9687069653
 20
-107.5302007782
 30
0.0
 10
-408.9446264032
 20
-107.4715447749
 30
0.0
 11
-409.0803183582
 21
-107.727852226
 31
0.0
 11
-409.047657308
 21
-107.6597742142
 31
0.0
 11
-408.9446264032
 21
-107.4715447749
 31
0.0
  0
SPLINE
  5
462
100
AcDbEntity
  8
RACCORDO
100
AcDbSpline
 62
253
  6
CONTINUOUS
 70
0
 71
3
 72
9
 73
5
 74
3
 42
0.0000001
 43
0.0000001
 44
0.0000000001
 12
0.2361604961
 22
0.5752453304
 32
0.0
 13
0.3506587169
 23
0.6075437634
 33
0.0
 40
0.0
 40
0.0
 40
0.0
 40
0.0
 40
0.4582901266
 40
1.0
 40
1.0
 40
1.0
 40
1.0
 10
-408.9446264032
 20
-107.4715447749
 30
0.0
 10
-408.9085497287
 20
-107.3836683564
 30
0.0
 10
-408.7678988688
 20
-107.1709872709
 30
0.0
 10
-408.6610891943
 20
-106.971530974
 30
0.0
 10
-408.5977707646
 20
-106.8618268222
 30
0.0
 11
-408.9446264032
 21
-107.4715447749
 31
0.0
 11
-408.7867395867
 21
-107.1915066734
 31
0.0
 11
-408.5977707646
 21
-106.8618268222
 31
0.0
  0
SPLINE
  5
463
100
AcDbEntity
  8
RACCORDO
100
AcDbSpline
 62
253
  6
CONTINUOUS
 70
0
 71
3
 72
11
 73
7
 74
5
 42
0.0000001
 43
0.0000001
 44
0.0000000001
 12
-0.4956705504
 22
-0.8587881525
 32
0.0
 13
0.8587227661
 23
-0.4957838202
 33
0.0
 40
0.0
 40
0.0
 40
0.0
 40
0.0
 40
0.3832289188
 40
0.7074431123
 40
0.9238505304
 40
1.0
 40
1.0
 40
1.0
 40
1.0
 10
-411.6905615794
 20
-105.0762032128
 30
0.0
 10
-411.7538800091
 20
-105.1859073645
 30
0.0
 10
-411.8606896836
 20
-105.3853636614
 30
0.0
 10
-412.0443657548
 20
-105.6631040624
 30
0.0
 10
-412.0769569798
 20
-105.8180949817
 30
0.0
 10
-412.1949062673
 20
-105.9296440582
 30
0.0
 10
-412.173109173
 20
-105.9422286165
 30
0.0
 11
-411.6905615794
 21
-105.0762032128
 31
0.0
 11
-411.8795304015
 21
-105.405883064
 31
0.0
 11
-412.037417218
 21
-105.6859211654
 31
0.0
 11
-412.1404481228
 21
-105.8741506048
 31
0.0
 11
-412.173109173
 21
-105.9422286165
 31
0.0
  0
SPLINE
  5
464
100
AcDbEntity
  8
RACCORDO
100
AcDbSpline
 62
253
  6
CONTINUOUS
 70
0
 71
3
 72
11
 73
7
 74
5
 42
0.0000001
 43
0.0000001
 44
0.0000000001
 12
-0.9999337346
 22
0.0174539083
 32
0.0
 13
0.0174485937
 23
0.9999338273
 33
0.0
 40
0.0
 40
0.0
 40
0.0
 40
0.0
 40
0.0763771051
 40
0.2931265808
 40
0.6174407223
 40
1.0
 40
1.0
 40
1.0
 40
1.0
 10
-408.5977707646
 20
-107.8616745174
 30
0.0
 10
-408.6232281126
 20
-107.8612301577
 30
0.0
 10
-408.5755567077
 20
-107.7049679399
 30
0.0
 10
-408.6219779283
 20
-107.5520296014
 30
0.0
 10
-408.5968028978
 20
-107.2173596241
 30
0.0
 10
-408.5999958051
 20
-106.9893381431
 30
0.0
 10
-408.5977707646
 20
-106.8618268222
 30
0.0
 11
-408.5977707646
 21
-107.8616745174
 31
0.0
 11
-408.6031182732
 21
-107.7854782553
 31
0.0
 11
-408.6049960301
 21
-107.568718261
 31
0.0
 11
-408.6031182732
 21
-107.2443816471
 31
0.0
 11
-408.5977707646
 21
-106.8618268222
 31
0.0
  0
SPLINE
  5
465
100
AcDbEntity
  8
RACCORDO
100
AcDbSpline
 62
7
  6
CONTINUOUS
 70
0
 71
3
 72
10
 73
6
 74
4
 42
0.0000001
 43
0.0000001
 44
0.0000000001
 12
0.5661378204
 22
-0.3334210978
 32
0.0
 13
0.3549638537
 23
0.5528854517
 33
0.0
 40
0.0
 40
0.0
 40
0.0
 40
0.0
 40
0.4971502644
 40
0.8473763707
 40
1.0
 40
1.0
 40
1.0
 40
1.0
 10
-333.8320901361
 20
-94.8291471319
 30
0.0
 10
-333.7382716138
 20
-94.8844005942
 30
0.0
 10
-333.5653808782
 20
-94.976828921
 30
0.0
 10
-333.3891986374
 20
-95.0493706407
 30
0.0
 10
-333.2459001155
 20
-95.0831545406
 30
0.0
 10
-333.2278414917
 20
-95.0550267458
 30
0.0
 11
-333.8320901361
 21
-94.8291471319
 31
0.0
 11
-333.5435265248
 21
-94.9821987061
 31
0.0
 11
-333.3278476888
 21
-95.0623983899
 31
0.0
 11
-333.2278414917
 21
-95.0550267458
 31
0.0
  0
SPLINE
  5
466
100
AcDbEntity
  8
RACCORDO
100
AcDbSpline
 62
253
  6
CONTINUOUS
 70
0
 71
3
 72
11
 73
7
 74
5
 42
0.0000001
 43
0.0000001
 44
0.0000000001
 12
0.9062819442
 22
0.0018541464
 32
0.0
 13
0.0
 23
0.9062838409
 33
0.0
 40
0.0
 40
0.0
 40
0.0
 40
0.0
 40
0.3374461117
 40
0.6319352626
 40
0.8524621572
 40
1.0
 40
1.0
 40
1.0
 40
1.0
 10
-333.4689204019
 20
-93.4767350028
 30
0.0
 10
-333.3669799625
 20
-93.4765264446
 30
0.0
 10
-333.1755643326
 20
-93.4629176327
 30
0.0
 10
-332.9244930815
 20
-93.3995251793
 30
0.0
 10
-332.7420844851
 20
-93.3131941157
 30
0.0
 10
-332.673109173
 20
-93.2087247724
 30
0.0
 10
-332.673109173
 20
-93.1641543848
 30
0.0
 11
-333.4689204019
 21
-93.4767350028
 31
0.0
 11
-333.1640623445
 21
-93.4524732024
 31
0.0
 11
-332.9059447299
 21
-93.3846058747
 31
0.0
 11
-332.7336054361
 21
-93.2833973184
 31
0.0
 11
-332.673109173
 21
-93.1641543848
 31
0.0
  0
SPLINE
  5
467
100
AcDbEntity
  8
RACCORDO
100
AcDbSpline
 62
253
  6
CONTINUOUS
 70
0
 71
3
 72
11
 73
7
 74
5
 42
0.0000001
 43
0.0000001
 44
0.0000000001
 12
0.8002285069
 22
0.004190025
 32
0.0
 13
-0.0041887854
 23
0.8002285134
 33
0.0
 40
0.0
 40
0.0
 40
0.0
 40
0.0
 40
0.0763812859
 40
0.2931395175
 40
0.6174568336
 40
1.0
 40
1.0
 40
1.0
 40
1.0
 10
-336.1217989045
 20
-83.7934232547
 30
0.0
 10
-336.1014247437
 20
-83.7933165748
 30
0.0
 10
-336.1380412861
 20
-83.6678177979
 30
0.0
 10
-336.0994031759
 20
-83.5459008656
 30
0.0
 10
-336.1162745461
 20
-83.2778830394
 30
0.0
 10
-336.11149162
 20
-83.0954748707
 30
0.0
 10
-336.1120257504
 20
-82.9934342209
 30
0.0
 11
-336.1217989045
 21
-83.7934232547
 31
0.0
 11
-336.1167751615
 21
-83.7325067357
 31
0.0
 11
-336.1131537768
 21
-83.5590860489
 31
0.0
 11
-336.1114860116
 21
-83.2995598882
 31
0.0
 11
-336.1120257504
 21
-82.9934342209
 31
0.0
  0
SPLINE
  5
468
100
AcDbEntity
  8
RACCORDO
100
AcDbSpline
 62
7
  6
CONTINUOUS
 70
0
 71
3
 72
10
 73
6
 74
4
 42
0.0000001
 43
0.0000001
 44
0.0000000001
 12
-0.163827839
 22
-0.0964848832
 32
0.0
 13
-0.1901115546
 23
0.0025476109
 33
0.0
 40
0.0
 40
0.0
 40
0.0
 40
0.0
 40
0.3108447128
 40
0.644666884
 40
1.0
 40
1.0
 40
1.0
 40
1.0
 10
-333.8320899875
 20
94.8291472195
 30
0.0
 10
-333.8490649933
 20
94.8191499475
 30
0.0
 10
-333.8867733471
 20
94.80246375
 30
0.0
 10
-333.9490343657
 20
94.7889654144
 30
0.0
 10
-333.9928408262
 20
94.7868473678
 30
0.0
 10
-334.0153584699
 20
94.7871491179
 30
0.0
 11
-333.8320899875
 21
94.8291472195
 31
0.0
 11
-333.8859941268
 21
94.8049147992
 31
0.0
 11
-333.9479059993
 21
94.7909415018
 31
0.0
 11
-334.0153584699
 21
94.7871491179
 31
0.0
  0
SPLINE
  5
469
100
AcDbEntity
  8
RACCORDO
100
AcDbSpline
 62
253
  6
CONTINUOUS
 70
0
 71
3
 72
11
 73
7
 74
5
 42
0.0000001
 43
0.0000001
 44
0.0000000001
 12
0.9062815691
 22
-0.0018550477
 32
0.0
 13
0.0
 23
-0.9062834676
 33
0.0
 40
0.0
 40
0.0
 40
0.0
 40
0.0
 40
0.3374387728
 40
0.6319284385
 40
0.8524593871
 40
1.0
 40
1.0
 40
1.0
 40
1.0
 10
-333.4689204019
 20
93.4767350028
 30
0.0
 10
-333.3669822217
 20
93.4765263478
 30
0.0
 10
-333.1755688016
 20
93.4629178453
 30
0.0
 10
-332.9244981899
 20
93.3995265436
 30
0.0
 10
-332.7420871846
 20
93.3131963055
 30
0.0
 10
-332.673109173
 20
93.2087255908
 30
0.0
 10
-332.673109173
 20
93.1641543848
 30
0.0
 11
-333.4689204019
 21
93.4767350028
 31
0.0
 11
-333.1640690747
 21
93.45247406
 31
0.0
 11
-332.9059507842
 21
93.3846079009
 31
0.0
 11
-332.7336075186
 21
93.2833990151
 31
0.0
 11
-332.673109173
 21
93.1641543848
 31
0.0
  0
SPLINE
  5
46A
100
AcDbEntity
  8
RACCORDO
100
AcDbSpline
 62
253
  6
CONTINUOUS
 70
0
 71
3
 72
11
 73
7
 74
5
 42
0.0000001
 43
0.0000001
 44
0.0000000001
 12
0.8002285075
 22
-0.004190025
 32
0.0
 13
-0.0041885838
 23
-0.800228515
 33
0.0
 40
0.0
 40
0.0
 40
0.0
 40
0.0
 40
0.0763747749
 40
0.2931248579
 40
0.6174441935
 40
1.0
 40
1.0
 40
1.0
 40
1.0
 10
-336.1217989045
 20
83.7934232547
 30
0.0
 10
-336.1014264805
 20
83.7933165839
 30
0.0
 10
-336.1380404952
 20
83.6678244635
 30
0.0
 10
-336.0994031816
 20
83.5459101649
 30
0.0
 10
-336.1162748615
 20
83.2778899485
 30
0.0
 10
-336.1114916082
 20
83.0954782424
 30
0.0
 10
-336.1120257306
 20
82.9934342208
 30
0.0
 11
-336.1217989045
 21
83.7934232547
 31
0.0
 11
-336.1167754057
 21
83.7325119436
 31
0.0
 11
-336.1131539867
 21
83.5590977796
 31
0.0
 11
-336.1114860731
 21
83.2995700036
 31
0.0
 11
-336.1120257306
 21
82.9934342208
 31
0.0
  0
LINE
  5
46B
100
AcDbEntity
  8
RACCORDO
100
AcDbLine
 62
253
  6
CONTINUOUS
 10
-336.1120257504
 20
82.9934342209
 11
-332.673109173
 21
82.9795436546
  0
SPLINE
  5
46C
100
AcDbEntity
  8
RACCORDO
100
AcDbSpline
 62
7
  6
CONTINUOUS
 70
0
 71
3
 72
10
 73
6
 74
4
 42
0.0000001
 43
0.0000001
 44
0.0000000001
 12
0.190111383
 22
0.0025476086
 32
0.0
 13
0.1638277556
 23
-0.0964846865
 33
0.0
 40
0.0
 40
0.0
 40
0.0
 40
0.0
 40
0.3553330913
 40
0.6891552616
 40
1.0
 40
1.0
 40
1.0
 40
1.0
 10
-334.0153584699
 20
-94.7871491179
 30
0.0
 10
-333.9928408481
 20
-94.7868473681
 30
0.0
 10
-333.9490344291
 20
-94.7889654101
 30
0.0
 10
-333.886773464
 20
-94.8024637169
 30
0.0
 10
-333.8490651347
 20
-94.8191498795
 30
0.0
 10
-333.8320901361
 20
-94.8291471319
 30
0.0
 11
-334.0153584699
 21
-94.7871491179
 31
0.0
 11
-333.9479060646
 21
-94.790941493
 31
0.0
 11
-333.8859942442
 21
-94.8049147605
 31
0.0
 11
-333.8320901361
 21
-94.8291471319
 31
0.0
  0
LINE
  5
46D
100
AcDbEntity
  8
DRAFT
100
AcDbLine
 62
7
  6
CONTINUOUS
 10
-400.6731091722
 20
96.351479495
 11
-405.0731091721
 21
96.3542056655
  0
LINE
  5
46E
100
AcDbEntity
  8
DRAFT
100
AcDbLine
 62
7
  6
CONTINUOUS
 10
-405.0731091721
 20
96.3542056655
 11
-409.0205104957
 21
96.3563921891
  0
SPLINE
  5
46F
100
AcDbEntity
  8
RACCORDO
100
AcDbSpline
 62
7
  6
CONTINUOUS
 70
0
 71
3
 72
10
 73
6
 74
4
 42
0.0000001
 43
0.0000001
 44
0.0000000001
 12
-0.3549642557
 22
0.552885785
 32
0.0
 13
-0.5661380261
 23
-0.3334217292
 33
0.0
 40
0.0
 40
0.0
 40
0.0
 40
0.0
 40
0.1526256085
 40
0.5028487774
 40
1.0
 40
1.0
 40
1.0
 40
1.0
 10
-333.2278414917
 20
95.0550267458
 30
0.0
 10
-333.2459003702
 20
95.0831549223
 30
0.0
 10
-333.3891987198
 20
95.0493737069
 30
0.0
 10
-333.5653807832
 20
94.9768280471
 30
0.0
 10
-333.7382712502
 20
94.8844008929
 30
0.0
 10
-333.8320899875
 20
94.8291472195
 30
0.0
 11
-333.2278414917
 21
95.0550267458
 31
0.0
 11
-333.3278489749
 21
95.0623996654
 31
0.0
 11
-333.5435257601
 21
94.9821995038
 31
0.0
 11
-333.8320899875
 21
94.8291472195
 31
0.0
  0
LINE
  5
470
100
AcDbEntity
  8
RACCORDO
100
AcDbLine
 62
253
  6
CONTINUOUS
 10
-332.673109173
 20
-82.9795436546
 11
-336.1120257504
 21
-82.9934342209
  0
SPLINE
  5
471
100
AcDbEntity
  8
DRAFT
100
AcDbSpline
 62
7
  6
CONTINUOUS
 70
0
 71
3
 72
8
 73
4
 74
2
 42
0.0000001
 43
0.0000001
 44
0.0000000001
 12
11.1207002918
 22
-0.0130100568
 32
0.0
 13
11.1207015836
 23
-0.0118400659
 33
0.0
 40
0.0
 40
0.0
 40
0.0
 40
0.0
 40
1.0
 40
1.0
 40
1.0
 40
1.0
 10
-355.2938101095
 20
-94.0109140888
 30
0.0
 10
-351.5869100122
 20
-94.0152507744
 30
0.0
 10
-347.8800097008
 20
-94.0194037411
 30
0.0
 10
-344.173109173
 20
-94.0233504297
 30
0.0
 11
-355.2938101095
 21
-94.0109140888
 31
0.0
 11
-344.173109173
 21
-94.0233504297
 31
0.0
  0
SPLINE
  5
472
100
AcDbEntity
  8
DRAFT
100
AcDbSpline
 62
7
  6
CONTINUOUS
 70
0
 71
3
 72
8
 73
4
 74
2
 42
0.0000001
 43
0.0000001
 44
0.0000000001
 12
11.1207002918
 22
0.0130100568
 32
0.0
 13
11.1207015836
 23
0.0118400659
 33
0.0
 40
0.0
 40
0.0
 40
0.0
 40
0.0
 40
1.0
 40
1.0
 40
1.0
 40
1.0
 10
-355.2938101095
 20
94.0109140888
 30
0.0
 10
-351.5869100122
 20
94.0152507744
 30
0.0
 10
-347.8800097008
 20
94.0194037411
 30
0.0
 10
-344.173109173
 20
94.0233504297
 30
0.0
 11
-355.2938101095
 21
94.0109140888
 31
0.0
 11
-344.173109173
 21
94.0233504297
 31
0.0
  0
SPLINE
  5
473
100
AcDbEntity
  8
DRAFT
100
AcDbSpline
 62
7
  6
CONTINUOUS
 70
0
 71
3
 72
10
 73
6
 74
4
 42
0.0000001
 43
0.0000001
 44
0.0000000001
 12
0.3431110888
 22
1.257222828
 32
0.0
 13
-0.3430315613
 23
1.2572445293
 33
0.0
 40
0.0
 40
0.0
 40
0.0
 40
0.0
 40
0.335095374
 40
0.6649056688
 40
1.0
 40
1.0
 40
1.0
 40
1.0
 10
-340.6575359884
 20
-0.6455414414
 30
0.0
 10
-340.6192110088
 20
-0.5051115902
 30
0.0
 10
-340.5738915875
 20
-0.217746142
 30
0.0
 10
-340.5738864523
 20
0.2177478448
 30
0.0
 10
-340.6192200112
 20
0.5051096032
 30
0.0
 10
-340.6575359884
 20
0.6455414414
 30
0.0
 11
-340.6575359884
 21
-0.6455414414
 31
0.0
 11
-340.5850411781
 21
-0.2149039755
 31
0.0
 11
-340.5850412908
 21
0.2149053346
 31
0.0
 11
-340.6575359884
 21
0.6455414414
 31
0.0
  0
ELLIPSE
  5
474
100
AcDbEntity
  8
DRAFT
100
AcDbEllipse
 62
7
  6
CONTINUOUS
 10
-429.7866964098
 20
-88.256563405
 30
0.0
 11
20.5187223114
 21
-9.7346830729
 31
0.0
 40
0.3418503939
 41
0.11621389
 42
0.2053538422
  0
ELLIPSE
  5
475
100
AcDbEntity
  8
DRAFT
100
AcDbEllipse
 62
7
  6
CONTINUOUS
 10
-429.7866964098
 20
88.256563405
 30
0.0
 11
20.5187223114
 21
9.7346830729
 31
0.0
 40
0.3418503939
 41
-0.2053538422
 42
-0.11621389
  0
ENDSEC
  0
SECTION
  2
OBJECTS
  0
DICTIONARY
  5
C
100
AcDbDictionary
280
0
281
1
  3
ACAD_GROUP
350
D
  3
ACAD_MLINESTYLE
350
17
  3
ACAD_LAYOUT
350
1A
  3
ACAD_PLOTSETTINGS
350
19
  3
ACAD_PLOTSTYLENAME
350
E
  0
DICTIONARY
  5
D
102
{ACAD_REACTORS
330
C
102
}
100
AcDbDictionary
280
0
281
1
  0
ACDBDICTIONARYWDFLT
  5
E
102
{ACAD_REACTORS
330
C
102
}
100
AcDbDictionary
281
1
  3
Normal
350
F
100
AcDbDictionaryWithDefault
340
F
  0
DICTIONARY
  5
17
102
{ACAD_REACTORS
330
C
102
}
100
AcDbDictionary
280
0
281
1
  3
Standard
350
18
  0
DICTIONARY
  5
19
102
{ACAD_REACTORS
330
C
102
}
100
AcDbDictionary
281
1
  0
DICTIONARY
  5
1A
102
{ACAD_REACTORS
330
C
102
}
100
AcDbDictionary
281
1
  3
Model
350
476
  3
Layout1
350
477
  0
ACDBPLACEHOLDER
  5
F
102
{ACAD_REACTORS
330
E
102
}
  0
MLINESTYLE
  5
18
102
{ACAD_REACTORS
330
17
102
}
100
AcDbMlineStyle
  2
STANDARD
 70
0
  3

 62
256
 51
90.0
 52
90.0
 71
2
 49
0.5
 62
256
  6
BYLAYER
 49
-0.5
 62
256
  6
BYLAYER
  0
LAYOUT
  5
476
102
{ACAD_REACTORS
330
1A
102
}
100
AcDbPlotSettings
  1

  2
none_device
  4
ISO_A4_(297.00_x_210.00_MM)
  6

 40
0.0
 41
0.0
 42
0.0
 43
0.0
 44
297.0
 45
210.0
 46
0.0
 47
0.0
 48
0.0
 49
0.0
140
0.0
141
0.0
142
1.0
143
1.0
 70
1024
 72
1
 73
0
 74
0
  7

 75
0
147
1.0
148
0.0
149
0.0
100
AcDbLayout
  1
Model
 70
0
 71
0
 10
0.0
 20
0.0
 11
297.0
 21
210.0
 12
0.0
 22
0.0
 32
0.0
 14
0.0
 24
0.0
 34
0.0
 15
0.0
 25
0.0
 35
0.0
146
0.0
 13
0.0
 23
0.0
 33
0.0
 16
1.0
 26
0.0
 36
0.0
 17
0.0
 27
1.0
 37
0.0
 76
0
330
211
345
0
346
0
  0
LAYOUT
  5
477
102
{ACAD_REACTORS
330
1A
102
}
100
AcDbPlotSettings
  1

  2
none_device
  4
ISO_A4_(297.00_x_210.00_MM)
  6

 40
0.0
 41
0.0
 42
0.0
 43
0.0
 44
297.0
 45
210.0
 46
0.0
 47
0.0
 48
0.0
 49
0.0
140
0.0
141
0.0
142
1.0
143
1.0
 70
0
 72
1
 73
0
 74
0
  7

 75
0
147
1.0
148
0.0
149
0.0
100
AcDbLayout
  1
Layout1
 70
0
 71
1
 10
0.0
 20
0.0
 11
297.0
 21
210.0
 12
0.0
 22
0.0
 32
0.0
 14
0.0
 24
0.0
 34
0.0
 15
0.0
 25
0.0
 35
0.0
146
0.0
 13
0.0
 23
0.0
 33
0.0
 16
1.0
 26
0.0
 36
0.0
 17
0.0
 27
1.0
 37
0.0
 76
0
330
212
345
0
346
0
  0
ENDSEC
  0
EOF
